osu file format v5

[General]
AudioFilename: Initial D - Speedy Speed Boy.mp3
AudioLeadIn: 0
PreviewTime: -1
Countdown: 1
SampleSet: Normal
StackLeniency: 0.5
Mode: 0
LetterboxInBreaks: 1

[Metadata]
Title:Speedy Speed Boy
Artist:Initial D
Creator:lukewarmholiday
Version:Speedy
Source:
Tags:

[Difficulty]
HPDrainRate:8
CircleSize:5
OverallDifficulty:8
SliderMultiplier:2
SliderTickRate:2

[Events]
//Background and Video events
0,0,"3165846dfdfeyqqfo_ph.jpg"
//Break Periods
2,20348,24574
//Storyboard Layer 0 (Background)
//Storyboard Layer 1 (Failing)
//Storyboard Layer 2 (Passing)
//Storyboard Layer 3 (Foreground)
//Storyboard Sound Samples
//Background Colour Transformations
3,100,192,192,192

[TimingPoints]
12858,394.503254651851,4,1,0,90,1

[Colours]
Combo1 : 0,0,0
Combo2 : 192,192,192
Combo3 : 221,221,0
Combo4 : 225,225,225

[HitObjects]
168,112,12857,1,0
216,48,13055,1,0
296,48,13252,1,0
344,112,13449,1,0
352,192,13647,2,2,B|304:232|256:192,1,100
168,264,14436,5,0
216,328,14633,1,0
296,328,14830,1,0
352,272,15027,1,0
352,192,15225,2,2,B|304:152|256:192,1,100
8,192,16014,5,0
24,112,16211,1,0
72,48,16408,1,0
144,16,16605,1,0
224,16,16803,2,2,B|296:16|296:88,1,100
312,312,17592,2,0,B|192:312|200:312,1,100
144,272,17986,2,0,B|40:200|40:192,1,100
112,152,18381,2,2,B|320:256,1,200
448,248,19170,6,0,B|472:192|448:144,3,100
408,80,19959,2,2,B|360:56|296:56,1,100
256,192,25482,5,4
168,56,25876,1,0
328,56,26271,2,0,B|463:56|464:192,1,200
472,344,27060,2,4,B|336:344,1,100
200,344,27651,1,4
136,192,28046,2,4,B|240:192,1,100
312,192,28440,5,4
304,32,28835,2,0,B|192:32,1,100
256,184,29427,5,4
400,248,29821,1,4
296,352,30216,1,0
216,352,30413,1,0
296,352,30610,1,0
216,352,30807,1,0
96,248,31202,2,0,B|72:192|96:144,1,100
96,248,31596,1,0
352,256,31991,1,0
432,256,32188,1,0
256,192,32287,12,4,32977
432,192,33372,5,0
376,128,33569,1,0
320,192,33766,1,0
240,192,33963,1,0
80,192,34358,2,0,B|200:192,1,100
256,192,34752,5,6
416,64,35147,5,6
96,64,35541,5,6
96,288,35936,5,6
416,288,36330,6,6,B|384:128|257:52|128:128|96:288,1,500
208,328,38106,5,0
288,328,38303,1,0
248,256,38500,1,0
248,176,38697,1,0
248,176,38796,1,0
248,176,38895,1,0
328,176,39092,1,4
488,176,39486,6,0,B|488:280,1,100
328,280,40078,1,0
248,280,40275,1,0
248,280,40374,1,0
248,280,40473,1,0
248,200,40670,1,4
248,40,41064,1,0
328,40,41262,5,0
328,80,41360,1,0
328,120,41459,1,0
328,160,41558,1,0
328,200,41656,1,0
168,200,42051,1,0
168,160,42149,1,0
168,120,42248,1,0
168,80,42347,1,0
168,40,42445,1,0
256,176,42840,5,0
256,296,43136,1,0
136,296,43432,1,0
136,216,43629,1,0
136,136,43826,1,0
112,104,43925,1,0
72,104,44023,1,0
48,136,44122,1,0
72,168,44221,1,0
112,168,44319,1,0
136,136,44418,1,0
216,136,44615,5,0
296,136,44812,1,0
376,136,45010,1,0
376,136,45108,1,0
376,136,45207,1,0
376,216,45404,1,4
256,320,45799,6,0,B|256:192,1,100
256,56,46390,1,0
176,56,46588,1,0
176,56,46686,1,0
176,56,46785,1,0
256,56,46982,1,4
416,56,47377,5,0
336,56,47574,1,0
344,96,47672,1,0
368,128,47771,1,0
400,144,47870,1,0
440,144,47968,1,0
424,296,48363,2,0,B|408:256|368:256,1,50
312,232,48659,2,0,B|280:224|248:240,1,50
104,224,49152,2,2,B|40:224|40:152,1,100
40,80,49546,2,2,B|40:40|80:40,1,50
144,40,49842,2,2,B|176:40|176:72,1,50
472,192,50730,5,0
392,192,50927,1,0
392,112,51124,1,0
392,192,51322,1,0
392,272,51519,2,2,B|392:328|352:360|304:352|256:320|248:296,1,200
128,192,52308,5,0
88,120,52505,1,0
168,120,52702,1,0
128,192,52900,1,0
168,120,53097,2,2,B|249:9|328:120,1,200
304,192,53689,5,0
328,120,53886,2,0,B|391:128|396:192|391:256|328:264,1,200
168,264,54675,2,0,B|105:256|100:192|105:128|168:120,1,200
328,120,55464,2,0,B|391:128|396:192|391:256|328:264,1,200
168,264,56253,2,0,B|105:256|100:192|105:128|168:120,1,200
328,120,57042,5,0
368,56,57239,1,0
328,120,57436,1,0
368,56,57634,1,0
408,120,57831,2,2,B|440:192|424:248|296:240,1,200
152,240,58620,5,0
152,160,58817,1,0
152,80,59014,1,0
152,160,59212,1,0
152,240,59409,2,2,B|232:351|312:240,1,200
272,168,60001,5,0
328,120,60198,2,0,B|391:128|396:192|391:256|328:264,1,200
168,264,60987,2,0,B|105:256|100:192|105:128|168:120,1,200
328,120,61776,2,0,B|391:128|396:192|391:256|328:264,1,200
168,264,62565,2,0,B|105:256|100:192|105:128|168:120,1,200
168,280,63354,6,0,B|154:383|272:382|256:280,1,200
360,160,64143,2,0,B|232:160,1,100
184,120,64537,1,0
136,56,64735,1,6
232,184,65129,1,6
336,304,65524,2,6,B|383:362|462:366|488:304|488:136,1,300
456,88,66313,5,0
376,64,66510,2,2,B|246:29|224:160,1,200
88,80,67299,5,0
128,152,67496,1,0
168,80,67693,1,0
208,152,67891,1,2
176,304,68285,2,2,B|255:412|344:304,1,200
256,80,69271,5,0
184,120,69469,1,0
160,192,69666,1,0
256,320,70060,1,0
256,160,70455,1,0
256,80,70652,1,0
416,80,71047,2,2,B|416:192|272:192,2,200
336,80,72033,5,0
256,80,72230,1,0
176,80,72427,1,0
216,144,72625,1,0
296,144,72822,1,0
256,208,73019,5,6
176,208,73216,5,6
224,360,73611,5,6
304,360,73808,5,6
256,96,74203,5,6
160,192,74400,5,6
256,288,74597,5,6
352,192,74795,5,6
256,192,75189,5,6
256,192,75386,1,6
256,192,75978,5,0
344,56,76373,1,0
184,56,76767,2,6,B|48:56|48:176,1,200
72,328,77556,2,0,B|96:376|176:376,3,100
312,368,78542,2,0,B|376:368|424:344,1,100
376,280,78937,1,0
288,144,79331,2,0,B|232:120|152:168,1,100
56,232,79923,2,6,B|151:312|240:232,2,200
40,152,80909,5,0
72,80,81107,1,0
136,32,81304,2,0,B|256:32,1,100
312,48,81698,1,0
360,112,81896,1,0
384,192,82093,2,0,B|272:192,1,100
280,112,82487,2,0,B|168:112,1,100
264,248,83079,2,6,B|264:352|112:344,1,200
80,192,83868,1,0
136,128,84065,1,0
192,192,84263,1,0
272,192,84460,1,0
432,192,84854,2,0,B|312:192,1,100
256,192,85249,5,6
96,64,85643,5,6
416,64,86038,5,6
416,288,86432,5,6
96,288,86827,6,6,B|128:128|255:52|384:128|416:288,1,500
256,192,88602,5,4
96,192,88997,1,0
176,56,89391,2,6,B|271:26|256:200,1,200
256,360,90180,6,0,B|319:359|320:288,1,100
328,136,90772,2,0,B|328:32|184:32,1,200
104,32,91364,1,0
104,112,91561,1,0
104,272,91955,2,0,B|104:336|168:336,1,100
320,336,92547,1,6
256,184,92942,5,6
256,24,93336,5,0
200,80,93533,1,0
256,136,93731,1,0
312,80,93928,1,0
472,80,94322,2,0,B|472:176|408:200,2,100
312,80,95111,1,0
232,80,95309,1,0
72,80,95703,6,6,B|62:174|120:280,2,200
152,80,96689,1,0
232,80,96887,1,0
312,80,97084,2,2,B|424:80|416:224,1,200
336,224,97676,1,0
256,192,97873,5,6
96,64,98267,5,6
416,64,98662,5,6
416,288,99056,5,6
96,288,99451,6,6,B|128:128|255:52|384:128|416:288,1,500
304,328,101226,5,0
224,328,101423,1,0
264,256,101621,1,0
264,176,101818,1,0
264,176,101917,1,0
264,176,102015,1,0
184,176,102212,1,4
24,176,102607,6,0,B|24:280,1,100
184,280,103199,1,0
264,280,103396,1,0
264,280,103495,1,0
264,280,103593,1,0
264,200,103791,1,4
264,40,104185,1,0
184,40,104382,5,0
184,80,104481,1,0
184,120,104580,1,0
184,160,104678,1,0
184,200,104777,1,0
344,200,105171,1,0
344,160,105270,1,0
344,120,105369,1,0
344,80,105467,1,0
344,40,105566,1,0
256,176,105960,5,0
256,296,106256,1,0
376,296,106552,1,0
376,216,106749,1,0
376,136,106947,1,0
400,104,107045,1,0
440,104,107144,1,0
464,136,107242,1,0
440,168,107341,1,0
400,168,107440,1,0
376,136,107538,1,0
296,136,107736,5,0
216,136,107933,1,0
136,136,108130,1,0
136,136,108229,1,0
136,136,108327,1,0
136,216,108525,1,4
256,320,108919,6,0,B|256:192,1,100
256,56,109511,1,0
336,56,109708,1,0
336,56,109807,1,0
336,56,109905,1,0
256,56,110103,1,4
96,56,110497,5,0
176,56,110694,1,0
168,96,110793,1,0
144,128,110892,1,0
112,144,110990,1,0
72,144,111089,1,0
88,296,111483,2,0,B|104:256|144:256,1,50
200,232,111779,2,0,B|232:224|264:240,1,50
408,224,112272,2,2,B|472:224|472:152,1,100
472,80,112667,2,2,B|472:40|432:40,1,50
368,40,112963,2,2,B|336:40|336:72,1,50
40,192,113850,5,0
120,192,114048,1,0
80,120,114245,1,0
120,192,114442,1,0
160,120,114639,2,2,B|256:56|352:120,1,200
472,192,115428,5,0
392,192,115626,1,0
432,120,115823,1,0
392,192,116020,1,0
352,120,116217,2,2,B|256:56|160:120,1,200
256,120,116809,1,0
336,120,117006,2,0,B|399:128|404:192|399:256|336:264,1,200
176,264,117795,2,0,B|113:256|108:192|113:128|176:120,1,200
336,120,118584,2,0,B|399:128|404:192|399:256|336:264,1,200
176,264,119373,2,0,B|113:256|108:192|113:128|176:120,1,200
328,120,120162,5,0
400,160,120360,1,0
328,200,120557,1,0
400,240,120754,1,0
328,280,120951,2,2,B|232:336|136:280,1,200
24,168,121740,5,0
96,128,121938,1,0
24,88,122135,1,0
96,56,122332,1,0
168,88,122529,2,2,B|256:136|328:232,1,200
256,272,123121,1,0
176,264,123318,2,0,B|113:256|108:192|113:128|176:120,1,200
336,120,124107,2,0,B|399:128|404:192|399:256|336:264,1,200
176,264,124896,2,0,B|113:256|108:192|113:128|176:120,1,200
336,120,125685,2,0,B|399:128|404:192|399:256|336:264,1,200
176,264,126474,6,2,B|176:368|80:368|80:264,1,200
80,104,127263,1,0
128,40,127461,1,0
176,104,127658,1,0
224,168,127855,1,6
336,280,128250,1,6
456,176,128644,1,6
256,40,129236,5,0
216,112,129433,1,0
296,112,129630,2,2,B|360:112|360:208|200:192,1,200
56,192,130419,1,0
56,272,130617,1,0
128,232,130814,1,0
56,192,131011,2,2,B|-40:120|64:24,2,200
296,192,132392,5,0
376,192,132589,1,0
456,192,132786,1,0
376,48,133181,1,0
216,48,133575,1,0
136,48,133773,1,0
296,48,134167,2,6,B|296:168|160:168,2,200
216,48,135154,5,0
256,112,135351,1,0
176,112,135548,1,0
216,184,135745,1,0
296,184,135943,1,0
376,184,136140,5,6
336,112,136337,5,6
296,280,136732,5,6
216,280,136929,5,6
256,96,137323,5,6
160,192,137521,5,6
256,288,137718,5,6
352,192,137915,5,6
256,192,138310,5,6
256,192,138507,1,6
56,56,139099,5,0
136,192,139493,1,0
216,56,139888,2,2,B|336:56|336:192,2,200
136,80,140874,1,0
32,216,141268,2,2,B|16:344|152:344,1,200
224,344,141860,1,0
304,344,142057,1,0
432,256,142452,1,0
432,176,142649,1,0
272,192,143044,5,4
112,192,143438,1,4
192,48,143833,5,0
152,120,144030,1,0
232,120,144227,1,0
192,48,144424,2,2,B|104:48|80:80|80:184,1,200
80,256,145016,1,0
80,336,145213,1,0
240,344,145608,1,0
320,344,145805,1,0
352,184,146200,6,4,B|256:128|160:184,1,200
48,64,146989,5,0
128,64,147186,1,0
88,136,147383,1,0
168,136,147580,2,2,B|192:184|128:208|88:208|96:288|144:304,1,200
208,256,148172,1,0
256,192,148369,5,6
96,320,148764,5,6
416,320,149158,5,6
416,96,149553,5,6
96,96,149947,6,6,B|128:256|255:332|384:256|416:96,1,500
256,40,151723,5,0
96,40,152117,1,0
256,40,152512,2,2,B|376:32|368:176,1,200
336,328,153301,2,0,B|296:360|240:360,1,100
80,352,153892,2,2,B|16:352|8:200|88:200,1,200
160,200,154484,1,0
240,200,154681,1,0
392,152,155076,1,0
392,232,155273,1,0
232,200,155668,5,4
72,200,156062,1,4
152,64,156457,5,0
152,144,156654,1,0
152,64,156851,1,0
152,144,157048,2,2,B|152:240|256:248|256:144,1,200
256,64,157640,1,0
336,64,157837,1,0
472,152,158232,1,0
472,232,158429,1,0
344,328,158824,6,4,B|256:408|160:328,1,200
80,192,159613,5,0
160,192,159810,1,0
120,120,160007,1,0
80,192,160204,2,2,B|72:344|208:272,1,200
256,224,160796,1,0
256,144,160993,1,6
256,296,161388,5,6
376,192,161782,5,6
256,88,162177,5,6
136,192,162571,5,6
216,192,162769,2,0,B|280:192,8,50
136,192,163755,2,0,B|136:160,4,25
256,296,164347,5,0
256,136,164741,1,0
256,216,164939,2,0,B|256:288,2,50
256,136,165333,1,0
400,72,165728,1,0
400,72,165925,1,0
360,224,166319,6,0,B|360:280|288:280,1,100
144,224,166911,6,0,B|144:280|216:280,1,100
256,128,167503,6,0,B|256:64,2,50
256,128,167799,1,0
256,288,168292,6,0,B|256:352,2,50
256,288,168588,1,0
48,40,169475,2,0,B|72:120|160:88,1,100
264,32,170067,2,0,B|336:32|328:120,1,100
416,224,170659,5,0
256,248,171053,1,0
256,168,171251,2,0,B|256:96,2,50
256,248,171645,1,0
400,312,172040,1,0
400,312,172237,1,0
360,160,172631,6,0,B|360:104|288:104,1,100
144,160,173223,6,0,B|144:104|216:104,1,100
256,256,173815,6,0,B|256:320,2,50
256,256,174111,1,0
256,96,174604,6,0,B|256:32,2,50
256,96,174900,1,0
216,248,175393,2,0,B|144:248|144:168,1,100
296,248,175985,2,0,B|368:248|368:168,1,100
288,184,176379,2,0,B|248:184,4,25
