osu file format v5

[General]
AudioFilename: Initial D - Speedy Speed Boy.mp3
AudioLeadIn: 0
PreviewTime: -1
Countdown: 1
SampleSet: Normal
StackLeniency: 0.4
Mode: 0
LetterboxInBreaks: 1

[Metadata]
Title:Speedy Speed Boy
Artist:Initial D
Creator:lukewarmholiday
Version:Hard
Source:
Tags:

[Difficulty]
HPDrainRate:6
CircleSize:5
OverallDifficulty:7
SliderMultiplier:1.2
SliderTickRate:2

[Events]
//Background and Video events
0,0,"3165846dfdfeyqqfo_ph.jpg"
//Break Periods
2,20346,24176
//Storyboard Layer 0 (Background)
//Storyboard Layer 1 (Failing)
//Storyboard Layer 2 (Passing)
//Storyboard Layer 3 (Foreground)
//Storyboard Sound Samples
//Background Colour Transformations
3,100,163,162,255

[TimingPoints]
12858,394.503254651851,4,1,0,90,1

[Colours]
Combo1 : 0,0,0
Combo2 : 128,128,128
Combo3 : 193,193,0
Combo4 : 211,211,211

[HitObjects]
208,192,12857,1,0
256,192,13055,1,0
304,192,13252,1,0
352,192,13449,2,0,B|352:272,1,60
352,296,13844,1,0
208,296,14436,5,0
160,296,14633,1,0
160,248,14830,1,0
160,200,15027,2,0,B|160:128,1,60
160,96,15422,1,0
248,24,16014,5,0
296,24,16211,1,0
336,48,16408,1,0
368,80,16605,2,0,B|392:104|392:136,1,60
392,176,17000,1,0
392,312,17592,5,0
344,312,17789,1,0
296,312,17986,1,0
248,312,18183,1,0
200,312,18381,2,2,B|127:312|128:232,1,120
128,144,19170,5,0
176,144,19367,1,0
224,144,19564,1,0
272,144,19761,2,0,B|336:144,1,60
376,144,20156,1,0
32,200,25482,5,0
56,152,25679,1,0
96,120,25876,1,0
184,80,26271,1,4
280,72,26665,1,4
368,96,27060,1,0
408,128,27257,1,0
432,168,27454,1,0
448,216,27651,2,2,B|440:280|392:328,1,120
352,336,28243,1,0
304,336,28440,1,0
208,336,28835,1,0
160,336,29032,1,0
160,240,29427,1,4
160,136,29821,1,4
160,48,30216,5,0
208,56,30413,1,0
240,88,30610,1,0
264,128,30807,1,0
272,224,31202,1,0
272,272,31399,1,0
296,312,31596,1,0
392,312,31991,1,0
432,288,32188,1,0
456,192,32583,1,4
440,96,32977,1,4
344,96,33372,5,0
312,136,33569,1,0
280,96,33766,1,0
248,56,33963,1,0
144,56,34358,1,0
96,56,34555,1,0
48,56,34752,1,6
48,152,35147,1,6
48,248,35541,2,6,B|192:248,1,120
272,248,36330,6,6,B|328:248|328:192|328:136|264:136|192:136|192:192|192:248|256:248,1,300
312,248,37514,6,2,B|376:136,1,120
352,96,38106,1,0
304,96,38303,1,0
256,96,38500,1,0
208,96,38697,2,0,B|208:56,2,30
160,96,39092,1,0
120,176,39486,1,0
120,224,39684,5,0
152,312,40078,1,0
192,336,40275,2,0,B|192:368,2,30
240,336,40670,1,0
408,312,41064,1,0
440,280,41262,2,0,B|464:216|440:160,1,120
368,96,42051,2,0,B|312:56|248:56,1,120
160,56,42840,2,0,B|104:56|64:104,1,90
48,152,43432,5,0
40,200,43629,1,0
40,248,43826,2,0,B|40:344|112:344|160:296,1,180
192,264,44615,1,0
224,232,44812,1,0
256,264,45010,2,0,B|256:312,2,30
296,232,45404,1,4
440,328,45799,5,0
440,280,45996,1,4
440,184,46390,1,0
440,136,46588,2,0,B|480:136,2,30
440,88,46982,1,4
360,40,47377,1,0
312,40,47574,2,0,B|256:40|256:152,1,120
256,224,48363,6,0,B|208:224,1,30
224,272,48659,2,0,B|272:272,1,30
192,328,49152,2,0,B|151:329|104:312,2,60
216,328,49645,1,0
264,328,49842,2,0,B|312:328,1,30
456,328,50730,5,0
456,280,50927,1,0
456,232,51124,1,0
456,184,51322,1,0
408,184,51519,1,0
368,152,51716,1,0
328,184,51913,1,0
288,152,52111,1,0
240,152,52308,6,0,B|200:152|200:200,1,60
200,232,52702,2,0,B|200:272|240:272,1,60
280,272,53097,2,0,B|368:272|408:224,1,120
416,192,53689,1,0
368,192,53886,2,2,B|224:192,3,120
152,192,55464,2,2,B|16:192,3,120
112,144,57042,5,0
88,192,57239,1,0
112,232,57436,1,0
160,232,57634,1,0
192,192,57831,1,6
248,112,58225,1,4
304,32,58620,5,0
352,8,58817,1,0
392,32,59014,1,0
392,80,59212,1,0
352,112,59409,1,2
272,160,59803,5,0
248,208,60001,1,0
288,248,60198,2,2,B|325:249|343:234|360:208|336:160,3,120
248,144,61776,2,2,B|112:144,2,120
296,144,62762,2,0,B|296:120,4,15
328,232,63354,2,2,B|400:232|400:152,2,120
280,232,64340,1,0
232,232,64537,1,0
184,232,64735,2,2,B|112:232|112:152,2,120
328,232,66115,5,0
376,232,66313,1,0
424,232,66510,2,2,B|512:232|512:320,2,120
375,232,67496,1,0
328,232,67693,1,0
280,232,67891,1,4
184,232,68285,1,4
88,232,68680,1,4
88,88,69271,6,2,B|166:82|160:160,1,120
160,256,70060,6,2,B|160:336|232:336,1,120
272,336,70652,1,0
368,336,71047,1,4
368,240,71441,1,0
368,144,71836,6,0,B|440:144,4,60
312,144,72822,1,0
264,144,73019,1,4
216,144,73216,1,0
120,144,73611,1,4
72,144,73808,1,4
72,240,74203,5,4
32,272,74400,5,4
72,304,74597,5,4
112,272,74795,5,4
120,176,75189,5,4
168,176,75386,1,4
216,256,75781,2,0,B|416:256,1,180
392,160,76767,1,4
320,96,77162,1,4
248,160,77556,1,0
216,192,77753,1,0
184,224,77951,1,0
152,256,78148,2,0,B|104:304|40:296,2,120
152,160,79331,1,0
152,112,79529,1,0
256,112,79923,5,4
352,112,80318,5,4
456,112,80712,5,0
456,160,80909,1,0
456,208,81107,1,0
448,256,81304,1,4
392,336,81698,1,0
352,360,81896,1,0
304,368,82093,1,4
208,368,82487,1,0
160,368,82685,1,0
64,360,83079,1,4
64,256,83474,1,4
64,160,83868,6,0,B|64:88,2,60
64,208,84460,2,2,B|192:208,1,120
232,208,85052,2,2,B|320:216,1,60
368,264,85643,2,2,B|480:192,1,120,2|6
376,192,86432,1,6
272,192,86827,6,6,B|216:192|216:136|216:80|280:80|352:80|352:136|352:192|288:192,1,300
216,320,88405,6,0,B|144:320,1,60
112,304,88799,2,0,B|40:280,1,60
56,184,89391,1,4
56,88,89786,1,4
152,88,90180,1,0
200,88,90377,1,0
240,112,90575,1,0
256,160,90772,2,0,B|264:216|264:288,1,120
264,328,91364,5,0
312,328,91561,1,0
408,312,91955,1,0
440,272,92153,1,0
440,168,92547,1,4
344,168,92942,1,4
248,168,93336,1,0
208,200,93533,1,0
168,168,93731,1,0
128,200,93928,1,0
32,192,94322,5,0
32,144,94520,1,0
32,96,94717,1,0
128,96,95111,1,0
176,96,95309,1,0
272,96,95703,1,4
368,96,96098,1,4
416,176,96492,5,0
416,224,96689,1,0
392,264,96887,1,0
352,288,97084,1,0
256,320,97478,1,0
208,320,97676,1,0
160,320,97873,1,0
88,248,98267,1,0
152,176,98662,1,0
216,248,99056,1,0
320,248,99451,2,6,B|376:248|376:192|376:136|312:136|240:136|240:192|240:248|304:248,1,300
224,72,101226,6,0,B|96:72,1,120
80,112,101818,2,0,B|120:144,2,30
48,152,102212,1,0
48,248,102607,1,0
72,288,102804,1,0
144,344,103199,1,0
192,344,103396,2,0,B|192:384,2,30
240,336,103791,1,0
296,256,104185,5,0
264,224,104382,2,0,B|216:168|160:224,1,120
160,320,105171,2,0,B|208:376|264:320,1,120
328,248,105960,1,0
328,176,106256,1,0
256,176,106552,1,0
208,176,106749,1,0
160,176,106947,2,0,B|80:176|80:64|160:64,1,180
208,64,107736,5,0
256,64,107933,1,0
304,64,108130,2,0,B|304:112,2,30
352,64,108525,1,4
432,120,108919,1,0
432,168,109116,1,0
432,264,109511,1,0
384,280,109708,2,0,B|384:320,2,30
336,280,110103,1,4
240,280,110497,5,0
192,280,110694,2,0,B|104:280|104:208,1,120
104,120,111483,2,0,B|144:120,1,30
184,120,111779,2,0,B|232:120,1,30
272,48,112272,5,0
296,88,112470,1,0
248,88,112667,2,0,B|200:88,1,30
168,88,112963,2,0,B|128:88,1,30
24,248,113850,6,0,B|80:192,1,60
104,232,114245,2,0,B|160:176,1,60
184,152,114639,1,4
376,160,115428,6,0,B|328:104,1,60
296,136,115823,2,0,B|248:80,1,60
208,88,116217,1,4
208,184,116612,1,0
208,232,116809,1,0
208,280,117006,2,2,B|208:352|128:352,3,120
32,352,118584,2,2,B|32:216,3,120
96,160,120162,6,0,B|144:104,1,60
176,144,120557,2,0,B|224:88,1,60
248,64,120951,1,4
416,152,121740,6,0,B|416:224,1,60
368,208,122135,2,0,B|368:296,1,60
368,312,122529,1,4
272,312,122924,1,0
224,312,123121,1,0
176,312,123318,2,2,B|176:176,3,120
176,96,124896,2,2,B|312:96,3,120
392,96,126474,5,4
392,192,126869,1,0
296,192,127263,1,0
248,192,127461,1,0
200,192,127658,1,0
152,192,127855,2,2,B|24:192,2,120
296,192,129236,1,0
344,192,129433,1,0
392,192,129630,2,2,B|472:192|472:104,2,120
344,192,130617,1,0
296,192,130814,1,0
248,192,131011,5,4
152,192,131406,1,4
56,192,131800,1,4
56,48,132392,2,2,B|192:48,3,120
224,48,133773,1,0
320,48,134167,5,4
320,144,134562,1,4
320,240,134956,2,0,B|384:240,4,60
272,240,135943,1,0
224,240,136140,1,4
176,240,136337,1,4
80,240,136732,1,4
32,240,136929,1,4
80,152,137323,5,4
120,120,137521,5,4
80,88,137718,5,4
40,120,137915,5,4
32,216,138310,1,4
80,216,138507,1,4
176,216,138901,6,0,B|256:104,1,120
272,80,139493,2,0,B|416:88,2,120
176,72,140677,1,0
128,72,140874,1,0
80,88,141071,1,0
48,120,141268,1,0
32,216,141663,1,0
24,264,141860,1,0
48,304,142057,1,0
144,312,142452,1,0
192,312,142649,1,0
288,312,143044,1,4
384,312,143438,1,4
480,312,143833,5,0
480,264,144030,1,0
480,216,144227,1,0
480,168,144424,1,0
384,168,144819,1,0
384,216,145016,1,0
384,264,145213,1,0
288,264,145608,1,0
288,216,145805,1,0
192,240,146200,1,4
96,240,146594,1,4
96,144,146989,5,0
128,104,147186,1,0
168,136,147383,1,0
208,168,147580,1,0
280,232,147975,1,0
320,264,148172,1,0
352,224,148369,1,4
408,144,148764,1,4
312,144,149158,1,4
216,144,149553,1,4
120,144,149947,1,4
120,192,150145,2,0,B|72:192,12,30
160,216,151525,6,0,B|352:216,1,180
376,128,152512,1,0
280,120,152906,1,0
184,120,153301,1,0
184,168,153498,1,0
184,216,153695,1,0
184,264,153892,2,0,B|184:338|264:336,1,120
304,336,154484,1,0
352,336,154681,5,0
448,336,155076,1,0
448,288,155273,1,0
448,192,155668,1,4
352,192,156062,5,4
256,192,156457,1,0
208,192,156654,1,0
160,192,156851,1,0
112,192,157048,2,0,B|32:192|32:112,1,120
32,72,157640,1,0
32,24,157837,1,0
128,24,158232,1,0
176,24,158429,1,0
272,24,158824,5,4
368,24,159218,5,4
440,88,159613,5,0
480,120,159810,1,0
440,152,160007,1,0
480,184,160204,1,0
480,280,160599,1,0
440,248,160796,1,0
400,280,160993,1,4
304,280,161388,1,4
208,280,161782,1,4
112,280,162177,1,4
112,184,162571,6,0,B|112:144,10,30
160,184,163755,6,0,B|160:160,4,15
256,184,164347,5,0
352,200,164741,1,0
384,232,164939,2,0,B|424:200,2,30
400,280,165333,1,0
352,360,165728,1,0
304,360,165925,1,0
304,264,166319,2,0,B|216:264,1,60
216,168,166911,2,0,B|296:168,1,60
368,168,167503,2,0,B|368:120,4,30
368,264,168292,6,0,B|400:264,4,30
176,272,169475,2,0,B|176:208,1,60
264,176,170067,2,0,B|264:248,1,60
320,312,170659,2,0,B|320:176,1,120
320,120,171349,1,0
320,48,171645,1,0
80,48,172631,6,0,B|80:136,1,60
80,200,173223,2,0,B|80:288,1,60
176,264,173815,2,0,B|176:232,2,30
176,288,174111,1,0
296,288,174604,2,0,B|296:328,2,30
296,264,174900,1,0
296,144,175393,6,0,B|208:144,1,60
256,48,175985,2,0,B|256:136,1,60
256,152,176379,2,0,B|256:176,4,15
