osu file format v14

[General]
AudioFilename: hayyyy (1).mp3
AudioLeadIn: 0
PreviewTime: 42736
Countdown: 0
SampleSet: Soft
StackLeniency: 0.7
Mode: 3
LetterboxInBreaks: 0
EpilepsyWarning: 1
SpecialStyle: 0
WidescreenStoryboard: 1

[Editor]
Bookmarks: 2536,74536
DistanceSpacing: 1.5
BeatDivisor: 4
GridSize: 8
TimelineZoom: 1.7

[Metadata]
Title:Dahil Sa'Yo
TitleUnicode:Dahil Sa'Yo
Artist:Inigo Pascual
ArtistUnicode:Iñigo Pascual
Creator:Sakary
Version:Pyano: Madali ni keziah
Source:
Tags:opm ppop filipino tagalog iyo sayo because of you abs-cbn keziah yuki_momoiro722 arviejhay hi_hello
BeatmapID:1662020
BeatmapSetID:778698

[Difficulty]
HPDrainRate:7.5
CircleSize:4
OverallDifficulty:7.5
ApproachRate:7
SliderMultiplier:2.5
SliderTickRate:2

[Events]
//Background and Video events
0,0,"lovee.jpg",0,0
//Break Periods
//Storyboard Layer 0 (Background)
//Storyboard Layer 1 (Fail)
//Storyboard Layer 2 (Pass)
//Storyboard Layer 3 (Foreground)
//Storyboard Sound Samples
Sample,6961,0,"bb.wav",80
Sample,10036,0,"a.wav",70
Sample,10336,0,"a.wav",70
Sample,10936,0,"d.wav",70
Sample,11236,0,"c.wav",70
Sample,11536,0,"c.wav",70
Sample,11836,0,"e.wav",70
Sample,12736,0,"C4H_s.wav",70
Sample,12886,0,"A5H_s.wav",70
Sample,13036,0,"G4H_s.wav",70
Sample,13186,0,"C6H_s.wav",70
Sample,13486,0,"A5H_s.wav",70
Sample,13636,0,"G4H_s.wav",70
Sample,13786,0,"A5H_s.wav",70
Sample,13936,0,"C4H_s.wav",70
Sample,14236,0,"D6H_s.wav",70
Sample,14236,0,"C5H_s.wav",70
Sample,14536,0,"B5H_s.wav",70
Sample,14836,0,"E5H_s.wav",70
Sample,14836,0,"B4H_s.wav",70
Sample,15136,0,"B5H_s.wav",70
Sample,15436,0,"E5H_s.wav",70
Sample,15436,0,"B5H_s.wav",70
Sample,15586,0,"B5H_s.wav",70
Sample,15886,0,"B5H_s.wav",70
Sample,16036,0,"B4H_s.wav",70
Sample,16486,0,"B5H_s.wav",70
Sample,16636,0,"E5H_s.wav",70
Sample,16636,0,"C6H_s.wav",70
Sample,16636,0,"B4H_s.wav",70
Sample,16936,0,"D4H_s.wav",70
Sample,17236,0,"F4H_s.wav",70
Sample,17236,0,"A4H_s.wav",70
Sample,17536,0,"D4H_s.wav",70
Sample,17836,0,"G5H_s.wav",70
Sample,17836,0,"A4H_s.wav",70
Sample,17986,0,"A5H_s.wav",70
Sample,18436,0,"F4H_s.wav",70
Sample,18936,0,"D5H_s.wav",70
Sample,19036,0,"A4H_s.wav",70
Sample,19336,0,"G3H_s.wav",70
Sample,19636,0,"G4H_s.wav",70
Sample,19636,0,"G5H_s.wav",70
Sample,19936,0,"G5H_s.wav",70
Sample,20236,0,"G4H_s.wav",70
Sample,20236,0,"D4H_s.wav",70
Sample,20386,0,"G5H_s.wav",70
Sample,20836,0,"D4H_s.wav",70
Sample,20836,0,"G4H_s.wav",70
Sample,21136,0,"G3H_s.wav",70
Sample,21136,0,"G5H_s.wav",70
Sample,21286,0,"A5H_s.wav",70
Sample,21436,0,"D4H_s.wav",70
Sample,21436,0,"G4H_s.wav",70
Sample,21586,0,"C6H_s.wav",70
Sample,22036,0,"G4H_s.wav",70
Sample,22036,0,"C6H_s.wav",70
Sample,22036,0,"C5H_s.wav",70
Sample,22186,0,"A5H_s.wav",70
Sample,22336,0,"C6H_s.wav",70
Sample,22636,0,"A5H_s.wav",70
Sample,22636,0,"G4H_s.wav",70
Sample,22786,0,"C6H_s.wav",70
Sample,23086,0,"C6H_s.wav",70
Sample,23236,0,"C5H_s.wav",70
Sample,23536,0,"C4H_s.wav",70
Sample,23686,0,"A5H_s.wav",70
Sample,23836,0,"B5H_s.wav",70
Sample,23836,0,"G4H_s.wav",70
Sample,23986,0,"C6H_s.wav",70
Sample,24136,0,"E4H_s.wav",70
Sample,24436,0,"B4H_s.wav",70
Sample,24436,0,"B5H_s.wav",70
Sample,24586,0,"B5H_s.wav",70
Sample,24736,0,"E4H_s.wav",70
Sample,25036,0,"E5H_s.wav",70
Sample,25036,0,"B5H_s.wav",70
Sample,25186,0,"B5H_s.wav",70
Sample,25486,0,"B5H_s.wav",70
Sample,25636,0,"B4H_s.wav",70
Sample,26086,0,"G5H_s.wav",70
Sample,26236,0,"B5H_s.wav",70
Sample,26236,0,"E5H_s.wav",70
Sample,26236,0,"B4H_s.wav",70
Sample,26536,0,"D4H_s.wav",70
Sample,26836,0,"A4H_s.wav",70
Sample,26836,0,"F4H_s.wav",70
Sample,27136,0,"A5H_s.wav",70
Sample,27436,0,"F4H_s.wav",70
Sample,27436,0,"G5H_s.wav",70
Sample,27586,0,"A5H_s.wav",70
Sample,27886,0,"A5H_s.wav",70
Sample,28036,0,"F4H_s.wav",70
Sample,28486,0,"D5H_s.wav",70
Sample,28636,0,"A5H_s.wav",70
Sample,28636,0,"F4H_s.wav",70
Sample,28936,0,"G3H_s.wav",70
Sample,29236,0,"G4H_s.wav",70
Sample,29236,0,"G5H_s.wav",70
Sample,29536,0,"G3H_s.wav",70
Sample,29836,0,"D4H_s.wav",70
Sample,29836,0,"G4H_s.wav",70
Sample,29986,0,"G5H_s.wav",70
Sample,30436,0,"G4H_s.wav",70
Sample,31036,0,"G4H_s.wav",70
Sample,31036,0,"D4H_s.wav",70
Sample,31186,0,"D5H_s.wav",70
Sample,31336,0,"C4H_s.wav",70
Sample,31636,0,"F5H_s.wav",70
Sample,32236,0,"G4H_s.wav",70
Sample,32836,0,"A5H_s.wav",70
Sample,33436,0,"G4H_s.wav",70
Sample,34036,0,"B4H_s.wav",70
Sample,34636,0,"B4H_s.wav",70
Sample,35536,0,"G5H_s.wav",70
Sample,35836,0,"G5H_s.wav",70
Sample,36136,0,"F4H_s.wav",70
Sample,36436,0,"C6H_s.wav",70
Sample,36736,0,"F4H_s.wav",70
Sample,36936,0,"A5H_s.wav",70
Sample,37186,0,"C6H_s.wav",70
Sample,38236,0,"A5H_s.wav",70
Sample,38236,0,"G3H_s.wav",70
Sample,38536,0,"E6H_s.wav",70
Sample,38836,0,"G4H_s.wav",70
Sample,39136,0,"C6H_s.wav",70
Sample,39436,0,"C6H_s.wav",70
Sample,40036,0,"D4H_s.wav",70
Sample,42936,0,"A5H_s.wav",70
Sample,43036,0,"C6H_s.wav",70
Sample,43186,0,"C6H_s.wav",70
Sample,43636,0,"C6H_s.wav",70
Sample,43936,0,"C5H_s.wav",70
Sample,43936,0,"C6H_s.wav",70
Sample,44236,0,"C4H_s.wav",70
Sample,44386,0,"C5H_s.wav",70
Sample,44386,0,"C6H_s.wav",70
Sample,44386,0,"G4H_s.wav",70
Sample,44686,0,"C6H_s.wav",70
Sample,44686,0,"C5H_s.wav",70
Sample,44686,0,"C4H_s.wav",70
Sample,45136,0,"C4H_s.wav",70
Sample,45136,0,"G4H_s.wav",70
Sample,45286,0,"A5H_s.wav",70
Sample,45436,0,"C4H_s.wav",70
Sample,45436,0,"G4H_s.wav",70
Sample,45586,0,"B5H_s.wav",70
Sample,46036,0,"B5H_s.wav",70
Sample,46036,0,"E4H_s.wav",70
Sample,46336,0,"B4H_s.wav",70
Sample,46336,0,"E5H_s.wav",70
Sample,46636,0,"B5H_s.wav",70
Sample,46786,0,"E5H_s.wav",70
Sample,46786,0,"B5H_s.wav",70
Sample,46786,0,"B4H_s.wav",70
Sample,47086,0,"B5H_s.wav",70
Sample,47086,0,"E4H_s.wav",70
Sample,47086,0,"E5H_s.wav",70
Sample,47536,0,"G5H_s.wav",70
Sample,47536,0,"B4H_s.wav",70
Sample,47686,0,"A5H_s.wav",70
Sample,47836,0,"B5H_s.wav",70
Sample,47836,0,"E5H_s.wav",70
Sample,47986,0,"A5H_s.wav",70
Sample,48136,0,"D4H_s.wav",70
Sample,48436,0,"D4H_s.wav",70
Sample,48586,0,"G5H_s.wav",70
Sample,48736,0,"D5H_s.wav",70
Sample,48736,0,"A5H_s.wav",70
Sample,48886,0,"G5H_s.wav",70
Sample,49036,0,"D4H_s.wav",70
Sample,49186,0,"D5H_s.wav",70
Sample,49186,0,"A4H_s.wav",70
Sample,49486,0,"A4H_s.wav",70
Sample,49486,0,"D5H_s.wav",70
Sample,49636,0,"A5H_s.wav",70
Sample,49786,0,"D4H_s.wav",70
Sample,49936,0,"A4H_s.wav",70
Sample,50236,0,"A5H_s.wav",70
Sample,50236,0,"D4H_s.wav",70
Sample,50536,0,"G3H_s.wav",70
Sample,50836,0,"G3H_s.wav",70
Sample,50836,0,"G5H_s.wav",70
Sample,51136,0,"G4H_s.wav",70
Sample,51136,0,"G5H_s.wav",70
Sample,51436,0,"F5H_s.wav",70
Sample,51436,0,"G3H_s.wav",70
Sample,51586,0,"D4H_s.wav",70
Sample,51586,0,"G4H_s.wav",70
Sample,51586,0,"G5H_s.wav",70
Sample,51886,0,"G4H_s.wav",70
Sample,51886,0,"D4H_s.wav",70
Sample,52336,0,"D4H_s.wav",70
Sample,52336,0,"G4H_s.wav",70
Sample,52486,0,"A5H_s.wav",70
Sample,52636,0,"B5H_s.wav",70
Sample,52636,0,"G3H_s.wav",70
Sample,52786,0,"C6H_s.wav",70
Sample,53236,0,"C4H_s.wav",70
Sample,53536,0,"G4H_s.wav",70
Sample,53536,0,"C6H_s.wav",70
Sample,53836,0,"A5H_s.wav",70
Sample,53986,0,"C5H_s.wav",70
Sample,53986,0,"G4H_s.wav",70
Sample,53986,0,"C6H_s.wav",70
Sample,54286,0,"C5H_s.wav",70
Sample,54286,0,"C6H_s.wav",70
Sample,54286,0,"C4H_s.wav",70
Sample,54736,0,"G4H_s.wav",70
Sample,54736,0,"G5H_s.wav",70
Sample,54886,0,"G5H_s.wav",70
Sample,55036,0,"G4H_s.wav",70
Sample,55036,0,"C6H_s.wav",70
Sample,55186,0,"B5H_s.wav",70
Sample,55336,0,"E4H_s.wav",70
Sample,55636,0,"E4H_s.wav",70
Sample,55636,0,"B5H_s.wav",70
Sample,55936,0,"E5H_s.wav",70
Sample,55936,0,"B4H_s.wav",70
Sample,56236,0,"E4H_s.wav",70
Sample,56386,0,"E5H_s.wav",70
Sample,56386,0,"B4H_s.wav",70
Sample,56386,0,"B5H_s.wav",70
Sample,56686,0,"E4H_s.wav",70
Sample,56686,0,"E5H_s.wav",70
Sample,57136,0,"B4H_s.wav",70
Sample,57136,0,"E5H_s.wav",70
Sample,57286,0,"A5H_s.wav",70
Sample,57436,0,"E5H_s.wav",70
Sample,57436,0,"B4H_s.wav",70
Sample,57436,0,"B5H_s.wav",70
Sample,57586,0,"A5H_s.wav",70
Sample,58036,0,"D4H_s.wav",70
Sample,58186,0,"A5H_s.wav",70
Sample,58336,0,"A4H_s.wav",70
Sample,58336,0,"D5H_s.wav",70
Sample,58486,0,"G5H_s.wav",70
Sample,58636,0,"D4H_s.wav",70
Sample,58786,0,"D5H_s.wav",70
Sample,58786,0,"A4H_s.wav",70
Sample,59086,0,"A4H_s.wav",70
Sample,59086,0,"D5H_s.wav",70
Sample,59236,0,"A5H_s.wav",70
Sample,59536,0,"D5H_s.wav",70
Sample,59836,0,"A5H_s.wav",70
Sample,59836,0,"D4H_s.wav",70
Sample,60136,0,"G3H_s.wav",70
Sample,60436,0,"G5H_s.wav",70
Sample,60436,0,"G3H_s.wav",70
Sample,60736,0,"G4H_s.wav",70
Sample,60736,0,"G5H_s.wav",70
Sample,61036,0,"G3H_s.wav",70
Sample,61036,0,"F5H_s.wav",70
Sample,61186,0,"G5H_s.wav",70
Sample,61186,0,"G4H_s.wav",70
Sample,61186,0,"D4H_s.wav",70
Sample,61486,0,"D4H_s.wav",70
Sample,61486,0,"G5H_s.wav",70
Sample,61486,0,"G4H_s.wav",70
Sample,61786,0,"G3H_s.wav",70
Sample,61936,0,"G4H_s.wav",70
Sample,62236,0,"E5H_s.wav",70
Sample,62236,0,"G3H_s.wav",70
Sample,62386,0,"E5H_s.wav",70
Sample,62536,0,"D4H_s.wav",70
Sample,62836,0,"G5H_s.wav",70
Sample,62986,0,"F5H_s.wav",70
Sample,63286,0,"D5H_s.wav",70
Sample,63436,0,"C5H_s.wav",70
Sample,64036,0,"C5H_s.wav",70
Sample,64336,0,"D4H_s.wav",70
Sample,64486,0,"A5H_s.wav",70
Sample,64786,0,"A5H_s.wav",70
Sample,65086,0,"G5H_s.wav",70
Sample,65236,0,"E5H_s.wav",70
Sample,65386,0,"G5H_s.wav",70
Sample,65686,0,"E5H_s.wav",70
Sample,65836,0,"E5H_s.wav",70
Sample,65986,0,"A5H_s.wav",70
Sample,66136,0,"E4H_s.wav",70
Sample,66436,0,"E5H_s.wav",70
Sample,67036,0,"E5H_s.wav",70
Sample,67336,0,"F4H_s.wav",70
Sample,67636,0,"C6H_s.wav",70
Sample,67636,0,"F5H_s.wav",70
Sample,67936,0,"F4H_s.wav",70
Sample,68386,0,"C6H_s.wav",70
Sample,68836,0,"F5H_s.wav",70
Sample,68836,0,"A5H_s.wav",70
Sample,69436,0,"G5H_s.wav",70
Sample,69436,0,"F5H_s.wav",70
Sample,69736,0,"G3H_s.wav",70
Sample,70036,0,"G4H_s.wav",70
Sample,70336,0,"G3H_s.wav",70
Sample,70636,0,"G4H_s.wav",70
Sample,71236,0,"G3H_s.wav",70

[TimingPoints]
2536,600,4,2,1,50,1,0
43336,-100,4,2,1,70,0,1
52336,-100,4,2,1,70,0,0
52936,-100,4,2,1,70,0,1
62536,-100,4,2,1,70,0,0

[HitObjects]
192,192,2536,5,0,0:0:0:80:
448,192,2536,1,0,0:0:0:80:ccc.wav
320,192,3136,1,2,0:0:0:80:
64,192,3586,1,0,0:0:0:80:
448,192,3586,1,0,0:0:0:80:c.wav
64,192,4036,1,0,0:0:0:80:
448,192,4036,1,0,0:0:0:80:c.wav
320,192,4336,1,2,0:0:0:80:
64,192,4636,1,0,0:0:0:80:
192,192,4636,1,0,0:0:0:80:c.wav
320,192,4936,1,0,0:0:0:80:
448,192,4936,1,0,0:0:0:80:ddd.wav
64,192,5536,1,2,0:0:0:80:
192,192,5986,1,0,0:0:0:80:
448,192,5986,1,0,0:0:0:80:d.wav
192,192,6436,1,0,0:0:0:80:
448,192,6436,1,0,0:0:0:80:d.wav
320,192,6736,1,2,0:0:0:80:
64,192,7036,1,0,0:0:0:80:c.wav
192,192,7336,1,0,0:0:0:80:
320,192,7336,1,0,0:0:0:80:aaa.wav
448,192,7936,1,2,0:0:0:80:
64,192,8386,1,0,0:0:0:80:
192,192,8386,1,0,0:0:0:80:a.wav
64,192,8836,1,0,0:0:0:80:
192,192,8836,1,0,0:0:0:80:a.wav
448,192,9136,1,2,0:0:0:80:
64,192,9436,1,0,0:0:0:70:a.wav
192,192,9436,1,0,0:0:0:0:
64,192,9736,1,2,0:0:0:0:
320,192,9736,128,0,10036:0:0:0:70:g.wav
448,192,10036,128,0,10336:0:0:0:0:
192,192,10336,128,8,10636:0:0:0:0:
64,192,10636,128,0,10936:0:0:0:70:d.wav
448,192,10936,128,8,11236:0:0:0:0:
320,192,11236,128,2,11536:0:0:0:0:
64,192,11536,128,8,11836:0:0:0:0:
192,192,11836,128,8,12136:0:0:0:0:
320,192,12136,1,4,0:0:0:0:
448,192,12136,1,2,0:0:0:0:
64,192,12736,1,10,0:0:0:0:
448,192,12736,1,0,0:0:0:70:C5H_s.wav
320,192,13036,1,0,0:0:0:70:C5H_s.wav
64,192,13336,1,2,0:0:0:0:
192,192,13336,1,0,0:0:0:70:C4H_s.wav
320,192,13636,1,0,0:0:0:70:C5H_s.wav
64,192,13936,1,10,0:0:0:0:
448,192,13936,1,0,0:0:0:70:C6H_s.wav
192,192,14236,1,0,0:0:0:70:G4H_s.wav
320,192,14536,1,2,0:0:0:0:
448,192,14536,1,0,0:0:0:70:E4H_s.wav
64,192,14836,1,0,0:0:0:70:B5H_s.wav
192,192,15136,1,10,0:0:0:0:
448,192,15136,1,0,0:0:0:70:E4H_s.wav
320,192,15436,1,0,0:0:0:70:B4H_s.wav
64,192,15736,1,2,0:0:0:0:
192,192,15736,1,0,0:0:0:70:E4H_s.wav
448,192,16036,1,0,0:0:0:70:E5H_s.wav
64,192,16336,1,10,0:0:0:0:
320,192,16336,1,0,0:0:0:70:E4H_s.wav
448,192,16636,1,8,0:0:0:0:
64,192,16936,1,2,0:0:0:0:
192,192,16936,1,0,0:0:0:70:A5H_s.wav
320,192,17236,1,0,0:0:0:70:A5H_s.wav
64,192,17536,1,10,0:0:0:0:
448,192,17536,1,0,0:0:0:70:A5H_s.wav
192,192,17836,1,0,0:0:0:70:F4H_s.wav
320,192,18136,1,2,0:0:0:0:
448,192,18136,1,0,0:0:0:70:D4H_s.wav
192,192,18436,1,0,0:0:0:70:A4H_s.wav
64,192,18736,1,10,0:0:0:0:
448,192,18736,1,0,0:0:0:70:D4H_s.wav
320,192,19036,1,0,0:0:0:70:F4H_s.wav
64,192,19336,1,2,0:0:0:0:
192,192,19336,1,0,0:0:0:70:G5H_s.wav
320,192,19636,1,0,0:0:0:70:D4H_s.wav
192,192,19936,1,10,0:0:0:0:
448,192,19936,1,0,0:0:0:70:G3H_s.wav
64,192,20236,1,0,0:0:0:70:F5H_s.wav
192,192,20536,1,2,0:0:0:0:
320,192,20536,1,0,0:0:0:70:G3H_s.wav
64,192,20836,128,4,21136:0:0:0:0:
448,192,21136,1,10,0:0:0:0:
192,192,21436,1,0,0:0:0:70:B5H_s.wav
320,192,21736,1,6,0:0:0:0:
448,192,21736,1,0,0:0:0:70:C4H_s.wav
192,192,22036,1,0,0:0:0:0:
64,192,22336,1,10,0:0:0:0:
448,192,22336,1,0,0:0:0:70:C4H_s.wav
320,192,22636,1,0,0:0:0:70:C5H_s.wav
64,192,22936,1,2,0:0:0:0:
192,192,22936,1,0,0:0:0:70:C4H_s.wav
448,192,23236,1,0,0:0:0:70:G4H_s.wav
64,192,23536,1,10,0:0:0:0:
320,192,23536,1,0,0:0:0:70:G5H_s.wav
192,192,23836,1,0,0:0:0:70:C5H_s.wav
320,192,24136,1,2,0:0:0:0:
448,192,24136,1,0,0:0:0:70:B5H_s.wav
64,192,24436,1,0,0:0:0:70:E5H_s.wav
192,192,24736,1,10,0:0:0:0:
448,192,24736,1,0,0:0:0:70:B5H_s.wav
320,192,25036,1,0,0:0:0:70:B4H_s.wav
64,192,25336,1,2,0:0:0:0:
192,192,25336,1,0,0:0:0:70:E4H_s.wav
448,192,25636,1,0,0:0:0:70:E5H_s.wav
64,192,25936,1,10,0:0:0:0:
320,192,25936,1,0,0:0:0:70:E4H_s.wav
192,192,26236,1,8,0:0:0:0:
320,192,26536,1,2,0:0:0:0:
448,192,26536,1,0,0:0:0:70:A5H_s.wav
192,192,26836,1,0,0:0:0:70:A5H_s.wav
64,192,27136,1,10,0:0:0:0:
448,192,27136,1,0,0:0:0:70:D4H_s.wav
320,192,27436,1,0,0:0:0:70:A4H_s.wav
64,192,27736,1,2,0:0:0:0:
192,192,27736,1,0,0:0:0:70:D4H_s.wav
320,192,28036,1,0,0:0:0:70:A4H_s.wav
192,192,28336,1,10,0:0:0:0:
448,192,28336,1,0,0:0:0:70:D4H_s.wav
64,192,28636,1,0,0:0:0:70:A4H_s.wav
192,192,28936,1,6,0:0:0:0:
320,192,28936,1,0,0:0:0:70:G5H_s.wav
320,192,29236,1,0,0:0:0:70:D4H_s.wav
64,192,29536,1,14,0:0:0:0:
448,192,29536,1,0,0:0:0:70:G5H_s.wav
64,192,29836,1,0,0:0:0:70:E5H_s.wav
192,192,30136,1,10,0:0:0:0:
320,192,30136,1,0,0:0:0:70:G3H_s.wav
64,192,30436,1,2,0:0:0:0:
448,192,30436,1,0,0:0:0:70:D4H_s.wav
192,192,30736,1,8,0:0:0:0:
320,192,30736,1,0,0:0:0:70:G3H_s.wav
64,192,30936,1,10,0:0:0:0:
448,192,31036,1,2,0:0:0:0:
320,192,31336,1,14,0:0:0:0:
448,192,31336,1,0,0:0:0:70:F5H_s.wav
192,192,31636,1,0,0:0:0:70:G4H_s.wav
64,192,31936,1,10,0:0:0:0:
448,192,31936,1,0,0:0:0:70:C5H_s.wav
320,192,32236,1,0,0:0:0:70:F5H_s.wav
64,192,32536,1,2,0:0:0:0:
192,192,32536,1,0,0:0:0:70:C4H_s.wav
448,192,32836,1,0,0:0:0:70:G4H_s.wav
64,192,33136,1,10,0:0:0:0:
320,192,33136,1,0,0:0:0:70:C5H_s.wav
192,192,33436,1,0,0:0:0:70:A5H_s.wav
320,192,33736,1,2,0:0:0:0:
448,192,33736,1,0,0:0:0:70:G5H_s.wav
192,192,34036,1,0,0:0:0:70:G5H_s.wav
64,192,34336,1,10,0:0:0:0:
448,192,34336,1,0,0:0:0:70:E5H_s.wav
320,192,34636,1,0,0:0:0:70:G5H_s.wav
64,192,34936,1,2,0:0:0:0:
192,192,34936,1,0,0:0:0:70:E4H_s.wav
320,192,35236,1,0,0:0:0:70:B4H_s.wav
64,192,35536,1,10,0:0:0:0:
448,192,35536,1,0,0:0:0:70:E5H_s.wav
192,192,35836,1,0,0:0:0:70:D4H_s.wav
320,192,36136,1,2,0:0:0:0:
448,192,36136,1,0,0:0:0:70:A5H_s.wav
192,192,36436,1,0,0:0:0:70:A4H_s.wav
64,192,36736,1,10,0:0:0:0:
448,192,36736,1,0,0:0:0:70:C6H_s.wav
320,192,37036,1,0,0:0:0:70:D4H_s.wav
64,192,37336,1,2,0:0:0:0:
192,192,37336,1,0,0:0:0:70:F4H_s.wav
320,192,37636,1,0,0:0:0:70:A4H_s.wav
192,192,37936,1,10,0:0:0:0:
448,192,37936,1,0,0:0:0:70:F4H_s.wav
320,192,38236,1,2,0:0:0:0:
448,192,38386,1,8,0:0:0:0:
64,192,38536,1,6,0:0:0:0:
192,192,38536,1,0,0:0:0:70:D4H_s.wav
320,192,38836,1,0,0:0:0:70:E6H_s.wav
448,192,39136,1,0,0:0:0:70:D4H_s.wav
320,192,39436,128,0,40036:0:0:0:70:G3H_s.wav
64,192,40036,128,0,40936:0:0:0:70:D6H_s.wav
448,192,40936,1,6,0:0:0:0:
192,192,41236,1,8,0:0:0:0:
320,192,41386,1,8,0:0:0:0:
64,192,41836,1,2,0:0:0:0:
448,192,41836,1,0,0:0:0:0:
192,192,41986,1,10,0:0:0:0:
320,192,42136,1,8,0:0:0:0:
448,192,42336,1,8,0:0:0:0:
192,192,42536,1,8,0:0:0:0:
64,192,42736,1,8,0:0:0:0:
320,192,42736,1,0,0:0:0:70:G5H_s.wav
192,192,43036,1,0,0:0:0:0:
64,192,43336,1,12,0:0:0:0:
320,192,43336,1,2,0:0:0:0:
448,192,43336,1,0,0:0:0:70:C4H_s.wav
192,192,43636,1,0,0:0:0:70:C4H_s.wav
320,192,43936,1,10,0:0:0:0:
448,192,43936,128,0,44536:0:0:0:70:G4H_s.wav
192,192,44236,1,0,0:0:0:70:C6H_s.wav
64,192,44536,1,2,0:0:0:0:
320,192,44536,1,0,0:0:0:0:
192,192,44686,1,8,0:0:0:0:
320,192,44836,1,0,0:0:0:0:
448,192,44986,1,0,0:0:0:70:C4H_s.wav
64,192,45136,1,10,0:0:0:0:
192,192,45136,1,0,0:0:0:70:G5H_s.wav
192,192,45436,1,0,0:0:0:70:C6H_s.wav
64,192,45736,128,2,46036:0:0:0:0:
320,192,45736,1,0,0:0:0:70:E4H_s.wav
192,192,46036,1,2,0:0:0:0:
320,192,46336,1,10,0:0:0:0:
448,192,46336,1,0,0:0:0:70:B5H_s.wav
64,192,46636,1,0,0:0:0:70:E4H_s.wav
192,192,46936,1,2,0:0:0:0:
448,192,46936,1,0,0:0:0:0:
320,192,47086,1,8,0:0:0:0:
64,192,47236,1,2,0:0:0:0:
192,192,47386,1,0,0:0:0:70:E4H_s.wav
64,192,47536,1,10,0:0:0:0:
448,192,47536,1,0,0:0:0:70:E5H_s.wav
192,192,47836,1,2,0:0:0:0:
320,192,47836,1,0,0:0:0:70:B4H_s.wav
64,192,48136,1,2,0:0:0:0:
448,192,48136,128,0,48436:0:0:0:70:A5H_s.wav
192,192,48436,1,0,0:0:0:70:A5H_s.wav
64,192,48736,1,10,0:0:0:0:
448,192,48736,1,0,0:0:0:70:A4H_s.wav
320,192,49036,1,0,0:0:0:70:A5H_s.wav
192,192,49186,1,8,0:0:0:0:
64,192,49336,128,2,49636:0:0:0:0:
448,192,49336,1,0,0:0:0:0:
192,192,49636,1,2,0:0:0:0:
320,192,49636,1,0,0:0:0:0:
64,192,49936,1,10,0:0:0:0:
448,192,49936,1,0,0:0:0:70:D5H_s.wav
320,192,50236,1,2,0:0:0:0:
64,192,50536,128,2,50836:0:0:0:0:
192,192,50536,1,0,0:0:0:70:G5H_s.wav
320,192,50836,1,2,0:0:0:0:
64,192,51136,1,10,0:0:0:0:
448,192,51136,1,0,0:0:0:70:D4H_s.wav
320,192,51436,1,2,0:0:0:0:
448,192,51586,1,8,0:0:0:0:
64,192,51736,1,2,0:0:0:0:
192,192,51736,1,0,0:0:0:0:
320,192,51886,1,8,0:0:0:0:
192,192,52036,1,2,0:0:0:0:
64,192,52186,1,0,0:0:0:70:G3H_s.wav
320,192,52336,1,10,0:0:0:0:
448,192,52336,1,0,0:0:0:70:G5H_s.wav
192,192,52636,1,2,0:0:0:0:
64,192,52936,1,14,0:0:0:0:
448,192,52936,128,0,53236:0:0:0:70:C4H_s.wav
320,192,53236,1,0,0:0:0:70:C6H_s.wav
64,192,53536,128,10,53836:0:0:0:0:
448,192,53536,1,0,0:0:0:70:C5H_s.wav
192,192,53836,1,0,0:0:0:70:C4H_s.wav
320,192,54136,1,2,0:0:0:0:
448,192,54136,1,0,0:0:0:0:
64,192,54286,1,8,0:0:0:0:
320,192,54436,1,2,0:0:0:0:
192,192,54586,1,0,0:0:0:70:C4H_s.wav
64,192,54736,1,10,0:0:0:0:
448,192,54736,1,0,0:0:0:70:C4H_s.wav
192,192,55036,1,0,0:0:0:70:C4H_s.wav
320,192,55336,1,2,0:0:0:0:
448,192,55336,128,0,55636:0:0:0:0:
192,192,55636,1,2,0:0:0:0:
64,192,55936,128,10,56236:0:0:0:0:
192,192,55936,1,0,0:0:0:70:B5H_s.wav
448,192,56236,1,0,0:0:0:70:A5H_s.wav
64,192,56536,1,2,0:0:0:0:
192,192,56536,1,0,0:0:0:0:
448,192,56686,1,8,0:0:0:0:
320,192,56836,1,2,0:0:0:0:
192,192,56986,1,0,0:0:0:70:E4H_s.wav
64,192,57136,1,10,0:0:0:0:
448,192,57136,1,0,0:0:0:70:G5H_s.wav
320,192,57436,1,2,0:0:0:0:
64,192,57736,128,2,58036:0:0:0:0:
448,192,57736,1,0,0:0:0:70:D4H_s.wav
192,192,58036,1,2,0:0:0:0:
320,192,58336,1,10,0:0:0:0:
448,192,58336,1,0,0:0:0:70:A5H_s.wav
64,192,58636,1,0,0:0:0:70:A5H_s.wav
448,192,58786,1,8,0:0:0:0:
192,192,58936,1,2,0:0:0:0:
320,192,58936,1,0,0:0:0:0:
64,192,59086,1,8,0:0:0:0:
192,192,59236,1,2,0:0:0:0:
320,192,59386,1,0,0:0:0:70:D4H_s.wav
64,192,59536,1,10,0:0:0:0:
448,192,59536,1,0,0:0:0:70:A4H_s.wav
192,192,59836,1,2,0:0:0:0:
320,192,60136,1,2,0:0:0:0:
448,192,60136,128,0,60436:0:0:0:70:G5H_s.wav
64,192,60436,1,2,0:0:0:0:
192,192,60736,1,10,0:0:0:0:
448,192,60736,1,0,0:0:0:70:D4H_s.wav
448,192,61036,1,2,0:0:0:0:
320,192,61186,1,8,0:0:0:0:
64,192,61336,1,2,0:0:0:0:
192,192,61336,1,0,0:0:0:70:A5H_s.wav
320,192,61636,1,2,0:0:0:0:
448,192,61636,1,0,0:0:0:0:
64,192,61936,1,2,0:0:0:0:
192,192,61936,1,0,0:0:0:70:D4H_s.wav
320,192,62236,1,2,0:0:0:0:
64,192,62536,1,12,0:0:0:0:
192,192,62536,1,2,0:0:0:0:
448,192,62536,1,0,0:0:0:70:F5H_s.wav
320,192,62836,1,0,0:0:0:70:F5H_s.wav
64,192,63136,1,10,0:0:0:0:
448,192,63136,1,0,0:0:0:70:D4H_s.wav
64,192,63436,128,0,63736:0:0:0:70:F5H_s.wav
320,192,63736,1,2,0:0:0:0:
448,192,63736,1,0,0:0:0:70:D4H_s.wav
192,192,63886,1,8,0:0:0:0:
320,192,64036,1,2,0:0:0:0:
448,192,64186,1,0,0:0:0:0:
64,192,64336,1,10,0:0:0:0:
320,192,64336,1,0,0:0:0:70:G5H_s.wav
448,192,64636,1,0,0:0:0:70:C5H_s.wav
64,192,64936,1,2,0:0:0:0:
192,192,64936,1,0,0:0:0:70:E4H_s.wav
320,192,65236,1,2,0:0:0:0:
64,192,65536,1,10,0:0:0:0:
448,192,65536,1,0,0:0:0:70:E4H_s.wav
448,192,65836,128,0,66136:0:0:0:70:G5H_s.wav
64,192,66136,1,2,0:0:0:0:
192,192,66136,1,0,0:0:0:70:G5H_s.wav
320,192,66436,1,2,0:0:0:0:
192,192,66586,1,0,0:0:0:0:
64,192,66736,1,10,0:0:0:0:
448,192,66736,1,0,0:0:0:70:E4H_s.wav
320,192,67036,1,0,0:0:0:70:G5H_s.wav
64,192,67336,128,2,67636:0:0:0:0:
448,192,67336,1,0,0:0:0:70:A5H_s.wav
320,192,67636,1,2,0:0:0:0:
192,192,67936,1,10,0:0:0:0:
448,192,67936,1,0,0:0:0:70:C6H_s.wav
64,192,68086,1,0,0:0:0:70:A5H_s.wav
448,192,68236,128,0,68536:0:0:0:70:F5H_s.wav
64,192,68536,1,2,0:0:0:0:
192,192,68536,1,0,0:0:0:70:F4H_s.wav
320,192,68686,1,8,0:0:0:0:
192,192,68836,1,2,0:0:0:0:
192,192,69136,1,10,0:0:0:0:
448,192,69136,1,0,0:0:0:70:F4H_s.wav
320,192,69436,1,2,0:0:0:0:
192,192,69586,1,8,0:0:0:0:
320,192,69736,1,6,0:0:0:0:
448,192,69736,1,0,0:0:0:70:E6H_s.wav
64,192,70036,1,0,0:0:0:70:E6H_s.wav
320,192,70336,1,0,0:0:0:70:C6H_s.wav
64,192,70636,128,0,71236:0:0:0:70:C6H_s.wav
448,192,71236,128,0,72136:0:0:0:70:D6H_s.wav
192,192,72136,1,6,0:0:0:0:
64,192,72436,1,8,0:0:0:0:
192,192,72586,1,8,0:0:0:0:
192,192,73036,1,2,0:0:0:0:
448,192,73036,1,0,0:0:0:0:
320,192,73336,1,8,0:0:0:0:
64,192,73486,1,8,0:0:0:0:
192,192,73786,1,2,0:0:0:0:
448,192,73936,1,2,0:0:0:0:
64,192,74086,1,2,0:0:0:0:
320,192,74236,1,2,0:0:0:0:
192,192,74386,1,2,0:0:0:0:
64,192,74536,1,4,0:0:0:0:
320,192,74536,1,2,0:0:0:0:
448,192,74536,1,0,0:0:0:0:
