osu file format v14

[General]
AudioFilename: hayyyy (1).mp3
AudioLeadIn: 0
PreviewTime: 42736
Countdown: 0
SampleSet: Normal
StackLeniency: 0.7
Mode: 1
LetterboxInBreaks: 0
EpilepsyWarning: 1
WidescreenStoryboard: 1

[Editor]
Bookmarks: 2536,12136,13636,23236,31336,32836,43336,51886,62536,74536
DistanceSpacing: 1.5
BeatDivisor: 4
GridSize: 8
TimelineZoom: 2

[Metadata]
Title:Dahil Sa'Yo
TitleUnicode:Dahil Sa'Yo
Artist:Inigo Pascual
ArtistUnicode:IƱigo Pascual
Creator:Sakary
Version:Dram: Mahirap ni Momo
Source:
Tags:opm ppop filipino tagalog iyo sayo because of you abs-cbn keziah yuki_momoiro722 arviejhay hi_hello
BeatmapID:1662077
BeatmapSetID:778698

[Difficulty]
HPDrainRate:7
CircleSize:5
OverallDifficulty:5
ApproachRate:5
SliderMultiplier:1.4
SliderTickRate:2

[Events]
//Background and Video events
0,0,"lovee.jpg",0,0
//Break Periods
//Storyboard Layer 0 (Background)
//Storyboard Layer 1 (Fail)
//Storyboard Layer 2 (Pass)
//Storyboard Layer 3 (Foreground)
//Storyboard Sound Samples

[TimingPoints]
2536,600,4,1,0,50,1,0
43336,-100,4,1,0,70,0,1
52336,-100,4,1,0,70,0,0
52936,-100,4,1,0,70,0,1
62536,-100,4,1,0,70,0,0

[Colours]
Combo1 : 128,255,128
Combo2 : 255,174,174

[HitObjects]
256,192,2536,5,0,0:0:0:0:
256,192,3136,1,8,0:0:0:0:
256,192,4336,1,8,0:0:0:0:
256,192,5536,1,8,0:0:0:0:
256,192,6736,1,8,0:0:0:0:
256,192,7036,1,0,0:0:0:0:
256,192,7336,1,0,0:0:0:0:
256,192,7936,1,8,0:0:0:0:
256,192,9136,1,8,0:0:0:0:
256,192,9736,1,4,0:0:0:0:
256,192,10336,1,12,0:0:0:0:
256,192,10936,1,12,0:0:0:0:
256,192,11536,1,12,0:0:0:0:
256,192,12136,1,4,0:0:0:0:
256,192,12736,1,8,0:0:0:0:
256,192,13636,1,0,0:0:0:0:
256,192,13936,1,8,0:0:0:0:
256,192,14536,1,0,0:0:0:0:
256,192,15136,1,8,0:0:0:0:
256,192,15736,1,0,0:0:0:0:
256,192,16036,1,0,0:0:0:0:
256,192,16336,1,8,0:0:0:0:
256,192,16636,1,8,0:0:0:0:
256,192,16786,1,8,0:0:0:0:
256,192,16936,1,0,0:0:0:0:
256,192,17536,1,8,0:0:0:0:
256,192,18136,1,0,0:0:0:0:
256,192,18436,1,0,0:0:0:0:
256,192,18736,1,8,0:0:0:0:
256,192,19336,1,0,0:0:0:0:
256,192,19936,1,8,0:0:0:0:
256,192,20536,1,0,0:0:0:0:
256,192,20836,1,8,0:0:0:0:
256,192,21136,1,8,0:0:0:0:
256,192,21736,1,12,0:0:0:0:
256,192,22336,1,8,0:0:0:0:
256,192,23236,1,0,0:0:0:0:
256,192,23536,1,8,0:0:0:0:
256,192,23836,1,0,0:0:0:0:
256,192,24136,1,0,0:0:0:0:
256,192,24736,1,8,0:0:0:0:
256,192,25336,1,0,0:0:0:0:
256,192,25636,1,8,0:0:0:0:
256,192,25936,1,8,0:0:0:0:
256,192,26236,1,0,0:0:0:0:
256,192,26386,1,0,0:0:0:0:
256,192,26536,1,0,0:0:0:0:
256,192,27136,1,8,0:0:0:0:
256,192,28036,1,0,0:0:0:0:
256,192,28336,1,8,0:0:0:0:
256,192,28636,1,0,0:0:0:0:
256,192,28936,1,0,0:0:0:0:
256,192,29536,1,8,0:0:0:0:
256,192,30136,1,8,0:0:0:0:
256,192,30436,1,0,0:0:0:0:
256,192,30736,1,8,0:0:0:0:
256,192,30886,1,8,0:0:0:0:
256,192,31036,1,8,0:0:0:0:
256,192,31336,1,4,0:0:0:0:
256,192,31936,1,8,0:0:0:0:
256,192,32836,1,0,0:0:0:0:
256,192,33136,1,8,0:0:0:0:
256,192,33436,1,0,0:0:0:0:
256,192,33736,1,0,0:0:0:0:
256,192,34036,1,8,0:0:0:0:
256,192,34636,1,8,0:0:0:0:
256,192,34936,1,0,0:0:0:0:
256,192,35536,1,8,0:0:0:0:
256,192,35836,1,0,0:0:0:0:
256,192,36136,1,8,0:0:0:0:
256,192,36736,1,8,0:0:0:0:
256,192,37136,1,8,0:0:0:0:
256,192,37936,1,8,0:0:0:0:
256,192,38536,1,12,0:0:0:0:
256,192,38836,1,0,0:0:0:0:
256,192,39136,1,0,0:0:0:0:
256,192,39436,1,8,0:0:0:0:
256,192,40036,1,8,0:0:0:0:
256,192,40936,12,0,42736,0:0:0:0:
256,192,43336,5,12,0:0:0:0:
256,192,43936,1,8,0:0:0:0:
256,192,44536,1,0,0:0:0:0:
256,192,44686,1,0,0:0:0:0:
256,192,44836,1,0,0:0:0:0:
256,192,45136,1,8,0:0:0:0:
256,192,45736,1,0,0:0:0:0:
256,192,46336,1,8,0:0:0:0:
256,192,46936,1,0,0:0:0:0:
256,192,47236,1,8,0:0:0:0:
256,192,47536,1,8,0:0:0:0:
256,192,47836,1,0,0:0:0:0:
256,192,48136,1,0,0:0:0:0:
256,192,48736,1,8,0:0:0:0:
256,192,49336,1,0,0:0:0:0:
256,192,49936,1,8,0:0:0:0:
256,192,50236,1,8,0:0:0:0:
256,192,50536,1,0,0:0:0:0:
256,192,51136,1,8,0:0:0:0:
256,192,51736,1,8,0:0:0:0:
264,192,51886,1,8,0:0:0:0:
256,192,52036,1,0,0:0:0:0:
256,192,52336,1,8,0:0:0:0:
256,192,52936,1,12,0:0:0:0:
256,192,53536,1,8,0:0:0:0:
256,192,54136,1,0,0:0:0:0:
256,192,54286,1,0,0:0:0:0:
256,192,54436,1,0,0:0:0:0:
256,192,54736,1,8,0:0:0:0:
256,192,55336,1,0,0:0:0:0:
256,192,55936,1,8,0:0:0:0:
256,192,56536,1,0,0:0:0:0:
256,192,56836,1,8,0:0:0:0:
256,192,57136,1,8,0:0:0:0:
256,192,57436,1,0,0:0:0:0:
256,192,57736,1,0,0:0:0:0:
256,192,58336,1,8,0:0:0:0:
256,192,58636,1,0,0:0:0:0:
256,192,59236,1,8,0:0:0:0:
256,192,59536,1,8,0:0:0:0:
256,192,59836,1,8,0:0:0:0:
256,192,60136,1,0,0:0:0:0:
256,192,60736,1,8,0:0:0:0:
256,192,61336,1,8,0:0:0:0:
256,192,61636,1,0,0:0:0:0:
256,192,61936,1,8,0:0:0:0:
256,192,62536,1,4,0:0:0:0:
256,192,63136,1,8,0:0:0:0:
256,192,63436,1,0,0:0:0:0:
256,192,63736,1,0,0:0:0:0:
256,192,63886,1,0,0:0:0:0:
256,192,64036,1,0,0:0:0:0:
256,192,64336,1,8,0:0:0:0:
256,192,64636,1,0,0:0:0:0:
256,192,64936,1,8,0:0:0:0:
256,192,65536,1,8,0:0:0:0:
256,192,65836,1,8,0:0:0:0:
256,192,66136,1,0,0:0:0:0:
256,192,66436,1,0,0:0:0:0:
256,192,66736,1,8,0:0:0:0:
256,192,67336,1,0,0:0:0:0:
256,192,67636,1,8,0:0:0:0:
256,192,67936,1,8,0:0:0:0:
256,192,68536,1,0,0:0:0:0:
256,192,68836,1,0,0:0:0:0:
256,192,69136,1,8,0:0:0:0:
256,192,69436,1,0,0:0:0:0:
256,192,69736,1,12,0:0:0:0:
256,184,70336,1,0,0:0:0:0:
256,184,70636,1,0,0:0:0:0:
256,184,71236,1,8,0:0:0:0:
256,184,72136,1,0,0:0:0:0:
256,184,72436,1,8,0:0:0:0:
256,184,72586,1,8,0:0:0:0:
256,184,73036,1,0,0:0:0:0:
256,184,73336,1,8,0:0:0:0:
256,192,73486,1,8,0:0:0:0:
256,184,73936,1,8,0:0:0:0:
256,184,74236,1,8,0:0:0:0:
256,184,74536,1,4,0:0:0:0:
