osu file format v14

[General]
AudioFilename: hayyyy (1).mp3
AudioLeadIn: 0
PreviewTime: 42736
Countdown: 0
SampleSet: Normal
StackLeniency: 0.7
Mode: 1
LetterboxInBreaks: 0
EpilepsyWarning: 1
WidescreenStoryboard: 1

[Editor]
Bookmarks: 2536,12136,17536,31336,34936,43336,45136,62536,74536
DistanceSpacing: 1.5
BeatDivisor: 4
GridSize: 8
TimelineZoom: 1.8

[Metadata]
Title:Dahil Sa'Yo
TitleUnicode:Dahil Sa'Yo
Artist:Inigo Pascual
ArtistUnicode:IƱigo Pascual
Creator:Sakary
Version:Dram: Madali ni Momo
Source:
Tags:opm ppop filipino tagalog iyo sayo because of you abs-cbn keziah yuki_momoiro722 arviejhay hi_hello
BeatmapID:1662076
BeatmapSetID:778698

[Difficulty]
HPDrainRate:8
CircleSize:5
OverallDifficulty:4
ApproachRate:5
SliderMultiplier:1.4
SliderTickRate:1

[Events]
//Background and Video events
0,0,"lovee.jpg",0,0
//Break Periods
//Storyboard Layer 0 (Background)
//Storyboard Layer 1 (Fail)
//Storyboard Layer 2 (Pass)
//Storyboard Layer 3 (Foreground)
//Storyboard Sound Samples

[TimingPoints]
2536,600,4,1,0,50,1,0
43336,-100,4,1,0,70,0,1
52336,-100,4,1,0,70,0,0
52936,-100,4,1,0,70,0,1
62536,-100,4,1,0,70,0,0

[Colours]
Combo1 : 128,255,128
Combo2 : 255,174,174

[HitObjects]
256,192,2536,5,0,0:0:0:0:
256,192,3136,5,8,0:0:0:0:
256,192,4336,1,8,0:0:0:0:
256,192,5536,1,8,0:0:0:0:
256,192,6736,1,8,0:0:0:0:
256,192,7336,1,0,0:0:0:0:
256,192,7936,1,8,0:0:0:0:
256,192,9136,1,8,0:0:0:0:
256,192,9736,1,4,0:0:0:0:
256,192,10336,1,12,0:0:0:0:
256,192,10936,1,12,0:0:0:0:
256,192,11536,1,12,0:0:0:0:
256,192,12136,1,4,0:0:0:0:
256,192,13336,1,0,0:0:0:0:
256,192,13936,1,8,0:0:0:0:
256,192,14536,1,0,0:0:0:0:
256,192,15136,1,8,0:0:0:0:
256,192,15736,1,0,0:0:0:0:
269,198,16636,1,0,0:0:0:0:
256,192,16936,1,0,0:0:0:0:
264,192,17536,1,8,0:0:0:0:
256,192,18136,1,0,0:0:0:0:
256,192,19336,1,0,0:0:0:0:
256,192,19936,1,8,0:0:0:0:
256,192,20536,1,0,0:0:0:0:
256,192,21136,1,8,0:0:0:0:
256,192,21736,1,12,0:0:0:0:
256,192,22936,1,0,0:0:0:0:
256,192,23536,1,8,0:0:0:0:
256,192,24136,1,0,0:0:0:0:
256,192,24736,1,8,0:0:0:0:
256,192,25036,1,0,0:0:0:0:
256,192,25336,1,8,0:0:0:0:
256,192,26236,1,0,0:0:0:0:
256,192,26536,1,0,0:0:0:0:
256,192,27136,1,0,0:0:0:0:
256,192,28336,1,8,0:0:0:0:
256,192,28936,1,4,0:0:0:0:
256,192,29536,1,12,0:0:0:0:
256,192,30136,1,12,0:0:0:0:
265,198,30736,1,8,0:0:0:0:
256,192,31036,1,8,0:0:0:0:
256,192,31336,1,4,0:0:0:0:
256,192,32536,1,0,0:0:0:0:
256,192,33136,1,8,0:0:0:0:
256,192,33736,1,0,0:0:0:0:
256,192,34336,1,8,0:0:0:0:
256,186,34636,1,0,0:0:0:0:
256,192,34936,1,0,0:0:0:0:
256,192,35536,1,8,0:0:0:0:
256,192,35836,1,0,0:0:0:0:
256,192,36136,1,8,0:0:0:0:
256,192,36736,1,0,0:0:0:0:
256,192,37336,1,8,0:0:0:0:
256,192,37936,1,0,0:0:0:0:
256,192,38536,1,12,0:0:0:0:
256,192,40936,12,0,42736,0:0:0:0:
256,192,43336,5,12,0:0:0:0:
256,192,43936,1,0,0:0:0:0:
256,192,44536,1,8,0:0:0:0:
256,192,45136,1,0,0:0:0:0:
256,192,45436,1,8,0:0:0:0:
256,192,45736,1,0,0:0:0:0:
256,192,46336,1,8,0:0:0:0:
256,192,46936,1,0,0:0:0:0:
256,192,47536,1,8,0:0:0:0:
256,192,47836,1,8,0:0:0:0:
256,192,48136,1,0,0:0:0:0:
256,192,49336,1,8,0:0:0:0:
256,192,49936,1,0,0:0:0:0:
256,192,50536,1,8,0:0:0:0:
256,192,51136,1,8,0:0:0:0:
256,192,51736,1,0,0:0:0:0:
256,192,52936,5,12,0:0:0:0:
256,192,53536,1,8,0:0:0:0:
256,192,54136,1,0,0:0:0:0:
256,192,54736,1,8,0:0:0:0:
256,192,55336,1,0,0:0:0:0:
256,192,55936,1,8,0:0:0:0:
256,192,56536,1,0,0:0:0:0:
256,192,57436,1,8,0:0:0:0:
256,192,57736,1,0,0:0:0:0:
256,192,58336,1,0,0:0:0:0:
256,192,58636,1,8,0:0:0:0:
256,192,59236,1,8,0:0:0:0:
256,192,59836,1,8,0:0:0:0:
256,192,60136,1,0,0:0:0:0:
256,192,60736,1,8,0:0:0:0:
256,192,61336,1,8,0:0:0:0:
256,192,62536,1,4,0:0:0:0:
256,192,63136,1,0,0:0:0:0:
248,192,63436,1,8,0:0:0:0:
256,192,63736,1,0,0:0:0:0:
256,192,64336,1,8,0:0:0:0:
256,192,64936,1,8,0:0:0:0:
256,192,65536,1,0,0:0:0:0:
254,185,65836,1,0,0:0:0:0:
248,192,66136,1,8,0:0:0:0:
248,192,67336,1,0,0:0:0:0:
248,192,67936,1,8,0:0:0:0:
248,192,68536,1,0,0:0:0:0:
252,188,69436,1,0,0:0:0:0:
248,192,69736,1,12,0:0:0:0:
256,192,72136,1,0,0:0:0:0:
256,192,73036,1,0,0:0:0:0:
256,192,73936,1,8,0:0:0:0:
256,192,74536,1,4,0:0:0:0:
