osu file format v9

[General]
AudioFilename: SUPER STREAM (INFINIT FUTURE Revised MIX).mp3
AudioLeadIn: 0
PreviewTime: 192560
Countdown: 0
SampleSet: Soft
StackLeniency: 0.7
Mode: 0
LetterboxInBreaks: 0

[Editor]
DistanceSpacing: 0.8
BeatDivisor: 4
GridSize: 8

[Metadata]
Title:SUPER STREAM ~INFINIT FUTURE Revised MIX~
Artist:Infinite Stratos Cast
Creator:JauiPlaY
Version:Hard
Source:Infinite Stratos
Tags:disoy jameskong1 sherrie__fay weiren is ed shinonono houki seshiria orukotto fan rinin sharurotto dunoa raura boudevihhi

[Difficulty]
HPDrainRate:5
CircleSize:4
OverallDifficulty:5
ApproachRate:7
SliderMultiplier:1.3
SliderTickRate:1

[Events]
//Background and Video events
0,0,"6509987.jpg"
//Break Periods
2,14161,15218
2,94161,103718
2,171495,181051
//Storyboard Layer 0 (Background)
//Storyboard Layer 1 (Fail)
//Storyboard Layer 2 (Pass)
//Storyboard Layer 3 (Foreground)
//Storyboard Sound Samples
//Background Colour Transformations
3,100,255,255,255

[TimingPoints]
3295,333.333333333333,4,2,1,100,1,0
16628,-100,4,1,1,50,0,0
16961,-100,4,2,1,60,0,0
24794,-100,4,1,1,30,0,0
24878,-100,4,1,1,35,0,0
24961,-100,4,1,1,40,0,0
25044,-100,4,1,1,45,0,0
25128,-100,4,1,1,50,0,0
27628,-100,4,2,1,60,0,0
47128,-100,4,1,1,50,0,0
49294,-100,4,2,1,100,0,0
53628,-100,4,1,1,50,0,0
54295,-100,4,2,1,60,0,0
60795,-100,4,1,1,50,0,0
61461,-100,4,2,1,100,0,0
61961,-100,4,1,0,50,0,1
62128,-100,4,2,1,80,0,1
65961,-100,4,2,1,50,0,1
67461,-100,4,2,1,80,0,1
69461,-100,4,2,1,5,0,1
69544,-100,4,2,1,80,0,1
72628,-100,4,1,1,50,0,1
72961,-100,4,2,1,80,0,1
76628,-100,4,2,1,50,0,1
78128,-100,4,2,1,80,0,1
93961,-100,4,1,0,50,0,0
104961,-100,4,2,1,60,0,0
115294,-100,4,1,1,50,0,0
115628,-100,4,2,1,60,0,0
124461,-100,4,1,1,50,0,0
126628,-100,4,2,1,100,0,0
130794,-100,4,1,1,50,0,0
131628,-100,4,2,1,60,0,0
138128,-100,4,1,1,50,0,0
138794,-100,4,2,1,100,0,0
139294,-100,4,1,0,50,0,1
139461,-100,4,2,1,80,0,1
143294,-100,4,2,1,50,0,1
144794,-100,4,2,1,80,0,1
146794,-100,4,2,1,5,0,1
146878,-100,4,2,1,80,0,1
149961,-100,4,1,1,50,0,1
150294,-100,4,2,1,80,0,1
153961,-100,4,2,1,50,0,1
155461,-100,4,2,1,80,0,1
171294,-100,4,1,0,50,0,0
182128,-100,4,2,1,80,0,0
195294,-100,4,1,1,50,0,0
197961,-100,4,1,1,80,0,0
199295,-100,4,1,1,50,0,0
205961,-100,4,1,0,50,0,1
206128,-100,4,2,1,80,0,1
209961,-100,4,2,1,50,0,1
211461,-100,4,2,1,80,0,1
227294,-100,4,2,0,5,0,0

[Colours]
Combo1 : 255,162,162
Combo2 : 141,71,71
Combo3 : 255,255,36
Combo4 : 162,255,208
Combo5 : 255,142,255

[HitObjects]
72,72,3294,2,0,B|88:136|160:168,1,130,0|2
144,272,3961,2,0,B|195:219|261:227,1,130,0|2
336,304,4628,1,0
432,272,4961,2,0,B|464:216,1,65,2|0
384,144,5461,2,0,B|351:200,1,65,0|2
351,200,5794,6,0,B|287:238|226:214,1,130
176,200,6294,2,0,B|120:240,1,65,2|0
72,256,6628,2,0,B|32:193|55:131,1,130,0|2
152,96,7294,2,0,B|208:40,1,65,0|2
240,80,7628,2,0,B|320:64,1,65,0|2
408,96,8128,1,2
408,96,8294,1,2
360,192,8628,5,0
204,282,8961,1,2
204,101,9294,1,0
256,192,9628,2,0,B|272:208|272:208|288:248,1,65,0|2
376,304,10128,1,2
408,264,10294,2,0,B|432:194|396:139,1,130,0|0
320,72,10961,1,0
256,192,11128,12,0,13961
160,184,16128,6,0,B|144:200|144:200|160:248,2,65
160,184,16628,1,4
232,112,16961,1,8
232,112,17128,1,0
312,176,17461,2,0,B|360:224|432:216,1,130,8|0
304,304,18295,1,8
304,304,18461,1,0
240,224,18795,2,0,B|254:157|208:101,1,130,8|0
120,56,19461,5,0
80,96,19628,2,0,B|96:160,1,65,8|0
136,256,20128,2,0,B|206:263|254:215,1,130,8|0
352,240,20794,2,0,B|392:304,2,65,0|8|0
432,176,21461,2,0,B|392:112,2,65,8|0|8
352,240,22128,5,0
352,240,22294,2,0,B|312:232|312:232|296:216,1,65,8|0
264,112,22794,2,0,B|280:80|264:48,1,65,8|0
192,80,23128,2,0,B|176:110|192:142,1,65
120,176,23461,1,0
120,176,23628,2,0,B|152:240,1,65,8|0
240,288,24128,2,0,B|224:256|239:225,1,65,0|8
312,193,24461,2,0,B|327:223|311:255,1,65,0|8
352,288,24794,6,0,B|384:320,12,32.5
360,184,26128,1,0
197,105,26461,1,0
210,286,26794,1,0
264,192,27128,2,0,B|256:264,1,65,0|4
328,328,27628,6,0,B|392:296,1,65,8|0
384,248,27961,2,0,B|416:184,1,65,0|8
480,112,28461,1,0
480,112,28628,1,8
376,120,28961,1,8
280,88,29294,1,0
176,96,29628,2,0,B|208:152,1,65,8|0
232,200,29961,2,0,B|176:240|108:222,1,130,0|8
112,168,30461,2,0,B|152:223|134:291,1,130
176,320,30961,6,0,B|248:336,1,65,8|0
288,312,31294,2,0,B|356:329|411:289,1,130,0|8
464,296,31794,2,0,B|424:168,1,130
464,136,32294,2,0,B|448:64,1,65,8|0
449,72,32628,1,0
352,112,32961,1,8
352,112,33128,1,0
248,88,33461,1,0
248,88,33628,1,8
168,152,33961,6,0,B|155:139|155:139|107:139,1,65,0|0
112,216,34294,2,0,B|124:228|124:228|172:228,1,65,8|0
240,192,34628,2,0,B|288:192|288:192|300:204,1,65,0|0
304,280,34961,2,0,B|256:280|256:280|243:267,1,65,8|0
176,304,35294,2,0,B|104:304|56:256,1,130,0|8
136,192,35961,2,0,B|194:149|204:82,1,130,0|8
256,72,36461,6,0,B|256:32,2,32.5
256,72,36794,1,8
304,155,36961,1,0
207,156,37128,1,8
256,296,37461,2,0,B|256:344,6,32.5,0|0|8|0|8|0|8
360,304,38294,5,8
448,248,38628,1,0
448,248,38794,2,0,B|400:120,1,130,8|8
402,126,39294,1,0
320,64,39628,1,8
240,128,39961,2,0,B|194:174|122:174,1,130,0|8
80,200,40461,2,0,B|56:136,1,65
144,80,40961,2,0,B|166:140,1,65,8|0
184,240,41461,5,0
256,272,41628,1,8
328,240,41795,1,0
328,240,42128,1,8
328,240,42461,1,8
376,216,42628,2,0,B|424:152,1,65,0|8
384,120,42961,2,0,B|400:48,1,65,0|8
344,48,43295,6,0,B|293:88|221:81,1,130,0|8
120,56,43961,1,0
64,144,44295,2,0,B|56:208,1,65,8|0
152,248,44795,2,0,B|224:256,1,65,0|8
296,328,45295,2,0,B|424:344,1,130,0|8
400,240,45961,2,0,B|432:88,1,130,0|8
472,88,46461,1,0
472,88,46628,2,0,B|344:56,1,130,0|8
345,56,47128,5,0
158,76,47461,1,0
269,228,47795,1,0
269,228,47961,2,0,B|296:264,4,32.5
269,228,48461,1,4
272,128,48795,6,0,B|245:92,2,32.5
320,144,49128,2,0,B|336:152|336:152|368:200,2,65,0|2|2
304,248,49795,2,0,B|255:291|183:286,1,130,2|0
200,336,50295,1,2
112,280,50628,1,2
185,206,50961,1,2
88,168,51295,2,0,B|72:240,2,65,2|0|0
160,96,51961,5,2
264,96,52295,2,0,B|319:142|383:136,1,130,2|0
383,136,52795,1,2
480,96,53128,2,0,B|421:138|411:202,1,130,2|0
411,202,53628,1,0
384,248,53795,2,0,B|400:296,2,32.5,0|0|4
288,296,54295,5,8
192,248,54628,2,0,B|200:208,2,32.5
192,248,54961,1,8
136,248,55128,2,0,B|86:205|81:133,1,130
81,134,55628,1,8
120,96,55795,2,0,B|184:80,1,65
232,56,56128,2,0,B|288:112,1,65,0|8
256,192,56461,12,0,58128
280,152,58461,6,0,B|320:216,1,65,0|8
232,232,58795,2,0,B|192:168,1,65,0|8
256,192,59128,12,0,60628
278,61,60795,5,0
287,156,60961,1,0
200,116,61128,1,0
248,264,61461,2,0,B|264:272|264:272|256:320,2,65,2|0|0
248,264,61961,6,0,B|176:264|128:216,1,130,4|8
88,248,62461,2,0,B|64:112,1,130
40,72,62961,2,0,B|99:45|166:71,1,130,8|0
248,136,63628,1,8
336,88,63961,1,0
432,128,64295,2,0,B|472:192,1,65,8|0
466,183,64628,2,0,B|416:235|349:238,1,130,0|8
312,272,65128,1,0
336,320,65295,2,0,B|269:348|206:322,1,130,0|8
104,328,65961,5,4
144,264,66128,1,0
208,224,66295,1,8
248,160,66461,1,4
392,160,66795,1,0
320,136,66961,1,12
248,160,67128,1,0
144,136,67461,2,0,B|104:56,2,65,0|8|0
144,136,67961,6,0,B|194:176|266:169,1,130,0|8
288,216,68461,1,0
336,240,68628,2,0,B|362:173|422:147,1,130,0|8
472,168,69128,2,0,B|363:167|307:79,1,195,0|8
256,64,69795,2,0,B|200:104,1,65
104,72,70295,5,8
128,176,70628,1,0
112,280,70961,2,0,B|152:336,1,65,8|0
200,320,71295,2,0,B|248:344|304:328,2,97.5,0|8|0
224,272,71961,2,0,B|272:216,1,65,0|8
240,176,72295,2,0,B|200:160,4,32.5,0|0|0|0|4
232,72,72961,5,8
280,48,73128,2,0,B|368:152,1,130
363,147,73628,1,8
408,240,73961,2,0,B|338:254|298:304,1,130,0|8
224,232,74628,1,0
128,264,74961,1,8
32,232,75295,2,0,B|16:104,1,130,0|8
56,72,75795,1,0
96,104,75961,2,0,B|146:144|218:137,1,130,0|8
312,96,76628,5,4
320,168,76795,1,0
376,216,76961,1,8
448,232,77128,1,4
368,112,77461,1,0
320,168,77628,1,12
288,232,77795,1,0
192,280,78128,6,0,B|176:344,2,65,0|8|0
192,280,78628,1,0
344,256,78961,1,8
320,104,79294,1,0
168,128,79628,1,8
192,280,79961,1,0
344,256,80294,2,0,B|392:312,1,65,8|0
440,312,80628,6,0,B|483:255|475:190,1,130,0|8
448,144,81128,2,0,B|312:176,1,130
296,128,81628,2,0,B|232:152,1,65,8|0
184,160,81961,2,0,B|80:112,2,97.5,0|8|8
208,208,82628,2,0,B|248:280,1,65,0|8
272,304,82961,2,0,B|248:344,4,32.5,8|0|8|0|0
376,296,83628,5,8
456,224,83961,1,0
352,200,84294,1,8
272,136,84628,2,0,B|136:96,1,130,0|8
120,56,85128,2,0,B|118:121|66:170,1,130,0|0
66,170,85628,1,8
66,170,85794,6,0,B|104:304,1,130
144,328,86294,1,8
232,272,86628,1,0
336,280,86961,1,8
440,264,87294,2,0,B|408:200,1,65,0|8
456,176,87628,2,0,B|448:112,1,65,0|8
352,72,88128,1,0
352,72,88294,2,0,B|304:120,1,65,8|8
306,117,88628,5,0
166,185,88961,1,8
295,272,89294,1,0
295,272,89461,2,0,B|272:336,1,65,0|8
224,352,89794,2,0,B|151:345|110:296,1,130
56,296,90294,2,0,B|24:232,1,65,8|0
72,208,90628,2,0,B|141:187|172:131,1,130,0|8
256,192,91128,12,4,93961
256,136,104628,5,4
184,56,104961,6,0,B|120:88,1,65,8|0
128,136,105294,2,0,B|96:200,1,65,0|8
32,272,105794,1,8
32,272,105961,1,8
136,264,106294,1,8
232,296,106628,1,0
336,288,106961,2,0,B|304:232,1,65,8|0
280,184,107294,2,0,B|336:144|404:162,1,130,0|8
400,216,107794,2,0,B|360:161|378:93,1,130
336,64,108294,6,0,B|264:48,1,65,8|0
224,72,108628,2,0,B|156:55|101:95,1,130,0|8
80,144,109128,1,0
80,144,109294,2,0,B|104:272,2,130,0|8|0
184,160,110294,2,0,B|248:144,1,65,8|0
352,168,110794,2,0,B|304:224,1,65,0|8
368,304,111294,6,0,B|432:264|432:264|448:208,1,130,0|8
352,168,111961,2,0,B|400:112,2,65,0|0|8
288,88,112628,2,0,B|221:59|158:85,1,130,0|8
128,120,113128,1,0
152,168,113294,2,0,B|210:211|220:278,1,130,0|8
256,312,113794,6,0,B|256:352,2,32.5
256,312,114128,1,0
305,228,114294,1,8
208,229,114461,1,0
256,88,114794,2,0,B|256:40,6,32.5,8|0|0|0|8|0|4
151,84,115628,6,0,B|87:76,1,65,8|0
48,112,115961,1,0
48,112,116128,2,0,B|96:240,1,130,8|8
94,234,116628,1,0
176,304,116961,1,8
272,256,117294,2,0,B|318:210|390:210,1,130,0|8
432,184,117794,2,0,B|456:248,1,65
368,304,118294,2,0,B|346:244,1,65,8|0
328,144,118794,5,0
256,112,118961,1,8
184,144,119128,1,0
184,144,119461,1,8
184,144,119794,1,8
136,168,119961,2,0,B|88:232,1,65,0|8
128,264,120294,2,0,B|112:336,1,65,0|8
168,336,120628,6,0,B|219:296|291:303,1,130,0|8
392,328,121294,1,0
448,240,121628,2,0,B|456:176,1,65,8|0
360,136,122128,2,0,B|288:128,1,65,0|8
216,56,122628,2,0,B|88:40,1,130,0|8
112,144,123294,2,0,B|80:296,1,130,0|8
40,296,123794,1,0
40,296,123961,2,0,B|168:328,1,130,0|8
167,328,124461,5,0
354,308,124794,1,0
243,156,125128,1,0
243,156,125294,2,0,B|216:120,4,32.5
243,156,125794,1,4
240,256,126128,6,0,B|267:292,2,32.5
189,241,126461,2,0,B|183:258|183:258|141:297,2,65,0|2|2
132,154,127128,2,0,B|197:151|245:98,1,130,2|0
284,61,127628,1,2
384,88,127961,1,2
328,176,128294,1,2
424,216,128628,2,0,B|440:144,2,65,2|0|0
352,288,129294,5,2
248,288,129628,2,0,B|193:242|129:248,1,130,2|0
129,248,130128,1,2
32,288,130461,2,0,B|91:246|101:182,1,130,2|0
128,136,130961,1,0
128,136,131128,2,0,B|104:112,2,32.5
216,80,131628,6,0,B|280:96,1,65,8|0
272,144,131961,2,0,B|336:192,1,65,0|8
424,208,132461,2,0,B|451:268|425:335,1,130,8|0
425,334,132961,1,8
373,351,133128,2,0,B|308:338,1,65
255,341,133461,2,0,B|227:266,1,65,0|8
256,192,133794,12,0,135461
216,168,135794,6,0,B|280:128,1,65,0|8
296,216,136128,2,0,B|232:256,1,65,0|8
256,192,136461,12,0,137961
234,323,138128,5,0
225,228,138294,1,0
312,268,138461,1,0
264,120,138794,2,0,B|248:112|248:112|256:64,2,65,2|0|0
264,120,139294,6,0,B|336:120|384:168,1,130,4|8
424,136,139794,2,0,B|448:272,1,130
472,312,140294,2,0,B|413:339|346:313,1,130,8|0
264,248,140961,1,8
176,296,141294,1,0
80,256,141628,2,0,B|40:192,1,65,8|0
46,201,141961,2,0,B|96:149|163:146,1,130,0|8
200,112,142461,1,0
176,64,142628,2,0,B|243:36|306:62,1,130,0|8
408,56,143294,5,4
448,120,143461,1,0
408,184,143628,1,8
336,160,143794,1,4
184,176,144128,1,0
200,250,144294,1,12
269,281,144461,1,0
368,248,144794,2,0,B|408:328,2,65,0|8|0
368,248,145294,6,0,B|318:208|246:215,1,130,0|8
224,168,145794,1,0
176,144,145961,2,0,B|150:211|90:237,1,130,0|8
40,216,146461,2,0,B|149:217|205:305,1,195,0|8
256,320,147128,2,0,B|312:280,1,65
408,312,147628,5,8
384,208,147961,1,0
400,104,148294,2,0,B|360:48,1,65,8|0
312,64,148628,2,0,B|264:40|208:56,2,97.5,0|8|8
288,112,149294,2,0,B|240:168,1,65,0|8
272,208,149628,2,0,B|312:224,4,32.5,0|0|8|0|4
280,312,150294,5,8
232,336,150461,2,0,B|144:232,1,130
149,237,150961,1,8
104,144,151294,2,0,B|174:130|214:80,1,130,0|8
288,152,151961,1,0
384,120,152294,1,8
480,152,152628,2,0,B|496:280,1,130,0|8
456,312,153128,1,0
416,280,153294,2,0,B|366:240|294:247,1,130,0|8
208,304,153961,5,4
138,283,154128,1,0
100,220,154294,1,8
97,146,154461,1,4
232,216,154794,1,0
304,240,154961,1,12
368,200,155128,1,0
320,104,155461,6,0,B|336:40,2,65,0|8|0
320,104,155961,1,0
381,220,156294,1,8
290,314,156628,1,0
172,257,156961,1,8
190,126,157295,1,0
168,24,157628,2,0,B|104:32,1,65,8|0
71,73,157961,6,0,B|28:130|36:195,1,130,0|8
64,240,158461,2,0,B|200:208,1,130
216,256,158961,2,0,B|280:232,1,65,8|0
328,224,159295,2,0,B|432:272,2,97.5,0|8|8
304,176,159961,2,0,B|264:104,1,65,0|8
240,80,160295,2,0,B|264:40,4,32.5,0|0|8|0|0
136,88,160961,5,8
56,160,161295,1,0
160,184,161628,1,8
240,248,161961,2,0,B|376:288,1,130,0|8
392,328,162461,2,0,B|394:263|446:214,1,130,0|0
446,214,162961,1,8
446,214,163128,6,0,B|408:80,1,130
376,48,163628,2,0,B|312:72,1,65,8|0
280,112,163961,1,0
176,104,164295,1,8
72,120,164628,2,0,B|104:184,1,65,0|8
56,208,164961,2,0,B|64:272,1,65,0|8
160,312,165461,1,8
160,312,165628,2,0,B|208:264,1,65,0|8
206,267,165961,5,0
346,199,166295,1,8
217,112,166628,1,0
217,112,166795,2,0,B|240:48,1,65,0|8
288,32,167128,2,0,B|361:39|402:88,1,130
456,88,167628,2,0,B|488:152,1,65,8|0
440,176,167961,2,0,B|371:197|340:253,1,130,0|8
256,192,168461,12,4,171295
184,88,181961,6,0,B|208:152,1,65,4|0
256,168,182295,2,0,B|304:120,1,65,8|0
352,128,182628,2,0,B|392:256,1,130,0|8
312,320,183295,2,0,B|263:272,1,65
212,277,183628,2,0,B|188:340,1,65,8|0
142,354,183961,2,0,B|51:254,1,130,0|8
72,152,184628,6,0,B|128:120,1,65
176,144,184961,2,0,B|240:168,1,65,8|0
280,192,185295,2,0,B|264:64,1,130,0|8
360,104,185961,2,0,B|402:152,1,65
389,204,186295,2,0,B|378:271,1,65,8|0
364,315,186628,2,0,B|485:272,1,130,0|8
472,168,187295,6,0,B|436:110,1,65
362,142,187628,2,0,B|326:84,1,65,8|0
259,127,187961,2,0,B|223:69,1,65
150,102,188295,2,0,B|114:44,1,65,8|0
82,158,188628,2,0,B|117:215,1,65
192,184,188961,2,0,B|227:241,1,65,8|0
295,199,189295,2,0,B|330:256,1,65
404,224,189628,2,0,B|439:281,1,65,8|0
438,279,189961,6,0,B|406:345|333:356,1,130,0|8
288,344,190461,2,0,B|240:224,1,130
200,184,190961,2,0,B|256:128,1,65,8|0
296,112,191295,2,0,B|259:54|186:52,1,130,0|8
136,40,191795,2,0,B|88:160,1,130
40,184,192295,2,0,B|72:256,1,65,8|0
256,192,192628,12,4,195295
256,192,196461,5,4
256,192,197961,5,4
162,283,199295,5,4
349,283,199795,5,4
256,88,200461,5,4
256,192,201961,5,4
256,192,203295,5,4
256,192,203961,5,4
256,192,204628,6,0,B|256:304,2,97.5
256,192,205295,1,0
256,88,205628,1,0
360,72,205961,6,0,B|431:61|483:99,1,130,4|8
483,99,206461,2,0,B|416:216,1,130
418,212,206961,1,8
336,280,207295,1,0
240,240,207628,2,0,B|176:224|112:248,1,130,8|0
40,320,208295,1,8
144,296,208628,2,0,B|204:264|235:206,1,130,0|8
200,168,209128,1,0
168,128,209295,2,0,B|228:96|293:104,1,130,0|8
392,72,209961,5,4
376,152,210128,1,0
376,232,210295,1,8
392,312,210461,1,4
456,168,210795,1,0
376,152,210961,1,12
296,160,211128,1,0
176,256,211461,2,0,B|192:328,2,65,0|8|0
160,208,211961,6,0,B|208:208|208:208|220:195,1,65,0|0
224,120,212295,2,0,B|176:120|176:120|163:132,1,65,8|0
91,171,212628,2,0,B|43:171|43:171|31:183,1,65,0|0
28,260,212961,2,0,B|75:260|75:260|88:247,1,65,8|0
160,208,213295,2,0,B|213:249|279:252,1,130,0|8
279,252,213795,1,0
279,252,213961,6,0,B|368:160,1,130,0|8
416,144,214461,2,0,B|377:87|315:64,1,130
315,64,214961,1,8
213,14,215128,1,0
221,128,215295,2,0,B|160:208,2,97.5,0|8|8
272,144,215961,2,0,B|288:216,1,65,0|8
264,256,216295,2,0,B|328:304,1,65,8|8
358,325,216628,6,0,B|408:282|405:203,1,130,0|8
368,112,217295,2,0,B|317:165|251:157,1,130,0|8
176,80,217961,1,0
80,112,218295,2,0,B|48:168,1,65,8|0
128,240,218795,2,0,B|161:184,1,65,0|8
161,184,219128,6,0,B|225:146|286:170,1,130
336,184,219628,2,0,B|392:144,1,65,8|0
440,128,219961,2,0,B|480:191|457:253,1,130,0|8
360,288,220628,2,0,B|304:344,1,65,0|8
272,304,220961,2,0,B|192:320,1,65,0|8
104,296,221461,1,8
104,296,221628,2,0,B|144:240,1,65,0|8
152,192,221961,5,0
308,102,222295,1,8
308,283,222628,1,0
256,192,222961,2,0,B|240:176|240:176|224:136,1,65,8|0
136,80,223461,1,0
136,80,223628,2,0,B|96:136,1,65,8|0
80,184,223961,2,0,B|130:238|196:232,1,130,0|8
256,192,224461,12,0,227295
