osu file format v9

[General]
AudioFilename: SUPER STREAM (INFINIT FUTURE Revised MIX).mp3
AudioLeadIn: 0
PreviewTime: 192560
Countdown: 0
SampleSet: Normal
StackLeniency: 0.7
Mode: 0
LetterboxInBreaks: 0

[Editor]
DistanceSpacing: 0.8
BeatDivisor: 2
GridSize: 8

[Metadata]
Title:SUPER STREAM ~INFINIT FUTURE Revised MIX~
Artist:Infinite Stratos Cast
Creator:JauiPlaY
Version:Easy
Source:Infinite Stratos
Tags:disoy jameskong1 sherrie__fay weiren is ed shinonono houki seshiria orukotto fan rinin sharurotto dunoa raura boudevihhi

[Difficulty]
HPDrainRate:2
CircleSize:3
OverallDifficulty:2
ApproachRate:3
SliderMultiplier:0.8
SliderTickRate:1

[Events]
//Background and Video events
0,0,"6509987.jpg"
//Break Periods
2,14161,15178
2,94161,103178
//Storyboard Layer 0 (Background)
//Storyboard Layer 1 (Fail)
//Storyboard Layer 2 (Pass)
//Storyboard Layer 3 (Foreground)
//Storyboard Sound Samples
//Background Colour Transformations
3,100,255,255,255

[TimingPoints]
3295,333.333333333333,4,1,0,50,1,0
61961,-100,4,1,0,65,0,1
93961,-100,4,1,0,50,0,0
139294,-100,4,1,0,65,0,1
171294,-100,4,1,0,50,0,0

[Colours]
Combo1 : 255,162,162
Combo2 : 141,71,71
Combo3 : 255,255,36
Combo4 : 162,255,208
Combo5 : 255,142,255

[HitObjects]
104,288,3295,2,2,B|184:344|320:344|408:288,1,320
320,192,5294,1,8
408,96,5961,2,2,B|319:39|183:39|103:95,1,320
192,192,7961,1,8
256,80,8628,6,0,B|256:160,2,80,0|2|0
320,192,9961,1,2
192,192,10628,1,2
256,192,11128,12,4,13961
304,248,16628,6,0,B|311:294|255:318|199:294|207:246,1,160,4|8
311,143,17961,2,0,B|358:135|382:191|358:247|312:240,1,160,0|8
208,136,19294,6,0,B|200:89|256:65|312:89|304:137,1,160,0|8
200,240,20628,2,0,B|153:248|129:192|153:136|200:144,1,160,0|8
336,152,21961,6,2,B|382:164|412:111|394:53|346:56,1,160,2|8
216,112,23295,2,2,B|228:65|175:35|117:53|120:101,1,160,2|8
176,232,24628,6,2,B|129:219|99:272|117:330|165:327,1,160,2|8
296,272,25961,2,2,B|283:318|336:348|394:330|391:282,2,160,2|8|4
136,72,28628,5,0
256,296,29961,2,0,B|256:128,1,160,0|8
376,72,31295,5,0
256,296,32628,1,0
328,48,33961,6,0,B|256:0|177:47,2,160,0|8|0
256,152,35961,1,8
184,256,36628,2,0,B|256:304|336:256,2,160,0|8|4
384,96,39294,5,0
128,96,40628,1,0
256,192,41461,2,0,B|256:136,2,40,0|2|2
184,336,42628,6,2,B|256:288|336:336,1,160,0|2
256,88,44628,1,2
256,216,45294,1,2
256,344,45961,1,2
256,88,47294,5,2
200,208,47961,2,0,B|256:240|320:208,1,120,0|4
440,112,49294,5,8
320,64,49961,1,0
192,64,50628,5,8
72,112,51294,1,0
256,312,52628,2,0,B|256:224,2,80,0|2|2
128,288,53961,6,0,B|190:228|162:139,1,160,0|8
256,56,55294,1,0
349,141,55961,2,0,B|321:228|384:288,1,160,8|0
256,264,57294,5,8
256,136,57961,2,0,B|256:48,2,80,0|2|2
328,240,59294,6,2,B|352:296|328:360|256:392|184:360|160:296|184:240,1,320
256,96,61461,2,2,B|256:224,1,120,2|6
432,32,63294,6,2,B|409:120|324:138,1,160
187,138,64628,2,2,B|102:120|80:32,1,160
208,56,65961,5,4
256,176,66628,1,4
304,296,67294,1,4
72,192,68628,5,2
320,128,69961,1,0
320,256,70628,1,8
432,192,71294,2,0,B|520:192,2,80,0|8|8
328,120,72628,6,0,B|352:64|328:0|256:-32|184:0|160:64|184:120,1,320
256,224,74628,1,8
336,328,75294,2,2,B|257:375|185:327,1,160,0|8
176,200,76628,5,4
256,96,77294,1,4
336,200,77961,1,4
256,304,78628,6,0,B|256:224,2,80,0|8|0
144,240,79961,1,8
184,120,80628,6,2,B|254:70|333:116,1,160
368,240,81961,1,2
256,304,82628,2,0,B|256:216,2,80,2|2|4
128,288,83961,5,8
64,176,84628,2,0,B|153:194|205:125,1,160,0|8
256,248,85961,5,0
384,288,86628,1,8
448,176,87295,2,0,B|358:194|306:125,1,160,0|8
256,240,88628,6,0,B|256:336,2,80,0|2|0
184,136,89961,2,0,B|254:86|333:132,1,160
256,192,91128,12,4,93961
256,80,104628,5,4
376,312,105961,5,0
256,88,107295,2,2,B|256:256,1,160
136,312,108628,5,0
256,88,109961,1,0
184,336,111295,6,2,B|256:384|335:337,2,160
256,232,113295,1,2
328,128,113961,2,2,B|256:80|176:128,2,160,2|2|4
128,288,116628,5,0
384,288,117961,1,0
256,192,118795,2,0,B|256:248,2,40,0|2|2
328,48,119961,6,2,B|256:96|176:48,1,160
256,296,121961,1,2
256,168,122628,1,2
256,40,123295,1,2
256,296,124628,5,2
312,176,125295,2,2,B|256:144|192:176,1,120,2|4
72,272,126628,5,8
192,320,127295,1,0
320,320,127961,5,8
440,272,128628,1,0
256,96,129961,2,0,B|256:264,1,160,0|8
360,176,131295,6,0,B|398:155|437:215|412:282|370:271,1,160,0|8
256,328,132628,1,0
141,271,133295,2,0,B|99:282|74:215|113:155|152:176,1,160,8|0
256,104,134628,5,8
256,232,135295,2,0,B|256:320,2,80,0|8|8
184,128,136628,6,2,B|160:72|184:8|256:-24|328:8|352:72|328:128,1,320
256,272,138795,2,2,B|256:144,1,120,2|4
80,336,140628,6,2,B|103:248|188:230,1,160,2|8
325,230,141961,2,2,B|410:248|432:336,1,160,2|8
304,312,143295,5,4
256,192,143961,1,4
208,72,144628,1,4
440,176,145961,5,2
192,240,147295,1,0
192,112,147961,1,8
80,176,148628,2,0,B|-8:176,2,80,0|8|8
184,248,149961,6,0,B|160:304|184:368|256:400|328:368|352:304|328:248,1,320
256,144,151961,1,8
176,40,152628,2,2,B|255:-7|327:41,1,160,2|10
336,168,153961,5,4
256,272,154628,1,4
176,168,155295,1,4
256,64,155961,6,0,B|256:144,2,80,0|8|0
368,128,157294,1,8
328,248,157961,6,2,B|257:297|178:251,1,160
144,128,159294,1,2
256,80,159961,2,0,B|256:168,2,80,2|2|4
384,96,161294,5,8
448,208,161961,2,0,B|358:189|306:258,1,160,0|8
256,136,163294,5,0
128,96,163961,1,8
64,208,164628,2,0,B|153:189|205:258,1,160,0|8
256,144,165961,6,0,B|256:48,2,80,0|2|0
328,248,167294,2,0,B|257:297|178:251,1,160
256,192,168461,12,0,171294
