osu file format v9

[General]
AudioFilename: SUPER STREAM.mp3
AudioLeadIn: 2000
PreviewTime: 56340
Countdown: 0
SampleSet: Soft
StackLeniency: 0.7
Mode: 0
LetterboxInBreaks: 1

[Editor]
DistanceSpacing: 0.84
BeatDivisor: 4
GridSize: 4

[Metadata]
Title:SUPER STREAM (TV Size)
Artist:Infinite Stratos Cast
Creator:xierbaliti
Version:Insane
Source:Infinite Stratos
Tags:IS Shinonono Houki Seshiria Orukotto Fan Rinin Sharurotto Dunoa Raura Boudevihhi eveless kanpakyin quintitem AngelHoney AHO 5item

[Difficulty]
HPDrainRate:7
CircleSize:4
OverallDifficulty:7
ApproachRate:8
SliderMultiplier:2
SliderTickRate:0.5

[Events]
//Background and Video events
0,0,"bg.jpg"
Video,107,"is_ed8.flv"
//Break Periods
//Storyboard Layer 0 (Background)
//Storyboard Layer 1 (Fail)
//Storyboard Layer 2 (Pass)
//Storyboard Layer 3 (Foreground)
//Storyboard Sound Samples
//Background Colour Transformations
3,100,163,162,255

[TimingPoints]
-909,333.333333333333,4,2,1,0,1,0
90,-200,4,2,1,10,0,0
591,-200,4,2,1,20,0,0
1173,-100,4,1,1,60,0,0
1840,-100,4,2,1,80,0,0
9672,-100,4,1,1,60,0,0
21841,-100,4,2,1,70,0,0
49257,-100,4,2,2,100,0,0
49507,-100,4,2,1,70,0,0
56090,-100,4,2,2,85,0,0
56174,-100,4,2,1,85,0,0
56423,-100,4,2,1,100,0,1
56501,-100,4,1,1,60,0,1
64333,-100,4,1,2,90,0,1
64507,-100,4,1,2,80,0,1
64674,-100,4,1,2,90,0,1
64840,-100,4,1,2,79,0,1
65007,-100,4,1,2,90,0,1
65174,-100,4,1,2,80,0,1
65340,-100,4,1,2,90,0,1
65507,-100,4,1,2,80,0,1
65674,-100,4,1,2,70,0,1
66916,-100,4,1,1,60,0,1
77248,-100,4,1,1,70,0,1
77757,-100,4,1,1,60,0,0
86997,-100,4,2,1,0,0,0

[Colours]
Combo1 : 128,0,255
Combo2 : 255,128,255
Combo3 : 128,0,64
Combo4 : 128,255,255

[HitObjects]
84,292,424,2,0,B|168:248|292:268,1,200
256,192,1257,5,0
256,192,1340,1,0
256,192,1423,2,0,B|368:192,1,100,8|0
456,192,1757,6,0,B|400:80,1,100,4|0
368,8,2090,1,0
272,40,2257,1,0
176,24,2423,6,0,B|136:120,1,100
96,208,2757,1,0
176,264,2923,1,0
272,248,3090,2,0,B|368:216|496:248,1,200,0|2
432,152,3590,1,0
464,56,3757,2,0,B|368:88|240:56,1,200,0|2
168,32,4257,5,0
168,32,4340,1,0
168,32,4423,2,0,B|176:144|104:224,1,200,4|0
32,288,4923,1,0
120,328,5090,2,0,B|216:280|352:312,1,200,4|0
416,328,5590,1,0
424,232,5757,6,0,B|360:144|416:32,1,200,4|0
312,24,6257,1,0
216,48,6423,1,0
168,48,6507,1,0
120,32,6590,1,0
56,112,6757,1,0
96,144,6840,1,0
120,192,6923,1,0
232,288,7090,6,0,B|352:264,1,100,4|0
424,192,7423,1,4
384,80,7590,1,0
280,136,7757,2,0,B|176:96,2,100,4|0|4
360,224,8257,6,0,B|424:320,1,100,4|0
296,336,8590,2,0,B|200:360,2,100,4|4|0
216,240,9090,2,0,B|208:144|88:112,1,150,0|2
104,72,9423,2,0,B|240:80,1,100
312,128,9757,6,0,B|412:114,1,100,0|0
368,224,10090,2,0,B|480:240,1,100,0|0
392,328,10423,1,0
368,332,10507,1,0
344,336,10590,1,0
320,340,10673,1,0
296,344,10757,1,0
272,348,10840,1,0
248,352,10923,1,0
224,356,11007,1,0
200,360,11090,5,4
104,324,11257,1,0
140,232,11424,1,8
232,272,11590,1,0
304,204,11757,2,0,B|384:204|440:168,2,100,0|0|8
112,148,12257,6,0,B|180:56|316:64,1,200,4|0
384,72,12757,1,8
420,164,12924,1,0
324,196,13090,2,0,B|272:168|216:188,2,100,0|0|8
464,340,13590,6,0,B|332:360|196:296,1,250,4|0
219,306,14090,1,8
120,316,14257,1,0
124,216,14424,2,0,B|76:168|8:192,2,100,0|0|8
256,64,14924,6,0,B|120:88,1,100,4|0
112,192,15257,1,4
140,308,15424,1,8
252,348,15590,1,4
252,348,15674,1,0
252,348,15757,2,0,B|372:336|372:332,1,100
396,328,16007,1,0
432,300,16090,1,2
464,160,16257,5,0
464,160,16340,1,0
464,160,16424,2,0,B|384:224|248:192,1,200,4|4
196,104,16924,1,0
196,104,17007,1,0
196,104,17090,2,0,B|92:160,1,100,4|0
8,200,17424,1,8
48,312,17590,1,0
164,340,17757,6,0,B|288:324,1,100,2|0
356,172,18090,2,0,B|224:148,1,100,2|0
88,88,18424,2,4,B|96:208,1,100
408,284,18924,6,0,B|248:272,1,150,4|0
258,272,19257,1,8
160,208,19423,2,0,B|184:96,1,100,8|0
280,40,19757,1,0
284,96,19840,1,0
296,148,19923,1,0
316,200,20007,1,0
352,244,20090,1,0
400,268,20173,1,0
456,276,20257,5,4
56,276,20590,1,4
256,20,20923,1,4
256,156,21090,2,0,B|264:212|252:268,2,100,4|0|8
64,192,21757,6,0,B|156:128,1,100,4|0
220,64,22090,1,2
316,96,22257,1,0
412,68,22423,2,0,B|408:164|432:224,1,150
428,268,22757,1,8
364,344,22923,1,0
364,344,23007,1,0
364,344,23090,6,0,B|220:320,1,100,2|0
200,192,23423,2,0,B|332:212,1,100,2|0
368,72,23757,2,0,B|320:100|216:104,1,150,2|0
176,120,24090,1,8
80,96,24257,1,0
28,184,24423,2,0,B|12:288,1,100,2|0
108,256,24757,2,0,B|128:356,1,100,2|0
127,354,25007,1,0
127,354,25090,5,2
248,368,25257,1,0
364,332,25423,1,8
448,248,25590,1,0
460,128,25757,6,0,B|412:36,1,100,2|0
316,24,26090,1,8
232,80,26257,1,0
332,96,26423,5,4
320,224,26590,1,0
196,268,26757,1,2
120,160,26923,1,0
192,52,27090,2,0,B|240:164|364:184,1,200,4|8
436,168,27590,5,0
436,168,27673,1,2
436,168,27757,2,0,B|448:284,1,100
456,368,28090,1,8
456,368,28423,6,0,B|324:360,1,100,2|0
260,336,28757,1,8
276,236,28923,1,0
292,188,29007,1,0
284,140,29090,2,0,B|232:172|152:192,2,100,0|0|8
280,40,29590,1,0
440,160,29757,6,0,B|364:124|240:136,1,200,2|8
144,148,30257,1,0
144,148,30340,1,0
144,148,30423,2,0,B|208:228|188:344,1,200,2|8
288,348,30923,1,0
288,348,31007,1,0
288,348,31090,2,4,B|404:336,1,100
336,252,31423,1,4
288,164,31590,1,4
52,60,31923,5,0
56,108,32007,1,0
64,156,32090,1,0
76,204,32173,1,0
92,252,32257,1,0
120,292,32340,1,0
156,324,32423,5,4
252,348,32590,1,0
348,320,32757,2,0,B|448:288,1,100,8|0
468,140,33090,2,0,B|384:204|276:192,1,200,2|8
184,172,33590,1,0
108,108,33757,6,0,B|88:212,1,100,2|0
84,308,34090,1,8
184,296,34257,1,0
256,224,34423,2,0,B|272:340,1,100,2|0
368,304,34757,1,8
364,204,34923,1,0
272,84,35090,6,0,B|172:52,1,100,2|0
80,20,35423,1,10
88,168,35590,1,0
88,168,35673,1,0
88,168,35757,2,0,B|96:280,1,100,2|0
100,368,36090,1,8
248,344,36257,5,0
248,344,36340,1,0
248,344,36423,2,0,B|372:312,1,100,4|0
440,292,36757,1,8
368,160,36923,1,0
248,252,37090,6,0,B|196:160,1,100,2|0
152,76,37423,1,4
56,192,37590,1,2
152,308,37757,5,4
304,236,37923,1,0
180,116,38090,1,8
292,244,38257,1,0
364,92,38423,1,2
312,256,38590,1,2
480,220,38757,1,8
312,228,38923,6,0,B|216:192|108:216,1,200,2|0
20,240,39423,1,8
44,144,39590,1,0
20,48,39757,2,0,B|128:68|240:56,1,200,2|8
320,44,40257,1,0
392,176,40424,5,4
392,308,40590,1,0
120,308,40757,5,4
120,176,40924,1,0
256,24,41090,5,4
256,108,41257,1,0
256,216,41424,1,8
256,360,41590,1,4
256,360,41924,5,2
116,304,42090,1,0
60,208,42257,1,2
56,124,42424,5,4
136,152,42590,1,4
108,72,42757,1,0
188,100,42924,6,0,B|296:152|404:140,1,200,4|0
381,141,43340,1,0
381,141,43423,1,8
472,100,43590,1,0
460,200,43757,2,0,B|436:308,1,100,2|0
438,297,44090,1,8
284,340,44257,6,0,B|264:232|120:232,1,200,4|0
36,248,44757,1,8
40,148,44924,1,0
8,52,45090,6,0,B|116:76,1,100,2|0
204,100,45424,1,8
400,152,45590,2,0,B|268:120,1,100,2|0
204,100,45924,1,0
204,100,46007,1,0
204,100,46090,2,0,B|180:208,1,100,8|0
160,296,46424,5,2
252,336,46590,1,0
352,328,46757,1,2
436,272,46924,1,0
468,176,47090,1,4
448,80,47257,2,0,B|380:144|268:136,1,150,2|0
264,132,47590,1,4
168,100,47757,1,0
96,28,47924,1,2
108,128,48090,1,4
68,220,48257,1,0
0,292,48424,6,0,B|76:284|196:292,1,150,4|0
176,248,48757,2,0,B|184:316|200:368,1,100,2|0
292,332,49090,2,0,B|392:320,2,100,0|0|2
272,184,49590,6,0,B|256:80|164:72,1,150,4|0
132,76,49924,1,2
36,108,50090,1,8
92,188,50257,1,0
64,284,50424,1,4
164,296,50590,2,0,B|240:248|340:264,1,150,4|0
356,276,50924,6,0,B|344:56,1,200,4|4
345,76,51424,1,4
64,80,51757,2,4,B|192:104,1,100,4|0
64,256,52090,2,0,B|180:232,1,100,4|0
324,172,52424,2,0,B|208:172,1,100,4|0
124,168,52757,1,8
112,268,52924,1,0
196,324,53090,1,0
260,244,53257,1,0
340,304,53424,1,8
400,224,53590,6,0,B|416:112|512:56,1,200,4|0
412,20,54090,1,2
372,48,54174,1,0
324,60,54257,1,0
276,64,54340,1,0
228,56,54424,1,2
132,36,54590,1,0
48,88,54757,1,2
64,188,54924,5,4
64,188,55007,1,0
64,188,55090,2,0,B|172:208,1,100,2|4
260,228,55424,1,4
276,128,55590,2,0,B|332:232|484:212,1,200,4|0
256,292,56090,6,0,B|208:204|76:232,1,200,10|4
32,144,56590,1,0
76,52,56757,1,2
168,92,56924,2,0,B|232:172|352:152,1,200,0|0
440,116,57424,1,4
464,212,57590,1,0
444,308,57757,1,4
368,376,57924,1,0
268,380,58090,2,0,B|136:368|96:264,1,200,2|0
52,196,58590,2,0,B|152:180,1,100,0|2
312,48,58924,2,0,B|192:68,1,100,0|2
236,280,59424,5,0
204,184,59590,1,0
196,84,59757,2,0,B|280:72|416:108,1,200,2|8
476,160,60257,1,0
480,260,60424,2,0,B|380:284|380:288,1,100,4|0
288,308,60757,1,4
288,308,60924,2,0,B|276:196|200:104,1,200
148,52,61424,1,0
148,52,61590,1,0
0,64,61757,6,0,B|16:180,1,100,4|0
144,88,62090,2,0,B|132:224,1,100,8|0
88,276,62424,2,0,B|292:304,1,200,0|2
384,324,62924,1,0
460,192,63090,2,0,B|484:92,1,100,4|0
360,184,63424,2,0,B|356:80,1,100,8|0
448,44,63757,1,0
352,24,63924,1,0
276,88,64090,1,8
184,48,64257,1,0
124,128,64424,6,0,B|8:116,1,100,2|0
140,240,64757,2,0,B|16:228,1,100,4|0
224,248,65090,2,0,B|240:360,1,100,2|0
332,212,65424,2,0,B|348:336,1,100,4|0
444,336,65757,5,4
484,160,66007,1,4
344,48,66257,1,4
232,92,66424,2,0,B|184:172|72:140,1,150,4|0
48,124,66757,2,0,B|116:200|120:332,1,200,4|4
232,352,67257,5,0
352,348,67424,1,8
304,236,67590,1,0
292,356,67757,1,0
412,352,67924,1,0
368,240,68090,2,0,B|292:180|172:200,1,200,2|0
172,80,68590,1,0
56,100,68757,1,8
172,300,69090,6,0,B|224:336|308:320,2,100,0|0|8
56,268,69590,1,0
72,148,69757,2,0,B|88:40,1,100,2|0
204,32,70090,2,0,B|300:76|420:52,2,200,2|0|8
84,40,70924,1,0
52,156,71090,2,0,B|160:200|152:316,1,200,4|2
272,328,71590,2,0,B|404:344|464:232,1,200,4|0
460,140,72090,1,8
400,36,72257,2,0,B|308:88|192:68,1,200,4|0
88,44,72757,1,8
24,144,72924,1,0
192,316,73090,5,2
92,248,73257,1,0
108,128,73424,1,8
196,212,73590,1,0
296,276,73757,2,0,B|404:248|416:128,1,200,4|2
256,160,74257,1,0
132,160,74424,2,0,B|128:48|248:0,1,200,4|8
256,160,74924,1,0
256,312,75090,6,0,B|144:292,1,100,4|0
256,180,75424,2,0,B|376:160,1,100,4|0
160,96,75757,2,0,B|108:76,2,50,2|0|0
336,52,76090,2,0,B|384:32,2,50,2|0|0
136,48,76424,5,4
420,148,76674,1,4
168,308,76924,1,4
256,128,77090,2,0,B|216:220|72:192,1,200,4|0
40,172,77507,1,0
56,220,77590,1,0
64,268,77674,1,0
64,316,77757,5,0
160,344,77924,2,0,B|224:360|304:336,2,100,0|8|0
144,244,78424,2,0,B|152:124|312:108,1,200,0|8
372,112,78923,1,0
440,184,79090,2,0,B|456:284,1,100
344,228,79423,2,0,B|364:328,1,100,8|0
248,264,79757,2,0,B|272:376,2,100,0|0|8
100,128,80257,5,0
100,128,80340,1,0
100,128,80423,2,0,B|176:60|288:72,1,200,4|0
224,176,80923,1,0
96,220,81090,2,0,B|172:288|284:276,1,200,4|0
224,176,81590,1,0
344,192,81757,6,0,B|440:144|432:144,1,100,4|0
328,88,82090,2,0,B|412:24,1,100
288,8,82423,1,4
252,44,82507,1,0
204,60,82590,1,0
104,60,82757,1,0
136,100,82840,1,0
152,148,82923,1,0
152,200,83007,1,0
144,248,83090,5,4
204,352,83257,1,0
324,340,83423,1,4
340,220,83590,1,0
232,168,83757,2,0,B|284:88|432:80,1,200,4|0
264,276,84257,6,0,B|148:300|68:192,1,200,4|0
172,132,84757,1,0
64,76,84923,1,0
176,28,85090,2,0,B|260:104|400:68,1,200
476,112,85590,1,0
380,184,85757,6,0,B|272:196,1,100,4|0
160,204,86090,1,0
104,312,86257,1,0
216,352,86423,2,0,B|356:336,1,100
436,324,86757,1,4
480,212,86923,1,4
256,192,87007,12,0,88423
