osu file format v9

[General]
AudioFilename: SUPER STREAM.mp3
AudioLeadIn: 2000
PreviewTime: 56340
Countdown: 0
SampleSet: Normal
StackLeniency: 0.7
Mode: 0
LetterboxInBreaks: 1

[Editor]
DistanceSpacing: 0.9
BeatDivisor: 4
GridSize: 4

[Metadata]
Title:SUPER STREAM (TV Size)
Artist:Infinite Stratos Cast
Creator:xierbaliti
Version:Easy
Source:Infinite Stratos
Tags:IS Shinonono Houki Seshiria Orukotto Fan Rinin Sharurotto Dunoa Raura Boudevihhi eveless kanpakyin quintitem AngelHoney AHO 5item

[Difficulty]
HPDrainRate:1
CircleSize:3
OverallDifficulty:1
ApproachRate:3
SliderMultiplier:0.799999999999999
SliderTickRate:1

[Events]
//Background and Video events
0,0,"bg.jpg"
Video,107,"is_ed8.flv"
//Break Periods
2,11290,20317
//Storyboard Layer 0 (Background)
//Storyboard Layer 1 (Fail)
//Storyboard Layer 2 (Pass)
//Storyboard Layer 3 (Foreground)
//Storyboard Sound Samples
//Background Colour Transformations
3,100,163,162,255

[TimingPoints]
-909,333.333333333333,4,1,2,80,1,0
1924,-100,4,2,1,80,0,0
4090,-100,4,1,1,70,0,0
6090,-100,4,2,1,70,0,0
9672,-100,4,1,1,60,0,0
21841,-100,4,2,1,60,0,0
56090,-100,4,2,2,70,0,0
56174,-100,4,2,1,85,0,0
56423,-100,4,2,1,100,0,1
56501,-100,4,1,1,60,0,1
64257,-100,4,1,2,80,0,1
65674,-100,4,1,2,70,0,1
66916,-100,4,1,1,60,0,1
77248,-100,4,1,1,70,0,1
77757,-100,4,1,1,70,0,0
84257,-100,4,1,2,70,0,0
84340,-100,4,1,1,70,0,0
84757,-100,4,1,2,60,0,0
85840,-100,4,1,1,70,0,0
86590,-100,4,1,2,70,0,0
86997,-100,4,2,1,0,0,0

[Colours]
Combo1 : 128,0,255
Combo2 : 255,128,255
Combo3 : 128,0,64
Combo4 : 128,255,255

[HitObjects]
256,192,424,12,4,1757
384,192,3090,6,0,B|368:104|272:92,1,160
132,104,4424,5,0
52,224,5090,2,0,B|124:280|208:264,1,160,4|0
336,208,6424,2,0,B|372:228|396:268,2,79.9999999999999,0|0|4
276,168,7424,1,8
208,144,7757,2,0,B|112:156,1,79.9999999999999,0|8
92,160,8257,6,0,B|116:220|112:292,1,120,4|8
156,332,9090,2,0,B|224:296|324:304,1,160
380,324,10090,1,0
448,304,10424,2,0,B|420:228|456:144,1,160,0|4
196,52,21757,6,0,B|148:116|36:96,1,160
51,98,23090,5,2
52,172,23424,1,8
52,244,23757,1,0
136,124,24424,5,2
160,192,24757,1,8
184,260,25090,1,0
244,128,25757,5,2
308,160,26090,1,8
376,184,26424,2,0,B|368:228|400:276,2,79.9999999999999,2|8|4
348,44,27757,5,0
276,60,28090,1,8
208,84,28424,2,0,B|244:176|200:248,1,160
164,300,29424,1,8
108,344,29757,1,2
96,200,30424,5,2
164,224,30757,1,8
236,220,31090,2,0,B|288:192|356:200,1,120,4|4
456,176,32090,6,0,B|372:152|352:52,1,160,8|8
292,24,33090,1,0
160,80,33757,2,0,B|68:84,2,79.9999999999999,0|8|0
292,140,35090,6,0,B|284:224|368:264,2,140,2|0|4
312,36,36757,1,8
312,36,37090,2,0,B|228:72|144:56,1,160,0|4
16,24,38424,1,2
16,24,38757,6,0,B|36:196,1,160,8|2
44,256,39757,1,0
184,292,40424,6,0,B|256:256|344:264,1,160,4|0
256,192,41590,2,0,B|148:184|112:64,1,200,4|4
220,52,42924,6,0,B|340:56,1,120,4|8
412,56,43757,1,0
300,148,44257,6,0,B|172:156,1,120,0|8
108,156,45090,2,0,B|28:136,2,79.9999999999999,0|8|0
144,320,46424,5,0
284,288,47090,1,4
212,208,47590,2,0,B|216:88|356:76,1,200,4|4
337,78,49090,5,0
388,132,49424,1,8
460,136,49757,2,0,B|436:220|460:312,1,160,0|8
352,320,50924,6,0,B|284:328|232:296,1,120,4|8
180,252,51757,1,0
192,180,52090,1,8
156,116,52424,2,0,B|240:120|312:60,1,160,4|0
408,36,53590,6,0,B|380:152|468:220,1,200,4|2
324,252,55090,2,0,B|264:280|200:268,2,120,4|4|10
392,224,56424,5,4
424,84,57090,2,0,B|456:112|504:112,2,79.9999999999999
284,48,58424,6,0,B|224:124|140:116,1,160
8,76,59757,1,0
8,76,60090,1,0
8,76,60424,6,0,B|96:176|40:308,1,240
108,332,61757,1,0
244,284,62424,2,0,B|308:328|412:308,2,160
208,220,64090,1,0
216,148,64424,6,0,B|128:160,2,79.9999999999999,2|0|2
284,128,65424,1,0
340,80,65757,2,0,B|368:172|464:168,1,160,4|4
484,236,66757,2,0,B|496:288,2,40,4|0|0
476,92,67757,5,0
408,112,68090,1,0
340,96,68424,2,0,B|264:132|176:96,1,160
44,124,69757,2,0,B|136:120|180:208,1,160
184,272,70757,1,0
248,240,71090,6,0,B|368:196,1,120
400,100,72090,2,0,B|484:136,2,79.9999999999999
336,64,73090,2,0,B|268:124|180:100,1,160,0|4
72,188,74424,2,0,B|76:296|176:304,1,160
232,312,75424,1,0
304,320,75757,2,0,B|360:324,2,40
288,248,76424,6,0,B|280:104|128:96,1,240,4|4
64,84,77757,6,0,B|24:160,1,79.9999999999999
92,184,78424,2,0,B|96:268,2,79.9999999999999
184,72,79757,2,0,B|276:40,2,79.9999999999999,0|0|4
116,100,80757,5,0
108,172,81090,2,0,B|168:236,1,79.9999999999999,4|0
216,280,81757,1,0
216,280,81924,2,0,B|296:208|420:224,1,200
436,160,83090,6,0,B|352:144|312:56,1,160,4|0
208,76,84257,2,0,B|176:136|92:120,1,120,4|4
44,160,85090,1,0
120,284,85757,6,0,B|172:232|268:228,1,160,4|0
336,236,86757,2,0,B|392:236,1,40,0|4
256,192,87090,12,0,88424
