osu file format v9

[General]
AudioFilename: SUPER STREAM.mp3
AudioLeadIn: 1500
PreviewTime: 56340
Countdown: 0
SampleSet: Normal
StackLeniency: 0.7
Mode: 0
LetterboxInBreaks: 1

[Editor]
Bookmarks: 11090,21757,32423,43090,55090,56423,67090,76423,77757,85757,88423
DistanceSpacing: 1.1
BeatDivisor: 2
GridSize: 16

[Metadata]
Title:SUPER STREAM (TV Size)
Artist:Infinite Stratos Cast
Creator:xierbaliti
Version:AngelHoney
Source:Infinite Stratos
Tags:IS Shinonono Houki Seshiria Orukotto Fan Rinin Sharurotto Dunoa Raura Boudevihhi eveless kanpakyin quintitem AngelHoney AHO 5item

[Difficulty]
HPDrainRate:6
CircleSize:3
OverallDifficulty:6
ApproachRate:7
SliderMultiplier:1.7
SliderTickRate:0.5

[Events]
//Background and Video events
0,0,"bg.jpg"
Video,107,"is_ed8.flv"
//Break Periods
//Storyboard Layer 0 (Background)
//Storyboard Layer 1 (Fail)
//Storyboard Layer 2 (Pass)
//Storyboard Layer 3 (Foreground)
//Storyboard Sound Samples
//Background Colour Transformations
3,100,163,162,255

[TimingPoints]
424,333.333333333333,4,1,1,50,1,0
1923,-100,4,1,1,40,0,0
4340,-100,4,1,1,50,0,0
4507,-100,4,1,1,40,0,0
5007,-100,4,1,1,50,0,0
5173,-100,4,1,1,40,0,0
5673,-100,4,1,1,50,0,0
5840,-100,4,1,1,40,0,0
7007,-100,4,1,1,51,0,0
7173,-100,4,1,1,40,0,0
8923,-100,4,1,1,30,0,0
9257,-100,4,1,1,20,0,0
9673,-100,4,1,1,50,0,0
9840,-100,4,1,1,30,0,0
10007,-100,4,1,1,50,0,0
10173,-100,4,1,1,30,0,0
10340,-100,4,1,1,50,0,0
10507,-100,4,1,1,30,0,0
10673,-100,4,1,1,50,0,0
10840,-100,4,1,1,30,0,0
11007,-100,4,1,1,60,0,0
11090,-100,4,1,1,60,0,1
11132,-100,4,1,1,60,0,0
21257,-100,4,1,1,41,0,0
21590,-100,4,1,1,50,0,0
30840,-100,4,1,1,60,0,0
31757,-100,4,1,1,50,0,0
37340,-100,4,1,1,30,0,0
37507,-100,4,1,1,50,0,0
40340,-100,4,1,1,55,0,0
50840,-100,4,1,1,40,0,0
52757,-100,4,1,1,51,0,0
54423,-100,4,1,1,55,0,0
54757,-100,4,1,1,60,0,0
55090,-100,4,1,1,70,0,0
56007,-76.9230769230769,4,1,1,50,0,0
56340,-100,4,1,1,60,0,0
56423,-100,4,1,1,60,0,1
56465,-100,4,1,1,60,0,0
58173,-100,4,1,1,40,0,0
58340,-100,4,1,1,60,0,0
58507,-100,4,1,1,40,0,0
58673,-100,4,1,1,60,0,0
67090,-100,4,1,1,60,0,1
67132,-100,4,1,1,60,0,0
77757,-100,4,1,1,60,0,1
77798,-100,4,1,1,60,0,0
85257,-100,4,1,1,49,0,0
86257,-100,4,1,1,40,0,0
86673,-100,4,1,1,51,0,0
87090,-100,4,1,1,0,0,0

[Colours]
Combo1 : 128,0,255
Combo2 : 255,128,255
Combo3 : 128,0,64
Combo4 : 128,255,255

[HitObjects]
96,80,1757,6,0,B|64:168|88:256,1,170,4|0
400,280,2423,2,0,B|432:192|408:104,1,170
192,64,3090,2,0,B|128:144|160:256,1,170
176,304,3590,2,0,B|240:176|384:176,1,255
464,176,4257,1,0
432,256,4423,6,0,B|456:368,1,85,4|0
320,304,4757,2,0,B|352:208,1,85
224,176,5090,2,0,B|240:288,1,85,4|0
112,192,5423,2,0,B|160:104,1,85
208,48,5757,1,4
296,27,5923,1,0
383,55,6090,1,0
459,114,6257,2,0,B|512:192|467:290,1,170
384,224,6757,6,0,B|304:192|200:240,1,170,0|4
80,304,7423,1,4
64,144,7757,1,4
224,80,8090,1,4
288,128,8257,2,0,B|384:128|448:32,1,170,4|0
352,16,8757,2,0,B|320:112|384:208,1,170,4|0
224,304,9423,1,0
144,272,9590,1,0
80,208,9757,2,0,B|64:96,1,85
176,192,10090,2,0,B|208:80,1,85
272,224,10423,2,0,B|336:144,1,85
352,288,10757,2,0,B|440:240,1,85
480,160,11090,6,0,B|400:96|288:104,1,170,4|0
224,96,11590,1,0
256,192,11757,2,0,B|176:224|64:176,1,170
48,288,12257,2,0,B|176:256|320:320,1,255
384,336,12923,1,0
472,364,13090,2,0,B|528:288|488:156,1,170
448,128,13590,1,0
368,80,13757,2,0,B|256:32,1,85
272,160,14090,2,0,B|144:152,1,85
224,272,14423,2,0,B|96:320,1,85
56,334,14757,1,0
32,240,14923,6,0,B|16:144,1,85
112,80,15256,2,0,B|128:176,1,85
240,208,15590,2,0,B|224:112,1,85
320,48,15923,2,0,B|336:144,1,85
432,176,16257,1,0
448,208,16340,1,0
464,240,16423,6,0,B|384:272|288:216,1,170
144,288,17090,1,0
144,288,17257,2,0,B|160:192|80:112,1,170
240,32,17923,1,0
240,32,18090,1,0
368,128,18423,1,0
368,128,18590,2,0,B|320:208|352:304,1,170
208,336,19257,1,0
208,336,19423,1,0
80,264,19757,5,0
56,240,19840,1,0
40,208,19923,1,0
32,176,20007,1,0
40,144,20090,1,0
56,112,20173,1,0
80,88,20257,2,0,B|264:64,1,170,4|4
448,96,20923,1,4
448,96,21090,2,0,B|432:272,1,170,4|4
184,312,21757,6,0,B|240:224|192:128,1,170
144,80,22257,1,0
64,32,22423,1,0
64,128,22590,2,0,B|32:176|32:224,1,85
32,304,22923,1,0
128,272,23090,2,0,B|328:280,2,170
144,176,23923,1,0
240,176,24090,2,0,B|352:136,1,85
400,64,24423,6,0,B|480:128|448:256,1,170
336,288,24923,2,0,B|256:224|288:128,1,170
320,32,25423,1,0
208,64,25590,1,0
128,144,25757,2,0,B|135:207|160:232,1,85
144,336,26090,1,0
240,288,26257,2,0,B|288:288|336:256,1,85
480,144,26757,1,0
288,48,27090,6,0,B|352:128|304:224,1,170
208,272,27590,2,0,B|144:192|192:96,1,170
96,64,28090,1,0
36,290,28423,2,0,B|112:240|204:266,1,170
288,288,28923,1,0
384,320,29090,2,0,B|416:288|432:224,1,85
336,192,29423,2,0,B|304:144|288:80,1,85
224,192,29757,6,0,B|208:48|32:32,1,255
48,128,30423,2,0,B|112:64|200:48,1,170
288,32,30923,1,0
320,32,31007,1,0
352,40,31090,1,4
448,96,31257,1,4
352,160,31423,1,4
448,224,31590,1,0
272,336,31923,5,2
240,352,32007,1,0
208,368,32090,1,0
176,368,32173,1,0
144,352,32257,1,2
112,328,32340,1,0
88,304,32423,2,0,B|48:224|96:128,1,170,4|0
144,64,32923,1,0
240,64,33090,2,0,B|288:64|336:16,1,85
464,128,33423,2,0,B|400:128|368:80,1,85
304,160,33757,6,0,B|208:144|128:224,1,170
80,272,34257,1,0
48,176,34423,2,0,B|16:80,1,85
144,32,34757,2,0,B|112:136,1,85
224,96,35090,2,0,B|272:32|400:32,1,170
464,48,35590,1,0
448,240,35923,1,0
448,240,36090,2,0,B|352:304,1,85
304,336,36423,6,0,B|240:272|144:288,1,170
64,320,36923,2,0,B|160:304|224:224,1,170
272,176,37423,1,4
304,96,37590,1,0
320,16,37757,6,0,B|416:48,1,85
384,128,38090,2,0,B|480:160,1,85
288,192,38423,2,0,B|384:224,1,85
336,304,38757,2,0,B|432:336,1,85
240,288,39090,6,0,B|192:352|80:336,1,170
0,304,39590,1,0
64,240,39757,2,0,B|144:192|144:64,1,170
224,144,40257,1,0
192,240,40423,6,0,B|288:208|384:256,1,170,4|0
448,288,40923,1,0
432,192,41090,2,0,B|352:160|304:48,1,170
226,41,41590,1,0
48,176,41923,1,0
48,176,42090,2,0,B|240:192,1,170
96,272,42590,2,0,B|288:288,1,170,0|4
444,306,43257,1,4
444,306,43423,6,0,B|464:208|384:144,1,170
336,224,43923,2,0,B|272:304|160:288,1,170
208,208,44423,2,0,B|144:144|32:160,1,170
320,160,45090,2,0,B|336:64|448:32,1,170
496,224,45757,1,0
336,336,46090,1,0
160,208,46423,2,0,B|272:216|328:144,1,170
416,32,47090,5,4
480,80,47257,1,0
512,160,47423,1,4
480,240,47590,1,4
304,192,47923,1,0
240,272,48090,1,0
160,208,48257,1,0
224,128,48423,6,0,B|144:80|48:112,1,170,4|0
12,196,48923,1,0
48,288,49090,2,0,B|128:336|224:288,1,170
288,240,49590,1,0
372,193,49757,2,0,B|476:209,1,85
240,128,50090,2,0,B|344:104,1,85
128,192,50423,2,0,B|240:224,1,85
0,128,50757,2,0,B|112:112,1,85
256,192,51090,12,0,52423
256,160,52757,6,0,B|255:217|215:248,1,85,0|2
140,159,53090,2,0,B|90:129|83:79,1,85,0|2
200,64,53423,2,0,B|250:35|296:54,1,85,0|6
464,160,53923,1,2
480,272,54090,1,0
448,288,54173,1,0
416,272,54257,1,2
384,288,54340,1,0
352,272,54423,1,2
320,288,54507,1,0
288,272,54590,1,2
256,288,54673,1,0
224,272,54757,1,2
192,288,54840,1,0
160,272,54923,1,2
128,288,55007,1,0
96,272,55090,2,0,B|112:160,1,85,4|0
240,176,55423,2,0,B|256:72,1,85,4|0
320,192,56090,6,0,B|264:168|184:176,1,110.499998024106
96,192,56423,6,0,B|176:112|160:0,1,170,4|0
272,32,56923,2,0,B|264:144|336:208,1,170
240,240,57423,2,0,B|144:288,1,85
80,320,57757,1,0
144,112,58090,2,0,B|142:63|160:16,1,85
256,64,58423,2,0,B|260:109|240:176,1,85
208,240,58757,1,0
160,320,58923,1,0
256,320,59090,2,0,B|352:352|448:304,1,170
496,256,59590,1,0
400,224,59757,2,0,B|320:224|240:144,1,170
192,80,60257,1,0
96,32,60423,6,0,B|128:112|64:224,1,170
32,288,60923,2,0,B|128:256|224:304,1,170
288,320,61423,2,0,B|400:304,1,85
464,272,61757,5,0
384,208,61923,2,0,B|368:96,1,85
160,64,62423,2,0,B|160:176|240:224,1,170
32,240,63090,2,0,B|128:240|192:320,1,170
256,352,63590,2,0,B|320:288|424:288,1,170
480,224,64090,1,0
400,192,64257,1,0
314,176,64423,6,0,B|234:144|122:160,1,170,0|4
32,320,65090,2,0,B|128:352|232:320,1,170,0|4
288,304,65590,1,0
384,272,65757,2,0,B|416:208|400:112,2,127.5,0|4|4
304,208,66423,1,4
128,96,66757,5,0
128,96,66840,1,0
128,96,66923,1,0
128,96,67007,1,0
128,96,67090,2,0,B|112:216|48:280,1,170,4|0
240,208,67590,2,0,B|192:128|200:32,1,170
288,80,68090,2,0,B|384:48,1,85
464,32,68423,1,0
416,192,68757,1,0
288,80,69090,1,0
240,240,69423,1,0
112,144,69757,6,0,B|208:176|288:128,1,170
368,80,70257,1,0
368,176,70423,2,0,B|368:272|448:336,1,170
160,320,71090,2,0,B|176:208,1,85,4|0
192,144,71423,1,0
272,208,71590,2,0,B|384:192|416:112,1,170,4|0
448,224,72090,2,0,B|528:304,1,85,4|0
400,320,72423,6,0,B|320:288|216:320,1,170,0|0
144,336,72923,1,0
64,272,73090,2,0,B|160:256|224:176,1,170
448,96,73757,2,0,B|368:160|256:144,1,170
198,138,74257,1,0
96,112,74423,2,0,B|160:208|112:304,1,170
224,176,74923,2,0,B|240:288|320:352,1,170
336,240,75423,2,0,B|416:192|528:224,1,170
352,64,76090,1,0
352,64,76257,1,0
352,64,76423,2,0,B|224:48,2,127.5,0|4|4
448,80,77090,1,4
128,128,77423,5,0
128,128,77507,1,0
128,128,77590,1,0
128,128,77673,1,0
128,128,77757,2,0,B|80:224|128:328,1,170,4|0
368,272,78423,2,0,B|400:192|336:96,1,170
112,48,79090,1,0
176,112,79257,1,0
112,176,79423,1,0
160,256,79590,2,0,B|208:344|304:344,1,170
384,320,80090,1,0
464,272,80257,1,0
416,192,80423,6,0,B|432:160|432:96,1,85
336,48,80757,2,0,B|320:80|320:144,1,85
224,96,81090,2,0,B|176:32|64:48,1,170
48,256,81757,1,4
128,288,81923,1,0
208,256,82090,1,4
288,288,82257,1,4
464,128,82590,1,0
384,96,82757,1,0
304,128,82923,1,0
224,96,83090,6,0,B|160:48|56:48,1,170,4|0
128,256,83757,2,0,B|200:208|312:208,1,170
384,192,84257,2,0,B|320:128|224:128,1,170
144,144,84757,2,0,B|160:224|96:320,1,170
320,304,85423,2,0,B|424:280,1,85
496,256,85757,5,4
400,80,86090,1,4
224,176,86423,1,4
176,256,86590,1,4
96,208,86757,1,4
144,128,86923,1,4
256,192,87090,12,0,88423
