osu file format v13

[General]
AudioFilename: SUPER STREAM.mp3
AudioLeadIn: 0
PreviewTime: 56122
Countdown: 0
SampleSet: Soft
StackLeniency: 0.7
Mode: 3
LetterboxInBreaks: 0
SpecialStyle: 0
WidescreenStoryboard: 0

[Editor]
Bookmarks: 56038
DistanceSpacing: 0.8
BeatDivisor: 4
GridSize: 16
TimelineZoom: 2.3

[Metadata]
Title:SUPER STREAM (TV Size)
TitleUnicode:SUPER∞STREAM (TV Size)
Artist:Infinite Stratos Cast
ArtistUnicode:Infinite Stratos Cast
Creator:Luckman
Version:7K HD
Source:IS (Infinite Stratos)
Tags:Yoko Hikasa Yukana Nogami Asami Shimoda Kana Hanazawa Marina Inoue Akihiko Yamaguchi Saori Kodama Simple_star Spy Vocaloid1anime2 ajeemaniz Kuo Kyoka
BeatmapID:392291
BeatmapSetID:160586

[Difficulty]
HPDrainRate:7
CircleSize:7
OverallDifficulty:8
ApproachRate:5
SliderMultiplier:1.4
SliderTickRate:1

[Events]
//Background and Video events
0,0,"110406infinitestratos01.jpg",0,0
Video,65,"is_ed8.flv"
//Break Periods
//Storyboard Layer 0 (Background)
//Storyboard Layer 1 (Fail)
//Storyboard Layer 2 (Pass)
//Storyboard Layer 3 (Foreground)
//Storyboard Sound Samples
//Background Colour Transformations
3,100,163,162,255

[TimingPoints]
441,333.333333333333,4,2,1,50,1,0
1774,-111.111111111111,4,2,1,50,0,0
4440,-100,4,2,1,50,0,0
11107,-100,4,2,1,50,0,0
20274,-333.333333333333,4,2,1,50,0,0
20357,-83.3333333333333,4,2,1,50,0,0
20607,-333.333333333333,4,2,1,50,0,0
20690,-83.3333333333333,4,2,1,50,0,0
20940,-100,4,2,1,50,0,0
21440,-83.3333333333333,4,2,1,50,0,0
21607,-200,4,2,1,50,0,0
21774,-100,4,2,1,50,0,0
28107,-100,4,2,1,50,0,0
28274,-100,4,2,1,50,0,0
28358,-100,4,2,1,50,0,0
28690,-100,4,2,1,50,0,0
29690,-100,4,2,1,50,0,0
31107,-333.333333333333,4,2,1,50,0,0
31149,-66.6666666666667,4,2,1,50,0,0
31274,-333.333333333333,4,2,1,50,0,0
31315,-83.3333333333333,4,2,1,50,0,0
31440,-333.333333333333,4,2,1,50,0,0
31482,-83.3333333333333,4,2,1,50,0,0
31607,-100,4,2,1,50,0,0
31690,-200,4,2,1,50,0,0
31774,-83.3333333333333,4,2,1,50,0,0
31940,-100,4,2,1,50,0,0
32440,-100,4,2,1,50,0,0
34024,-100,4,2,1,50,0,0
42440,-333.333333333333,4,2,1,50,0,0
42482,-83.3333333333333,4,2,1,50,0,0
42606,-100,4,2,1,50,0,0
42690,-200,4,2,1,50,0,0
42774,-66.6666666666667,4,2,1,50,0,0
42940,-100,4,2,1,50,0,0
47024,-100,4,2,1,50,0,0
50106,-333.333333333333,4,2,1,50,0,0
50148,-83.3333333333333,4,2,1,50,0,0
50274,-333.333333333333,4,2,1,50,0,0
50314,-83.3333333333333,4,2,1,50,0,0
50440,-333.333333333333,4,2,1,50,0,0
50482,-83.3333333333333,4,2,1,50,0,0
50606,-333.333333333333,4,2,1,50,0,0
50648,-83.3333333333333,4,2,1,50,0,0
50774,-333.333333333333,4,2,1,50,0,0
50815,-83.3333333333333,4,2,1,50,0,0
50940,-100,4,2,1,50,0,0
55106,-333.333333333333,4,2,1,50,0,0
55148,-83.3333333333333,4,2,1,50,0,0
55274,-333.333333333333,4,2,1,50,0,0
55314,-83.3333333333333,4,2,1,50,0,0
55440,-333.333333333333,4,2,1,50,0,0
55481,-83.3333333333333,4,2,1,50,0,0
55606,-100,4,2,1,50,0,0
55690,-200,4,2,1,50,0,0
55774,-83.3333333333333,4,2,1,50,0,0
56106,-100,4,2,1,50,0,0
56274,-100,4,2,1,50,0,0
56440,-100,4,2,1,50,0,1
64774,-333.333333333333,4,2,1,50,0,1
64856,-83.3333333333333,4,2,1,50,0,1
65106,-100,4,2,1,50,0,1
65774,-83.3333333333333,4,2,1,50,0,1
65857,-333.333333333333,4,2,1,50,0,1
65940,-100,4,2,1,50,0,1
66024,-83.3333333333333,4,2,1,50,0,1
66107,-333.333333333333,4,2,1,50,0,1
66190,-100,4,2,1,50,0,1
76440,-83.3333333333333,4,2,1,50,0,1
76524,-333.333333333333,4,2,1,50,0,1
76607,-100,4,2,1,50,0,1
76690,-83.3333333333333,4,2,1,50,0,1
76774,-333.333333333333,4,2,1,50,0,1
76857,-100,4,2,1,50,0,1
83107,-100,4,2,1,50,0,1
83274,-66.6666666666667,4,2,1,50,0,1
83357,-333.333333333333,4,2,1,50,0,1
83440,-100,4,2,1,50,0,1
83607,-83.3333333333333,4,2,1,50,0,1
83690,-333.333333333333,4,2,1,50,0,1
83774,-100,4,2,1,50,0,1
84770,-333.333333333333,4,2,1,50,0,0
85107,-100,4,2,1,50,0,0
85440,-83.3333333333333,4,2,1,50,0,0
85690,-333.333333333333,4,2,1,50,0,0
85774,-100,4,2,1,50,0,0

[HitObjects]
182,192,1274,5,0,0:0:0:0:
256,192,1357,1,0,0:0:0:0:
36,192,1440,5,0,0:0:0:0:
475,192,1440,1,0,0:0:0:0:
329,192,1440,1,0,0:0:0:0:
402,192,1774,1,0,0:0:0:0:
182,192,1774,1,0,0:0:0:0:
36,192,1774,128,0,3107:0:0:0:0:
475,192,1774,1,0,0:0:0:0:
109,192,3107,1,0,0:0:0:0:
402,192,3107,1,0,0:0:0:0:
329,192,3107,1,0,0:0:0:0:
182,192,3107,128,0,4440:0:0:0:0:
256,192,3274,1,0,0:0:0:0:
475,192,3440,1,0,0:0:0:0:
109,192,3607,1,0,0:0:0:0:
402,192,3690,1,0,0:0:0:0:
36,192,3774,1,0,0:0:0:0:
329,192,3857,1,0,0:0:0:0:
109,192,3940,1,0,0:0:0:0:
475,192,4107,1,0,0:0:0:0:
256,192,4274,1,0,0:0:0:0:
402,192,4440,128,0,5107:0:0:0:0:
36,192,4440,1,0,0:0:0:0:
256,192,4607,1,0,0:0:0:0:
475,192,4774,1,0,0:0:0:0:
109,192,4940,1,0,0:0:0:0:
256,192,5024,1,0,0:0:0:0:
36,192,5107,1,0,0:0:0:0:
329,192,5107,128,0,5774:0:0:0:0:
182,192,5274,1,0,0:0:0:0:
402,192,5440,128,0,5774:0:0:0:0:
256,192,5774,1,0,0:0:0:0:
182,192,5774,128,0,7107:0:0:0:0:
109,192,5940,1,0,0:0:0:0:
256,192,6107,1,0,0:0:0:0:
329,192,6274,128,0,7107:0:0:0:0:
402,192,6357,1,0,0:0:0:0:
475,192,6440,1,0,0:0:0:0:
109,192,6524,1,0,0:0:0:0:
256,192,6607,1,0,0:0:0:0:
402,192,6690,1,0,0:0:0:0:
475,192,6774,1,0,0:0:0:0:
36,192,6857,1,0,0:0:0:0:
109,192,6940,1,0,0:0:0:0:
402,192,7024,1,0,0:0:0:0:
475,192,7107,1,0,0:0:0:0:
256,192,7107,1,0,0:0:0:0:
36,192,7107,1,0,0:0:0:0:
402,192,7440,1,0,0:0:0:0:
182,192,7440,1,0,0:0:0:0:
329,192,7774,1,0,0:0:0:0:
109,192,7774,1,0,0:0:0:0:
182,192,8107,1,0,0:0:0:0:
402,192,8107,1,0,0:0:0:0:
475,192,8274,1,0,0:0:0:0:
256,192,8274,1,0,0:0:0:0:
36,192,8274,1,0,0:0:0:0:
475,192,8607,1,0,0:0:0:0:
256,192,8607,1,0,0:0:0:0:
36,192,8607,1,0,0:0:0:0:
402,192,8774,1,0,0:0:0:0:
109,192,8774,1,0,0:0:0:0:
36,192,9774,1,0,0:0:0:0:
475,192,9774,1,0,0:0:0:0:
256,192,9940,1,0,0:0:0:0:
475,192,10107,1,0,0:0:0:0:
36,192,10107,1,0,0:0:0:0:
256,192,10274,1,0,0:0:0:0:
36,192,10440,1,0,0:0:0:0:
402,192,10440,1,0,0:0:0:0:
329,192,10524,1,0,0:0:0:0:
256,192,10607,1,0,0:0:0:0:
182,192,10690,1,0,0:0:0:0:
109,192,10774,1,0,0:0:0:0:
36,192,10857,1,0,0:0:0:0:
109,192,10940,1,0,0:0:0:0:
182,192,11024,1,0,0:0:0:0:
329,192,11107,1,0,0:0:0:0:
475,192,11107,1,0,0:0:0:0:
36,192,11107,1,0,0:0:0:0:
256,192,11107,1,0,0:0:0:0:
182,192,11440,1,0,0:0:0:0:
402,192,11440,1,8,0:0:0:0:
109,192,11774,1,0,0:0:0:0:
329,192,11774,1,0,0:0:0:0:
402,192,11940,1,0,0:0:0:0:
182,192,11940,1,0,0:0:0:0:
475,192,12107,1,8,0:0:0:0:
109,192,12274,1,0,0:0:0:0:
256,192,12274,128,0,12774:0:0:0:0:
36,192,12440,1,0,0:0:0:0:
182,192,12774,1,8,0:0:0:0:
402,192,12774,1,0,0:0:0:0:
109,192,13107,1,0,0:0:0:0:
329,192,13107,1,0,0:0:0:0:
182,192,13274,1,0,0:0:0:0:
402,192,13274,1,0,0:0:0:0:
475,192,13440,1,8,0:0:0:0:
256,192,13607,128,0,14107:0:0:0:0:
109,192,13607,1,0,0:0:0:0:
36,192,13774,1,0,0:0:0:0:
109,192,14107,1,0,0:0:0:0:
329,192,14107,1,8,0:0:0:0:
36,192,14440,1,0,0:0:0:0:
256,192,14440,1,0,0:0:0:0:
329,192,14607,1,0,0:0:0:0:
109,192,14607,1,0,0:0:0:0:
475,192,14774,1,8,0:0:0:0:
256,192,14940,1,0,0:0:0:0:
402,192,14940,1,0,0:0:0:0:
36,192,15107,1,0,0:0:0:0:
475,192,15274,1,0,0:0:0:0:
329,192,15274,1,0,0:0:0:0:
109,192,15440,1,8,0:0:0:0:
402,192,15607,1,0,0:0:0:0:
256,192,15607,1,0,0:0:0:0:
36,192,15774,1,0,0:0:0:0:
475,192,15940,1,0,0:0:0:0:
256,192,15940,128,0,16440:0:0:0:0:
402,192,16107,1,8,0:0:0:0:
109,192,16107,1,0,0:0:0:0:
475,192,16190,1,0,0:0:0:0:
402,192,16274,1,0,0:0:0:0:
329,192,16357,1,0,0:0:0:0:
36,192,16440,1,0,0:0:0:0:
475,192,16440,1,4,0:0:0:0:
182,192,16440,128,0,17107:0:0:0:0:
36,192,16774,1,8,0:0:0:0:
475,192,16774,1,0,0:0:0:0:
256,192,17107,1,0,0:0:0:0:
109,192,17274,1,0,0:0:0:0:
329,192,17274,1,0,0:0:0:0:
475,192,17440,1,8,0:0:0:0:
182,192,17607,1,0,0:0:0:0:
402,192,17607,128,0,18107:0:0:0:0:
256,192,17607,128,0,18440:0:0:0:0:
109,192,17774,1,0,0:0:0:0:
36,192,17940,1,0,0:0:0:0:
182,192,18107,1,0,0:0:0:0:
109,192,18107,1,8,0:0:0:0:
475,192,18440,1,8,0:0:0:0:
402,192,18440,1,0,0:0:0:0:
329,192,18607,1,8,0:0:0:0:
182,192,18607,1,0,0:0:0:0:
182,192,18940,128,0,19940:0:0:0:0:
36,192,18940,128,0,19940:0:0:0:0:
329,192,18940,1,4,0:0:0:0:
256,192,19274,1,0,0:0:0:0:
402,192,19440,1,8,0:0:0:0:
475,192,19440,1,0,0:0:0:0:
329,192,19524,1,0,0:0:0:0:
256,192,19607,1,0,0:0:0:0:
329,192,19690,1,0,0:0:0:0:
402,192,19774,1,0,0:0:0:0:
329,192,19857,1,0,0:0:0:0:
256,192,19940,1,0,0:0:0:0:
109,192,20024,1,0,0:0:0:0:
36,192,20107,1,0,0:0:0:0:
109,192,20190,1,0,0:0:0:0:
475,192,20274,1,0,0:0:0:0:
329,192,20274,1,0,0:0:0:0:
182,192,20274,1,0,0:0:0:0:
109,192,20607,1,0,0:0:0:0:
256,192,20607,1,0,0:0:0:0:
402,192,20607,1,0,0:0:0:0:
109,192,20940,1,0,0:0:0:0:
256,192,20940,1,0,0:0:0:0:
402,192,20940,1,0,0:0:0:0:
475,192,21107,1,0,0:0:0:0:
329,192,21107,1,0,0:0:0:0:
36,192,21107,128,0,21440:0:0:0:0:
109,192,21440,1,0,0:0:0:0:
402,192,21440,1,0,0:0:0:0:
256,192,21440,1,0,0:0:0:0:
256,192,21774,128,0,22440:0:0:0:0:
36,192,21774,1,0,0:0:0:0:
109,192,21774,1,0,0:0:0:0:
182,192,21940,1,0,0:0:0:0:
329,192,22107,1,8,0:0:0:0:
475,192,22107,1,0,0:0:0:0:
182,192,22274,1,0,0:0:0:0:
109,192,22357,1,0,0:0:0:0:
402,192,22440,128,0,23107:0:0:0:0:
36,192,22440,1,0,0:0:0:0:
256,192,22607,1,0,0:0:0:0:
36,192,22774,1,8,0:0:0:0:
109,192,22774,1,0,0:0:0:0:
182,192,23107,128,0,23607:0:0:0:0:
256,192,23107,1,0,0:0:0:0:
475,192,23440,1,8,0:0:0:0:
402,192,23440,1,0,0:0:0:0:
109,192,23607,128,0,23940:0:0:0:0:
256,192,23607,1,0,0:0:0:0:
329,192,23690,1,0,0:0:0:0:
402,192,23774,1,0,0:0:0:0:
256,192,23940,128,0,24440:0:0:0:0:
36,192,24107,1,8,0:0:0:0:
182,192,24107,1,0,0:0:0:0:
475,192,24274,1,0,0:0:0:0:
329,192,24440,128,0,25107:0:0:0:0:
109,192,24440,1,0,0:0:0:0:
36,192,24774,1,8,0:0:0:0:
109,192,24774,1,0,0:0:0:0:
256,192,24940,1,0,0:0:0:0:
182,192,25024,1,0,0:0:0:0:
475,192,25107,128,0,25774:0:0:0:0:
109,192,25107,1,0,0:0:0:0:
329,192,25274,1,0,0:0:0:0:
109,192,25440,1,8,0:0:0:0:
36,192,25440,1,0,0:0:0:0:
256,192,25774,128,0,26440:0:0:0:0:
109,192,25774,1,0,0:0:0:0:
402,192,26107,1,8,0:0:0:0:
475,192,26107,1,0,0:0:0:0:
36,192,26274,1,0,0:0:0:0:
109,192,26357,1,0,0:0:0:0:
182,192,26440,1,0,0:0:0:0:
329,192,26440,128,0,26774:0:0:0:0:
36,192,26607,1,0,0:0:0:0:
475,192,26774,1,0,0:0:0:0:
402,192,26774,128,8,27107:0:0:0:0:
109,192,26774,1,0,0:0:0:0:
329,192,27107,1,4,0:0:0:0:
182,192,27107,1,0,0:0:0:0:
36,192,27107,128,0,27774:0:0:0:0:
475,192,27440,1,8,0:0:0:0:
402,192,27440,1,0,0:0:0:0:
329,192,27607,1,0,0:0:0:0:
256,192,27690,1,0,0:0:0:0:
109,192,27774,1,0,0:0:0:0:
182,192,27774,128,0,28107:0:0:0:0:
256,192,27940,1,0,0:0:0:0:
402,192,28107,1,0,0:0:0:0:
329,192,28107,128,8,28440:0:0:0:0:
36,192,28440,1,0,0:0:0:0:
109,192,28440,128,0,29107:0:0:0:0:
256,192,28607,1,0,0:0:0:0:
402,192,28774,1,8,0:0:0:0:
475,192,28774,1,0,0:0:0:0:
329,192,28940,1,0,0:0:0:0:
256,192,29024,1,0,0:0:0:0:
182,192,29107,1,0,0:0:0:0:
36,192,29107,128,0,29774:0:0:0:0:
256,192,29274,1,0,0:0:0:0:
329,192,29440,1,8,0:0:0:0:
475,192,29440,1,0,0:0:0:0:
109,192,29774,1,0,0:0:0:0:
182,192,29774,128,0,30440:0:0:0:0:
256,192,29940,1,0,0:0:0:0:
402,192,30107,1,8,0:0:0:0:
475,192,30107,1,0,0:0:0:0:
256,192,30274,1,0,0:0:0:0:
329,192,30357,1,0,0:0:0:0:
109,192,30440,128,0,31107:0:0:0:0:
402,192,30440,1,0,0:0:0:0:
182,192,30607,1,0,0:0:0:0:
475,192,30774,1,8,0:0:0:0:
329,192,30774,1,0,0:0:0:0:
256,192,30940,1,0,0:0:0:0:
182,192,31107,1,0,0:0:0:0:
36,192,31107,1,0,0:0:0:0:
329,192,31107,1,0,0:0:0:0:
475,192,31107,1,4,0:0:0:0:
475,192,31274,1,4,0:0:0:0:
36,192,31274,1,0,0:0:0:0:
182,192,31274,1,0,0:0:0:0:
329,192,31274,1,0,0:0:0:0:
109,192,31440,1,0,0:0:0:0:
402,192,31440,1,4,0:0:0:0:
256,192,31440,1,0,0:0:0:0:
329,192,31607,1,4,0:0:0:0:
182,192,31607,1,0,0:0:0:0:
182,192,31940,1,0,0:0:0:0:
256,192,32024,1,0,0:0:0:0:
182,192,32107,1,8,0:0:0:0:
475,192,32107,128,0,32440:0:0:0:0:
109,192,32190,1,0,0:0:0:0:
36,192,32274,1,0,0:0:0:0:
109,192,32357,1,0,0:0:0:0:
329,192,32440,1,0,0:0:0:0:
256,192,32440,1,0,0:0:0:0:
182,192,32440,1,0,0:0:0:0:
402,192,32774,1,0,0:0:0:0:
109,192,32774,128,8,33107:0:0:0:0:
329,192,32940,1,0,0:0:0:0:
256,192,33107,128,0,33440:0:0:0:0:
329,192,33274,1,0,0:0:0:0:
475,192,33440,1,8,0:0:0:0:
402,192,33440,128,0,33774:0:0:0:0:
329,192,33774,1,0,0:0:0:0:
256,192,33774,128,0,34440:0:0:0:0:
36,192,34107,1,8,0:0:0:0:
109,192,34107,1,0,0:0:0:0:
329,192,34274,1,0,0:0:0:0:
402,192,34357,1,0,0:0:0:0:
182,192,34440,1,0,0:0:0:0:
109,192,34440,128,0,35107:0:0:0:0:
256,192,34607,1,0,0:0:0:0:
475,192,34774,1,8,0:0:0:0:
36,192,34774,1,0,0:0:0:0:
182,192,35107,1,0,0:0:0:0:
475,192,35107,128,0,35774:0:0:0:0:
256,192,35274,1,0,0:0:0:0:
402,192,35440,1,8,0:0:0:0:
329,192,35440,1,0,0:0:0:0:
256,192,35607,1,0,0:0:0:0:
182,192,35690,1,0,0:0:0:0:
36,192,35774,1,0,0:0:0:0:
109,192,35774,1,0,0:0:0:0:
402,192,35940,1,0,0:0:0:0:
329,192,35940,1,0,0:0:0:0:
329,192,36107,1,0,0:0:0:0:
256,192,36107,1,0,0:0:0:0:
182,192,36274,128,0,36774:0:0:0:0:
256,192,36274,1,0,0:0:0:0:
109,192,36440,1,0,0:0:0:0:
36,192,36607,1,0,0:0:0:0:
256,192,36774,1,8,0:0:0:0:
109,192,36774,1,0,0:0:0:0:
402,192,36940,1,0,0:0:0:0:
329,192,37024,1,0,0:0:0:0:
182,192,37107,1,0,0:0:0:0:
256,192,37107,1,0,0:0:0:0:
182,192,37274,1,0,0:0:0:0:
402,192,37440,1,8,0:0:0:0:
329,192,37440,1,4,0:0:0:0:
329,192,37607,1,4,0:0:0:0:
402,192,37607,1,0,0:0:0:0:
36,192,37774,1,0,0:0:0:0:
182,192,37774,128,0,38107:0:0:0:0:
109,192,38107,128,8,38440:0:0:0:0:
402,192,38107,1,0,0:0:0:0:
256,192,38274,1,0,0:0:0:0:
329,192,38440,128,0,38940:0:0:0:0:
182,192,38440,128,0,38940:0:0:0:0:
36,192,38774,1,8,0:0:0:0:
475,192,38774,1,0,0:0:0:0:
256,192,38940,128,0,39107:0:0:0:0:
475,192,39107,128,0,39774:0:0:0:0:
402,192,39440,1,8,0:0:0:0:
182,192,39440,1,0,0:0:0:0:
109,192,39774,1,0,0:0:0:0:
329,192,39774,128,0,40107:0:0:0:0:
109,192,39940,1,0,0:0:0:0:
36,192,40107,1,0,0:0:0:0:
182,192,40107,1,0,0:0:0:0:
256,192,40190,1,0,0:0:0:0:
329,192,40274,1,0,0:0:0:0:
402,192,40357,1,0,0:0:0:0:
329,192,40440,128,0,40774:0:0:0:0:
182,192,40440,128,0,40774:0:0:0:0:
475,192,40440,1,0,0:0:0:0:
256,192,40774,1,8,0:0:0:0:
402,192,40940,1,0,0:0:0:0:
109,192,40940,1,0,0:0:0:0:
256,192,41107,1,0,0:0:0:0:
402,192,41107,1,0,0:0:0:0:
109,192,41107,1,0,0:0:0:0:
475,192,41440,1,8,0:0:0:0:
36,192,41440,1,0,0:0:0:0:
402,192,41524,1,0,0:0:0:0:
109,192,41524,1,0,0:0:0:0:
329,192,41607,1,0,0:0:0:0:
182,192,41607,1,0,0:0:0:0:
256,192,41690,1,0,0:0:0:0:
329,192,41774,1,0,0:0:0:0:
402,192,41857,1,0,0:0:0:0:
329,192,41940,1,0,0:0:0:0:
256,192,42024,1,0,0:0:0:0:
475,192,42107,1,8,0:0:0:0:
36,192,42107,1,0,0:0:0:0:
109,192,42190,1,0,0:0:0:0:
402,192,42190,1,0,0:0:0:0:
182,192,42274,1,0,0:0:0:0:
329,192,42274,1,0,0:0:0:0:
256,192,42357,1,0,0:0:0:0:
475,192,42440,1,0,0:0:0:0:
36,192,42440,1,0,0:0:0:0:
329,192,42607,1,0,0:0:0:0:
182,192,42607,1,0,0:0:0:0:
256,192,42607,1,0,0:0:0:0:
475,192,42940,128,0,43107:0:0:0:0:
256,192,42940,128,0,43107:0:0:0:0:
36,192,42940,128,0,43107:0:0:0:0:
182,192,43274,1,0,0:0:0:0:
109,192,43274,1,0,0:0:0:0:
402,192,43440,1,8,0:0:0:0:
256,192,43440,1,0,0:0:0:0:
329,192,43440,1,0,0:0:0:0:
109,192,43774,1,0,0:0:0:0:
182,192,43774,1,0,0:0:0:0:
256,192,43940,1,0,0:0:0:0:
402,192,44107,1,8,0:0:0:0:
329,192,44107,1,0,0:0:0:0:
475,192,44274,128,0,44774:0:0:0:0:
36,192,44440,1,0,0:0:0:0:
109,192,44607,1,0,0:0:0:0:
256,192,44774,1,0,0:0:0:0:
402,192,44774,128,8,45107:0:0:0:0:
36,192,44940,1,0,0:0:0:0:
182,192,45024,1,0,0:0:0:0:
475,192,45107,128,0,45440:0:0:0:0:
329,192,45107,1,0,0:0:0:0:
36,192,45274,1,0,0:0:0:0:
402,192,45440,128,8,45774:0:0:0:0:
256,192,45440,1,0,0:0:0:0:
182,192,45774,1,0,0:0:0:0:
36,192,45774,1,0,0:0:0:0:
256,192,45774,128,0,46440:0:0:0:0:
36,192,46107,1,8,0:0:0:0:
182,192,46107,1,0,0:0:0:0:
402,192,46107,1,0,0:0:0:0:
36,192,46440,1,0,0:0:0:0:
182,192,46440,1,0,0:0:0:0:
402,192,46440,128,0,46774:0:0:0:0:
256,192,46774,1,0,0:0:0:0:
109,192,46774,1,0,0:0:0:0:
475,192,46774,128,0,47107:0:0:0:0:
256,192,47107,1,0,0:0:0:0:
329,192,47107,1,0,0:0:0:0:
182,192,47274,1,0,0:0:0:0:
256,192,47274,1,0,0:0:0:0:
109,192,47440,1,0,0:0:0:0:
182,192,47440,1,0,0:0:0:0:
256,192,47607,128,0,47940:0:0:0:0:
329,192,47940,1,8,0:0:0:0:
475,192,47940,1,0,0:0:0:0:
36,192,47940,1,0,0:0:0:0:
182,192,47940,1,0,0:0:0:0:
329,192,48107,1,8,0:0:0:0:
475,192,48107,1,0,0:0:0:0:
36,192,48107,1,0,0:0:0:0:
182,192,48107,1,0,0:0:0:0:
256,192,48274,1,0,0:0:0:0:
182,192,48440,128,0,49107:0:0:0:0:
475,192,48440,1,0,0:0:0:0:
402,192,48607,1,0,0:0:0:0:
475,192,48774,1,8,0:0:0:0:
402,192,48940,1,0,0:0:0:0:
475,192,49107,1,0,0:0:0:0:
329,192,49107,128,0,49440:0:0:0:0:
36,192,49274,128,0,49440:0:0:0:0:
402,192,49440,128,0,49774:0:0:0:0:
182,192,49440,1,0,0:0:0:0:
109,192,49607,1,0,0:0:0:0:
475,192,49774,128,0,50440:0:0:0:0:
182,192,49940,1,0,0:0:0:0:
329,192,50107,1,8,0:0:0:0:
36,192,50107,1,0,0:0:0:0:
256,192,50274,1,0,0:0:0:0:
329,192,50440,1,0,0:0:0:0:
182,192,50440,1,0,0:0:0:0:
402,192,50607,1,0,0:0:0:0:
109,192,50607,1,0,0:0:0:0:
402,192,50940,128,0,51440:0:0:0:0:
109,192,50940,1,0,0:0:0:0:
256,192,50940,1,0,0:0:0:0:
329,192,51274,1,0,0:0:0:0:
36,192,51440,1,0,0:0:0:0:
109,192,51440,1,8,0:0:0:0:
402,192,51607,1,0,0:0:0:0:
256,192,51690,1,0,0:0:0:0:
109,192,51774,1,0,0:0:0:0:
36,192,51940,1,0,0:0:0:0:
475,192,52107,1,0,0:0:0:0:
402,192,52107,1,8,0:0:0:0:
109,192,52274,1,0,0:0:0:0:
402,192,52440,1,0,0:0:0:0:
256,192,52607,1,0,0:0:0:0:
475,192,52774,1,0,0:0:0:0:
402,192,52774,1,8,0:0:0:0:
109,192,52940,1,0,0:0:0:0:
329,192,53107,1,0,0:0:0:0:
182,192,53107,1,0,0:0:0:0:
402,192,53274,1,0,0:0:0:0:
256,192,53274,1,0,0:0:0:0:
475,192,53440,1,8,0:0:0:0:
329,192,53440,1,0,0:0:0:0:
402,192,53607,128,0,54940:0:0:0:0:
256,192,53940,1,0,0:0:0:0:
36,192,54107,1,8,0:0:0:0:
182,192,54107,1,0,0:0:0:0:
256,192,54190,1,0,0:0:0:0:
329,192,54274,1,0,0:0:0:0:
475,192,54357,1,0,0:0:0:0:
329,192,54440,1,0,0:0:0:0:
256,192,54524,1,0,0:0:0:0:
182,192,54607,1,0,0:0:0:0:
109,192,54690,1,0,0:0:0:0:
36,192,54774,1,0,0:0:0:0:
256,192,54774,1,0,0:0:0:0:
329,192,54857,1,0,0:0:0:0:
475,192,54940,1,0,0:0:0:0:
182,192,55107,1,0,0:0:0:0:
329,192,55107,1,0,0:0:0:0:
109,192,55274,1,0,0:0:0:0:
256,192,55274,1,0,0:0:0:0:
329,192,55440,1,0,0:0:0:0:
475,192,55440,1,0,0:0:0:0:
109,192,55607,1,0,0:0:0:0:
36,192,55607,128,0,56107:0:0:0:0:
402,192,55607,1,0,0:0:0:0:
256,192,55607,1,0,0:0:0:0:
475,192,56107,1,8,0:0:0:0:
182,192,56107,1,0,0:0:0:0:
256,192,56190,1,0,0:0:0:0:
329,192,56274,1,0,0:0:0:0:
402,192,56357,1,0,0:0:0:0:
475,192,56440,128,4,56774:0:0:0:0:
256,192,56774,1,8,0:0:0:0:
36,192,56774,128,0,56940:0:0:0:0:
329,192,56940,1,0,0:0:0:0:
109,192,56940,128,0,57274:0:0:0:0:
402,192,57274,1,0,0:0:0:0:
182,192,57274,128,0,57440:0:0:0:0:
475,192,57440,1,8,0:0:0:0:
256,192,57440,128,0,57774:0:0:0:0:
109,192,57774,1,0,0:0:0:0:
402,192,57774,1,0,0:0:0:0:
329,192,57940,1,0,0:0:0:0:
182,192,57940,1,0,0:0:0:0:
256,192,58107,1,8,0:0:0:0:
475,192,58107,128,0,58440:0:0:0:0:
182,192,58274,1,0,0:0:0:0:
109,192,58357,1,0,0:0:0:0:
402,192,58440,128,0,58774:0:0:0:0:
36,192,58440,1,0,0:0:0:0:
109,192,58607,1,0,0:0:0:0:
256,192,58774,1,8,0:0:0:0:
329,192,58774,128,0,59107:0:0:0:0:
109,192,58940,1,0,0:0:0:0:
36,192,59107,1,0,0:0:0:0:
182,192,59107,1,0,0:0:0:0:
475,192,59107,1,0,0:0:0:0:
109,192,59274,1,0,0:0:0:0:
182,192,59440,1,8,0:0:0:0:
329,192,59440,1,0,0:0:0:0:
256,192,59607,1,0,0:0:0:0:
256,192,59774,1,0,0:0:0:0:
402,192,59940,128,0,60107:0:0:0:0:
109,192,59940,128,0,60107:0:0:0:0:
329,192,60107,1,8,0:0:0:0:
182,192,60107,1,0,0:0:0:0:
475,192,60107,1,0,0:0:0:0:
256,192,60274,1,0,0:0:0:0:
475,192,60440,128,0,60774:0:0:0:0:
109,192,60440,1,0,0:0:0:0:
329,192,60440,1,0,0:0:0:0:
182,192,60607,1,0,0:0:0:0:
402,192,60607,1,0,0:0:0:0:
36,192,60774,128,8,61607:0:0:0:0:
109,192,60774,1,0,0:0:0:0:
329,192,60774,1,0,0:0:0:0:
256,192,60940,1,0,0:0:0:0:
182,192,61274,1,0,0:0:0:0:
329,192,61274,1,0,0:0:0:0:
109,192,61440,1,8,0:0:0:0:
256,192,61440,1,0,0:0:0:0:
329,192,61607,1,0,0:0:0:0:
402,192,61607,128,0,62107:0:0:0:0:
182,192,61607,1,0,0:0:0:0:
182,192,61940,128,0,62107:0:0:0:0:
256,192,62107,1,8,0:0:0:0:
36,192,62107,1,0,0:0:0:0:
475,192,62107,1,0,0:0:0:0:
329,192,62274,1,0,0:0:0:0:
256,192,62357,1,0,0:0:0:0:
109,192,62440,128,0,62774:0:0:0:0:
36,192,62440,1,0,0:0:0:0:
256,192,62774,128,8,63107:0:0:0:0:
475,192,62774,1,0,0:0:0:0:
402,192,63107,128,0,63774:0:0:0:0:
182,192,63107,128,0,63440:0:0:0:0:
36,192,63440,1,8,0:0:0:0:
329,192,63607,1,0,0:0:0:0:
36,192,63607,1,0,0:0:0:0:
256,192,63690,1,0,0:0:0:0:
182,192,63774,1,0,0:0:0:0:
329,192,63774,128,0,64440:0:0:0:0:
109,192,64107,1,8,0:0:0:0:
402,192,64190,1,0,0:0:0:0:
182,192,64274,1,0,0:0:0:0:
36,192,64440,128,0,64774:0:0:0:0:
256,192,64440,128,0,64774:0:0:0:0:
329,192,64774,1,8,0:0:0:0:
109,192,64774,128,0,65107:0:0:0:0:
475,192,64774,1,0,0:0:0:0:
402,192,64940,1,0,0:0:0:0:
182,192,65107,128,0,65440:0:0:0:0:
329,192,65107,128,0,65440:0:0:0:0:
402,192,65440,1,8,0:0:0:0:
256,192,65440,1,0,0:0:0:0:
109,192,65440,1,0,0:0:0:0:
109,192,65774,128,0,66024:0:0:0:0:
329,192,65774,1,0,0:0:0:0:
475,192,65774,1,0,0:0:0:0:
36,192,66024,128,0,66274:0:0:0:0:
402,192,66024,1,0,0:0:0:0:
256,192,66024,1,0,0:0:0:0:
329,192,66274,1,0,0:0:0:0:
182,192,66274,1,0,0:0:0:0:
402,192,66440,1,0,0:0:0:0:
256,192,66440,1,0,0:0:0:0:
109,192,66440,1,0,0:0:0:0:
182,192,66524,1,0,0:0:0:0:
256,192,66607,1,0,0:0:0:0:
329,192,66690,1,0,0:0:0:0:
256,192,66774,1,8,0:0:0:0:
402,192,66774,128,0,67107:0:0:0:0:
182,192,66857,1,0,0:0:0:0:
109,192,66940,1,0,0:0:0:0:
36,192,67024,1,0,0:0:0:0:
109,192,67107,128,4,67440:0:0:0:0:
256,192,67107,1,0,0:0:0:0:
329,192,67440,1,8,0:0:0:0:
182,192,67440,1,0,0:0:0:0:
256,192,67607,128,0,67940:0:0:0:0:
36,192,67774,1,0,0:0:0:0:
329,192,67940,1,0,0:0:0:0:
36,192,68107,1,8,0:0:0:0:
182,192,68107,1,0,0:0:0:0:
475,192,68107,128,0,68774:0:0:0:0:
109,192,68440,1,0,0:0:0:0:
182,192,68774,1,8,0:0:0:0:
329,192,68774,128,0,69107:0:0:0:0:
36,192,68774,1,0,0:0:0:0:
109,192,69107,1,0,0:0:0:0:
402,192,69107,128,0,69440:0:0:0:0:
36,192,69440,1,8,0:0:0:0:
329,192,69440,128,0,69774:0:0:0:0:
182,192,69440,1,0,0:0:0:0:
475,192,69774,128,0,70440:0:0:0:0:
256,192,69774,1,0,0:0:0:0:
402,192,70107,1,8,0:0:0:0:
256,192,70107,1,0,0:0:0:0:
182,192,70274,1,0,0:0:0:0:
109,192,70357,1,0,0:0:0:0:
402,192,70440,128,0,71107:0:0:0:0:
36,192,70440,1,0,0:0:0:0:
182,192,70607,1,0,0:0:0:0:
109,192,70774,1,8,0:0:0:0:
256,192,70774,1,0,0:0:0:0:
182,192,70940,1,0,0:0:0:0:
36,192,71107,1,0,0:0:0:0:
256,192,71107,1,0,0:0:0:0:
109,192,71107,128,0,71440:0:0:0:0:
329,192,71274,1,0,0:0:0:0:
402,192,71440,1,8,0:0:0:0:
182,192,71440,128,0,71607:0:0:0:0:
475,192,71607,128,0,71940:0:0:0:0:
256,192,71607,128,0,71940:0:0:0:0:
182,192,71940,1,0,0:0:0:0:
329,192,71940,128,0,72107:0:0:0:0:
109,192,72107,1,8,0:0:0:0:
402,192,72107,128,0,72274:0:0:0:0:
36,192,72274,1,0,0:0:0:0:
475,192,72274,128,0,73107:0:0:0:0:
256,192,72440,1,0,0:0:0:0:
402,192,72774,1,8,0:0:0:0:
329,192,72774,1,0,0:0:0:0:
256,192,72940,1,0,0:0:0:0:
182,192,73024,1,0,0:0:0:0:
109,192,73107,1,0,0:0:0:0:
256,192,73107,128,0,73440:0:0:0:0:
36,192,73274,1,0,0:0:0:0:
109,192,73440,1,8,0:0:0:0:
329,192,73440,128,0,73774:0:0:0:0:
182,192,73607,1,0,0:0:0:0:
256,192,73774,1,0,0:0:0:0:
402,192,73774,128,0,74440:0:0:0:0:
109,192,73940,1,0,0:0:0:0:
182,192,74107,1,8,0:0:0:0:
36,192,74274,1,0,0:0:0:0:
109,192,74440,1,0,0:0:0:0:
329,192,74440,128,0,74774:0:0:0:0:
182,192,74607,1,0,0:0:0:0:
36,192,74774,1,8,0:0:0:0:
256,192,74774,128,0,74940:0:0:0:0:
109,192,74940,1,0,0:0:0:0:
329,192,74940,128,0,76440:0:0:0:0:
36,192,75107,1,0,0:0:0:0:
475,192,75107,1,0,0:0:0:0:
256,192,75274,1,0,0:0:0:0:
402,192,75440,1,8,0:0:0:0:
109,192,75440,1,0,0:0:0:0:
256,192,75607,1,0,0:0:0:0:
36,192,75774,1,0,0:0:0:0:
475,192,75774,1,0,0:0:0:0:
256,192,75940,1,0,0:0:0:0:
402,192,76107,1,0,0:0:0:0:
109,192,76107,1,8,0:0:0:0:
256,192,76274,1,0,0:0:0:0:
182,192,76440,1,0,0:0:0:0:
36,192,76440,1,0,0:0:0:0:
402,192,76440,128,0,76607:0:0:0:0:
109,192,76607,1,0,0:0:0:0:
256,192,76607,128,0,76940:0:0:0:0:
36,192,76940,1,0,0:0:0:0:
182,192,76940,1,0,0:0:0:0:
329,192,76940,128,0,77107:0:0:0:0:
109,192,77107,1,0,0:0:0:0:
402,192,77107,128,0,77440:0:0:0:0:
36,192,77440,1,8,0:0:0:0:
475,192,77440,1,0,0:0:0:0:
109,192,77524,1,0,0:0:0:0:
402,192,77524,1,0,0:0:0:0:
182,192,77607,1,0,0:0:0:0:
329,192,77607,1,0,0:0:0:0:
256,192,77690,1,0,0:0:0:0:
329,192,77774,1,4,0:0:0:0:
475,192,77774,128,0,79107:0:0:0:0:
109,192,78107,1,8,0:0:0:0:
256,192,78107,1,0,0:0:0:0:
182,192,78440,1,0,0:0:0:0:
109,192,78774,1,8,0:0:0:0:
329,192,78774,1,0,0:0:0:0:
256,192,79107,1,0,0:0:0:0:
402,192,79107,128,0,80440:0:0:0:0:
182,192,79274,1,0,0:0:0:0:
182,192,79440,1,8,0:0:0:0:
36,192,79440,1,0,0:0:0:0:
329,192,79607,1,0,0:0:0:0:
256,192,79690,1,0,0:0:0:0:
182,192,79774,1,0,0:0:0:0:
109,192,79774,1,0,0:0:0:0:
36,192,79940,1,0,0:0:0:0:
109,192,80107,1,8,0:0:0:0:
182,192,80107,1,0,0:0:0:0:
36,192,80274,1,0,0:0:0:0:
256,192,80274,1,0,0:0:0:0:
329,192,80440,1,0,0:0:0:0:
109,192,80440,1,0,0:0:0:0:
475,192,80440,128,0,81107:0:0:0:0:
182,192,80774,1,8,0:0:0:0:
402,192,80774,1,0,0:0:0:0:
402,192,81107,128,0,81774:0:0:0:0:
36,192,81107,128,0,81440:0:0:0:0:
109,192,81107,1,0,0:0:0:0:
182,192,81440,128,0,81774:0:0:0:0:
256,192,81440,1,0,0:0:0:0:
329,192,81440,1,8,0:0:0:0:
475,192,81774,1,0,0:0:0:0:
109,192,81774,128,0,81940:0:0:0:0:
329,192,81940,1,0,0:0:0:0:
36,192,81940,128,0,82107:0:0:0:0:
475,192,82107,1,0,0:0:0:0:
402,192,82107,1,0,0:0:0:0:
109,192,82107,128,0,82274:0:0:0:0:
256,192,82274,1,0,0:0:0:0:
182,192,82274,128,0,82607:0:0:0:0:
329,192,82274,1,0,0:0:0:0:
256,192,82607,1,0,0:0:0:0:
402,192,82774,1,8,0:0:0:0:
475,192,82774,1,0,0:0:0:0:
109,192,82774,1,0,0:0:0:0:
36,192,82774,1,0,0:0:0:0:
256,192,82940,1,0,0:0:0:0:
329,192,83107,1,0,0:0:0:0:
475,192,83107,1,0,0:0:0:0:
256,192,83440,1,0,0:0:0:0:
402,192,83440,1,0,0:0:0:0:
182,192,83774,1,0,0:0:0:0:
329,192,83774,1,0,0:0:0:0:
475,192,84107,1,8,0:0:0:0:
402,192,84107,1,0,0:0:0:0:
36,192,84107,1,0,0:0:0:0:
109,192,84107,1,0,0:0:0:0:
256,192,84274,128,0,84607:0:0:0:0:
36,192,84607,1,0,0:0:0:0:
475,192,84607,1,0,0:0:0:0:
329,192,84607,1,0,0:0:0:0:
182,192,84607,1,0,0:0:0:0:
109,192,84774,1,0,0:0:0:0:
475,192,84774,1,0,0:0:0:0:
36,192,84774,1,0,0:0:0:0:
402,192,84774,1,0,0:0:0:0:
475,192,85440,1,0,0:0:0:0:
329,192,85440,1,0,0:0:0:0:
109,192,85440,128,0,85774:0:0:0:0:
475,192,85774,1,0,0:0:0:0:
36,192,85774,1,0,0:0:0:0:
182,192,85774,128,0,86774:0:0:0:0:
402,192,85857,1,0,0:0:0:0:
329,192,85940,1,0,0:0:0:0:
256,192,86024,1,0,0:0:0:0:
109,192,86107,1,8,0:0:0:0:
36,192,86190,1,0,0:0:0:0:
109,192,86274,1,0,0:0:0:0:
256,192,86357,1,0,0:0:0:0:
329,192,86440,1,0,0:0:0:0:
402,192,86524,1,0,0:0:0:0:
475,192,86607,1,0,0:0:0:0:
402,192,86690,1,0,0:0:0:0:
36,192,86774,1,0,0:0:0:0:
329,192,86774,1,0,0:0:0:0:
256,192,86940,128,0,88440:0:0:0:0:
402,192,86940,128,0,88440:0:0:0:0:
109,192,86940,128,0,88440:0:0:0:0:
