osu file format v9

[General]
AudioFilename: SUPER STREAM.mp3
AudioLeadIn: 1000
PreviewTime: 56526
Countdown: 0
SampleSet: Normal
StackLeniency: 0.7
Mode: 1
LetterboxInBreaks: 1

[Editor]
DistanceSpacing: 1
BeatDivisor: 4
GridSize: 4

[Metadata]
Title:SUPER STREAM
Artist:Infinite Stratos Cast
Creator:KanaRin
Version:Taiko Oni
Source:Infinite Stratos
Tags:is shinonono houki seshiria orukotto fan rinin sharurotto dunoa raura boudevihhi Hikasa Youko Yukana Shimoda Asami Hanazawa Kana Inoue Marina kanpakyin karenying aesopl19193 Rucker disoy

[Difficulty]
HPDrainRate:5
CircleSize:5
OverallDifficulty:5
ApproachRate:5
SliderMultiplier:1.4
SliderTickRate:1

[Events]
//Background and Video events
0,0,"taikO.jpg"
//Break Periods
//Storyboard Layer 0 (Background)
//Storyboard Layer 1 (Fail)
//Storyboard Layer 2 (Pass)
//Storyboard Layer 3 (Foreground)
//Storyboard Sound Samples
//Background Colour Transformations
3,100,163,162,255

[TimingPoints]
693,333.333333333333,4,1,1,90,1,0
56692,-100,4,1,1,90,0,1
86026,-100,4,1,1,90,0,0

[Colours]
Combo1 : 255,128,128
Combo2 : 128,255,255
Combo3 : 255,255,128

[HitObjects]
272,200,1526,1,0
272,200,1610,1,0
272,200,1693,1,8
272,200,2026,1,4
100,148,2360,1,2
272,200,2693,1,8
100,152,3026,1,2
272,200,3359,1,0
120,104,3693,1,8
208,128,3859,1,8
192,112,4026,1,0
192,112,4110,1,8
192,136,4193,1,0
328,296,4360,1,8
328,320,4526,1,8
328,320,4693,1,4
328,320,5026,1,8
328,320,5359,1,4
328,320,5693,1,8
348,140,6026,1,0
348,140,6193,1,0
376,224,6359,1,8
364,116,6526,1,0
364,116,6610,1,8
364,116,6693,1,0
254,181,6776,1,8
320,104,6859,1,0
348,140,7026,1,8
348,140,7109,1,8
364,180,7193,1,8
348,140,7359,1,12
328,320,7693,1,6
344,296,8026,1,12
264,248,8359,1,0
224,224,8526,1,12
296,296,8860,1,0
224,224,9026,1,0
234,129,10026,1,8
193,215,10193,1,0
153,191,10359,1,8
56,75,10526,1,0
193,215,10693,1,8
193,215,10776,1,8
193,215,10859,1,0
193,215,10943,1,0
193,215,11026,1,8
169,207,11109,1,8
145,199,11193,1,0
136,229,11359,1,12
169,207,11693,1,8
169,207,12026,1,0
169,207,12193,1,0
169,207,12276,1,0
169,207,12360,1,8
169,207,12526,1,0
160,195,12860,1,0
193,247,13026,1,8
344,336,13193,1,0
236,273,13276,1,0
328,320,13360,1,0
328,320,13526,1,0
328,320,13693,1,8
280,264,13860,1,0
236,273,14193,1,0
328,320,14360,1,8
328,320,14526,1,0
328,320,14610,1,8
328,320,14693,1,0
328,320,14860,1,0
328,320,15026,1,0
328,320,15193,1,2
328,320,15360,1,0
320,288,15526,1,2
320,288,15693,1,0
320,288,15860,1,2
225,247,15943,1,0
320,288,16026,1,0
320,240,16193,1,8
328,320,16360,1,8
328,320,16526,1,0
328,320,16610,1,0
328,320,16693,1,8
328,320,17026,1,8
328,320,17360,1,8
328,320,17526,1,0
328,320,17693,1,8
328,320,17860,1,0
264,264,18193,1,0
328,320,18360,1,8
264,264,18693,1,12
264,264,18860,1,12
264,264,19193,1,12
264,264,19526,1,0
288,304,19693,1,8
336,296,19859,1,0
312,304,19943,1,0
312,304,20026,1,8
344,336,20109,1,8
344,336,20193,1,0
328,320,20276,1,0
312,304,20359,1,8
328,320,20526,1,12
328,320,20859,1,12
288,232,21193,1,4
288,232,21359,1,4
288,232,21693,1,8
344,304,22026,1,0
288,232,22359,1,2
312,264,22526,1,0
288,232,22693,1,2
312,272,22859,1,0
288,232,22943,1,0
296,232,23026,1,0
312,272,23193,1,0
312,264,23359,1,8
264,192,23693,1,0
264,192,23859,1,8
264,192,24026,1,2
264,192,24359,1,8
264,192,24526,1,0
264,192,24693,1,2
264,192,24859,1,0
200,189,24943,1,0
264,192,25026,1,8
264,192,25193,1,0
264,192,25359,1,8
264,192,25526,1,0
264,192,25693,1,8
298,194,25776,1,0
264,192,25859,1,8
264,192,26026,1,0
288,152,26193,1,8
320,112,26359,1,0
344,182,26443,1,0
288,160,26526,1,8
264,192,26693,1,8
320,112,27026,1,8
188,108,27360,1,6
188,108,27526,1,0
188,108,27693,1,2
188,108,27860,1,0
188,108,28026,1,2
188,108,28193,1,0
188,108,28360,1,2
188,108,28693,1,0
188,108,28860,1,0
188,108,29026,1,2
188,108,29193,1,0
188,108,29360,1,2
188,108,29526,1,0
188,108,29693,1,2
188,108,30026,1,0
188,108,30193,1,0
212,128,30276,1,0
188,108,30360,1,8
188,108,30526,1,0
188,108,30693,1,2
188,108,30860,1,2
168,132,30943,1,2
188,108,31026,1,2
188,108,31193,1,0
188,108,31360,1,6
188,108,31526,1,6
188,108,31693,1,4
188,108,31860,1,6
140,228,32192,1,2
140,228,32276,1,2
140,228,32360,1,0
140,228,32442,1,0
120,252,32526,1,2
140,228,32610,1,2
140,228,32692,1,0
188,108,33026,1,2
188,108,33193,1,0
188,108,33360,1,2
156,120,33443,1,2
188,108,33526,1,2
188,108,33693,1,0
168,132,33776,1,0
188,108,33860,1,0
188,108,34026,1,2
188,108,34193,1,0
188,108,34360,1,2
188,108,34443,1,0
156,108,34526,1,2
188,108,34693,1,0
188,108,34860,1,0
188,108,35026,1,2
188,108,35193,1,0
188,108,35360,1,2
188,108,35443,1,2
128,136,35610,1,0
188,108,35693,1,2
188,108,35860,1,0
188,108,36193,1,0
188,108,36360,1,2
188,108,36526,1,0
124,124,36693,1,0
128,136,36776,1,0
188,108,36860,1,0
160,120,36943,1,0
188,108,37026,1,2
188,108,37193,1,0
188,108,37360,1,0
188,108,37693,1,6
188,108,37860,1,0
188,108,38026,1,2
168,172,38193,1,0
176,200,38276,1,0
188,108,38360,1,2
188,108,38526,1,0
188,108,38693,1,2
188,108,38860,1,0
168,172,38943,1,0
188,108,39026,1,2
188,108,39193,1,2
168,172,39360,1,0
204,184,39526,1,0
188,108,39693,1,2
204,184,39776,1,0
188,108,39860,1,0
188,108,40026,1,0
112,180,40109,1,0
188,108,40192,1,2
188,108,40359,1,0
168,172,40443,1,0
188,108,40526,1,2
188,108,40693,1,2
188,108,40860,1,0
188,108,41026,1,2
188,108,41193,1,0
188,108,41360,1,2
188,108,41526,1,2
188,108,41693,1,0
188,108,41860,1,2
188,108,42193,1,0
188,108,42360,1,2
188,108,42526,1,0
188,108,42693,1,6
188,108,42860,1,6
188,108,43193,1,2
188,108,43526,1,0
188,108,43693,1,2
188,108,43860,1,0
188,108,44026,1,2
164,196,44110,1,2
188,108,44193,1,0
188,108,44360,1,2
188,108,44526,1,0
88,160,44610,1,0
188,108,44693,1,2
188,108,44860,1,0
188,108,45026,1,2
88,160,45110,1,0
188,108,45193,1,0
188,108,45360,1,2
188,108,45526,1,0
188,108,45693,1,2
192,204,45776,1,0
188,108,45860,1,0
188,108,46026,1,2
188,108,46360,1,0
188,108,46526,1,0
188,108,46693,1,2
236,208,46776,1,2
188,108,46860,1,0
188,108,47026,1,2
236,208,47110,1,0
188,108,47193,1,0
188,108,47360,1,6
188,108,47526,1,0
188,108,47692,1,2
188,108,47860,1,6
188,108,48193,1,0
188,108,48360,1,2
188,108,48526,1,0
188,108,48693,1,0
188,172,48776,1,0
188,108,48860,1,2
188,108,49026,1,2
208,188,49110,1,2
188,108,49193,1,2
188,108,49360,1,2
188,108,49526,1,0
188,108,49860,1,2
188,108,50026,1,0
188,108,50193,1,2
168,152,50276,1,2
188,108,50360,1,0
72,168,50443,1,0
188,108,50526,1,2
188,108,50693,1,6
188,108,50860,1,4
188,108,51026,1,6
0,0,51193,2,0,B|496:348,1,595
164,172,53193,1,2
188,108,53360,1,2
188,108,53526,1,2
188,108,53693,1,0
44,68,53860,2,0,B|444:296,1,455
188,108,55360,1,6
188,108,55526,1,6
188,108,55693,1,6
188,108,55860,1,6
188,108,56193,1,0
188,108,56360,1,2
188,108,56526,1,0
188,108,56693,1,0
200,160,56860,1,2
200,160,56943,1,2
188,108,57026,1,2
188,108,57193,1,2
120,176,57360,1,0
188,108,57526,1,2
200,160,57610,1,0
188,108,57693,1,2
188,108,57860,1,0
188,108,58026,1,2
188,108,58193,1,0
160,160,58276,1,0
188,108,58360,1,2
188,108,58526,1,0
188,108,58693,1,2
188,108,58860,1,0
188,108,59026,1,2
68,156,59110,1,2
188,108,59193,1,0
188,108,59360,1,0
140,176,59443,1,0
188,108,59526,1,0
68,156,59610,1,0
188,108,59693,1,2
188,108,59860,1,0
188,108,60026,1,2
188,108,60360,1,2
188,108,60526,1,2
188,108,60693,1,4
188,108,60860,1,6
188,108,61026,1,4
188,108,61193,1,6
188,108,61526,1,2
188,108,61693,1,2
188,108,61860,1,2
188,108,62026,1,0
188,108,62193,1,0
188,108,62360,1,2
188,108,62693,1,2
188,108,62860,1,0
188,108,63026,1,2
104,204,63110,1,2
188,108,63193,1,0
188,108,63360,1,2
188,108,63526,1,0
144,160,63610,1,0
188,108,63693,1,2
188,108,63860,1,2
188,108,64360,1,0
188,108,64526,1,0
188,108,64693,1,6
188,108,65026,1,2
188,108,65193,1,0
188,108,65360,1,6
136,152,65693,1,2
188,108,65860,1,0
188,108,66026,1,6
64,152,66276,1,4
64,152,66526,1,0
188,108,66610,1,0
188,108,66693,1,2
188,108,66860,1,2
176,176,66943,1,0
188,108,67026,1,2
176,176,67110,1,0
188,108,67193,1,2
188,108,67360,1,2
188,108,67526,1,0
188,108,67693,1,2
196,160,67776,1,2
188,108,67860,1,2
188,108,68026,1,0
188,108,68193,1,2
188,108,68360,1,2
196,160,68443,1,2
188,108,68526,1,2
188,108,68693,1,0
188,108,68860,1,0
188,108,69026,1,2
112,144,69110,1,0
188,108,69276,1,0
188,108,69360,1,2
188,108,69526,1,0
112,144,69610,1,0
188,108,69693,1,2
188,108,69860,1,0
172,172,70026,1,0
96,208,70192,1,0
172,172,70276,1,0
172,172,70360,1,2
188,108,70526,1,0
188,108,70693,1,2
188,108,71026,1,2
188,108,71193,1,0
188,108,71360,1,6
188,108,71526,1,0
188,108,71693,1,2
188,108,71860,1,6
188,108,72193,1,0
188,108,72360,1,2
188,108,72526,1,0
188,108,72693,1,0
176,188,72776,1,0
188,108,72860,1,0
176,188,72943,1,0
188,108,73026,1,2
188,108,73193,1,0
188,108,73360,1,2
72,168,73526,1,0
188,108,73610,1,0
188,108,73693,1,2
188,108,73860,1,0
188,108,74026,1,0
152,172,74110,1,0
188,108,74193,1,0
188,108,74360,1,2
204,184,74443,1,2
188,108,74526,1,0
188,108,74693,1,2
188,108,75026,1,2
188,108,75193,1,0
188,108,75360,1,2
188,164,75443,1,0
152,172,75526,1,0
188,108,75610,1,0
188,108,75693,1,2
188,108,75860,1,0
188,108,76026,1,2
128,156,76110,1,0
188,108,76193,1,2
188,108,76360,1,2
188,108,76526,1,2
188,108,76693,1,6
188,108,76943,1,6
188,108,77193,1,0
128,156,77276,1,0
188,108,77360,1,2
188,108,77526,1,2
128,156,77610,1,0
188,108,77693,1,2
188,108,77776,1,0
188,108,77860,1,2
128,156,78026,1,4
188,108,78193,1,0
264,168,78276,1,0
188,108,78360,1,2
188,108,78526,1,0
188,108,78693,1,2
184,172,78776,1,2
188,108,78860,1,0
188,108,79026,1,2
188,108,79193,1,0
188,108,79360,1,0
192,144,79443,1,0
188,108,79526,1,0
184,172,79610,1,0
188,108,79693,1,2
188,108,79860,1,0
188,108,80026,1,2
188,108,80193,1,0
152,156,80276,1,0
188,108,80360,1,2
188,108,80526,1,0
132,180,80693,1,2
188,108,80860,1,0
188,108,81026,1,2
188,108,81360,1,0
188,108,81526,1,0
188,108,81693,1,2
188,108,82026,1,6
188,108,82193,1,0
188,108,82360,1,0
188,108,82526,1,4
188,108,82693,1,2
160,176,82776,1,2
188,108,82860,1,2
188,108,83026,1,0
132,164,83193,1,0
188,108,83360,1,4
188,108,83693,1,6
188,108,84026,1,4
204,156,84360,1,0
188,108,84526,1,2
188,108,84860,1,2
188,108,85026,1,0
188,108,85193,1,2
188,108,85360,1,2
196,184,85693,1,0
196,184,85860,1,0
168,172,86026,1,2
