osu file format v9

[General]
AudioFilename: SUPER STREAM.mp3
AudioLeadIn: 1000
PreviewTime: 56526
Countdown: 0
SampleSet: Soft
StackLeniency: 0.7
Mode: 0
LetterboxInBreaks: 1

[Editor]
DistanceSpacing: 0.8
BeatDivisor: 4
GridSize: 8

[Metadata]
Title:SUPER STREAM
Artist:Infinite Stratos Cast
Creator:KanaRin
Version:Easy
Source:Infinite Stratos
Tags:is shinonono houki seshiria orukotto fan rinin sharurotto dunoa raura boudevihhi Hikasa Youko Yukana Shimoda Asami Hanazawa Kana Inoue Marina kanpakyin karenying aesopl19193 Rucker disoy

[Difficulty]
HPDrainRate:2
CircleSize:3
OverallDifficulty:2
ApproachRate:2
SliderMultiplier:0.8
SliderTickRate:1

[Events]
//Background and Video events
0,0,"BG.jpg"
//Break Periods
2,87560,95132
2,162226,164466
2,171392,177799
//Storyboard Layer 0 (Background)
//Storyboard Layer 1 (Fail)
//Storyboard Layer 2 (Pass)
//Storyboard Layer 3 (Foreground)
//Storyboard Sound Samples
//Background Colour Transformations
3,100,163,162,255

[TimingPoints]
693,333.333333333333,4,2,1,90,1,0
56692,-100,4,2,1,90,0,1
87276,-100,4,2,1,90,0,0
96692,-100,4,2,1,90,0,0
131359,-100,4,2,1,90,0,1
162026,-100,4,2,1,5,0,0
166026,-100,4,2,1,90,0,0
190359,-100,4,2,1,90,0,1
215359,-100,4,2,1,90,0,0

[Colours]
Combo1 : 255,128,128
Combo2 : 128,255,255
Combo3 : 255,255,128

[HitObjects]
192,88,2026,5,4
448,88,3360,1,0
312,304,4693,1,4
184,304,5359,1,4
56,304,6026,1,4
192,88,7360,6,0,B|272:80|352:88,1,160,2|8
256,192,8526,12,0,10026
96,104,11360,6,0,B|176:88|264:96,1,160,4|0
232,192,12526,2,0,B|320:224|432:224,1,200,0|0
384,312,13860,2,0,B|288:312|184:336,1,200,0|0
96,312,15193,1,2
112,248,15526,1,2
64,200,15860,1,2
80,136,16193,1,2
168,88,16693,6,0,B|240:72|328:80,1,160,4|0
288,168,17860,2,0,B|352:232|464:264,1,200
256,192,19193,12,4,20526
96,152,22026,6,0,B|176:136|256:144,1,160,4|0
272,272,23360,2,0,B|352:288|432:280,1,160
480,160,24693,1,2
352,160,25360,1,0
272,64,26026,1,2
144,64,26693,1,0
40,136,27360,6,0,B|72:208|56:296,1,160,4|0
176,256,28693,2,0,B|224:320|304:352,1,160
408,280,30026,1,2
408,144,30693,1,0
296,200,31360,2,0,B|176:200,1,120,4|0
240,56,32693,6,0,B|320:32|400:56,1,160,4|0
448,176,34026,2,0,B|472:264|408:328,1,160
304,256,35360,2,0,B|144:256,2,160,2|0|0
256,136,37360,5,0
144,80,38026,2,0,B|88:128|64:216,1,160,4|0
128,328,39360,2,0,B|208:360|288:344,1,160
264,216,40693,1,2
392,216,41360,2,0,B|512:216,1,120,2|0
440,72,42693,5,4
344,64,43193,2,0,B|248:56|144:64,1,200,4|0
112,184,44693,2,0,B|120:272|160:336,1,160
256,248,46026,1,2
352,336,46693,1,0
472,280,47360,2,0,B|472:160,1,120,4|2
344,72,48693,6,0,B|264:80|184:72,1,160,4|0
80,152,50026,2,0,B|64:232|80:312,1,160,0|4
256,192,51193,12,4,52693
256,192,53360,5,4
256,192,53860,12,4,55860
160,112,56693,5,4
88,216,57360,1,0
216,208,58026,2,0,B|384:208,1,160,0|0
488,264,59360,5,4
400,360,60026,1,0
280,312,60693,2,0,B|152:312,1,120,4|0
32,312,61860,1,4
80,160,62693,5,0
200,104,63360,1,0
328,80,64026,1,0
456,88,64693,5,4
456,216,65360,1,4
368,312,66026,2,0,B|288:328|208:328,1,160,4|4
208,200,67360,5,4
104,128,68026,1,0
224,80,68693,2,0,B|304:56|384:80,1,160,0|0
480,160,70026,5,4
432,280,70693,1,0
320,216,71360,2,0,B|256:208|192:216,1,120,4|4
72,240,72526,1,4
96,80,73360,5,0
200,8,74026,1,2
208,136,74693,1,0
336,136,75360,1,0
456,184,76026,1,0
360,264,76693,2,0,B|280:264|200:264,1,160,4|4
72,264,78026,5,4
112,144,78693,1,0
216,64,79360,1,4
344,40,80026,1,0
456,96,80693,2,0,B|488:176|480:256,1,160,4|0
368,312,82026,2,0,B|248:312,1,120,4|4
328,176,83360,5,4
264,176,83693,1,0
200,176,84026,1,0
256,192,84526,12,0,87360
416,232,96692,6,0,B|336:248|256:240,1,160,4|0
240,112,98026,2,0,B|160:96|80:104,1,160
32,224,99359,1,4
160,224,100026,1,0
240,320,100692,1,2
368,320,101359,1,0
472,248,102026,6,0,B|440:176|456:88,1,160,4|0
336,128,103359,2,0,B|288:64|208:32,1,160,4|0
104,104,104692,1,4
104,240,105359,1,0
216,184,106026,2,0,B|336:184,1,120,4|0
272,328,107359,6,0,B|192:352|112:328,1,160,4|0
64,208,108692,2,0,B|40:120|104:56,1,160
208,128,110026,2,0,B|368:128,2,160,2|0|0
256,248,112026,5,0
368,304,112692,2,0,B|424:256|448:168,1,160,4|0
384,56,114026,2,0,B|304:24|224:40,1,160
248,168,115359,1,4
120,168,116026,2,0,B|0:168,1,120,2|0
72,312,117359,5,4
168,320,117859,2,0,B|264:328|368:320,1,200,4|0
400,200,119359,2,0,B|392:112|352:48,1,160
256,136,120692,1,2
160,48,121359,1,0
40,104,122026,2,0,B|40:224,1,120,4|2
168,312,123359,6,0,B|248:304|328:312,1,160,4|0
432,232,124692,2,0,B|448:152|432:72,1,160,0|4
256,192,125859,12,4,127359
256,192,128026,5,4
256,192,128526,12,4,130526
352,272,131359,5,4
424,168,132026,1,0
296,152,132692,2,0,B|128:152,1,160,0|0
24,120,134026,5,4
112,24,134692,1,0
232,72,135359,2,0,B|360:72,1,120,4|0
480,72,136526,1,4
432,224,137359,5,0
312,280,138026,1,0
184,304,138692,1,0
56,296,139359,5,4
56,168,140026,1,4
144,72,140692,2,0,B|224:56|304:56,1,160,4|4
304,184,142026,5,4
408,256,142692,1,0
288,304,143359,2,0,B|208:328|128:304,1,160,0|0
32,224,144692,5,4
80,104,145359,1,0
192,168,146026,2,0,B|256:176|320:168,1,120,4|4
440,144,147192,1,4
416,304,148026,5,0
312,376,148692,1,2
304,248,149359,1,0
176,248,150026,1,0
56,200,150692,1,0
152,120,151359,2,0,B|232:120|312:120,1,160,4|4
440,120,152692,5,4
400,240,153359,1,0
296,320,154026,1,4
168,344,154692,1,0
56,288,155359,2,0,B|24:208|32:128,1,160,4|0
144,72,156692,2,0,B|264:72,1,120,4|4
184,208,158026,5,4
248,208,158359,1,0
312,208,158692,1,0
256,192,159192,12,0,162026
280,56,166026,6,0,B|336:112|344:208,1,160,4|0
216,184,167359,2,0,B|160:240|152:336,1,160
280,328,168692,2,0,B|355:351|444:313,1,160
256,192,170026,12,4,171192
256,192,179359,12,0,180692
256,192,181359,12,4,183859
256,192,184692,5,4
256,192,186359,1,4
256,192,187359,6,4,B|256:360,1,160
256,192,188692,12,4,189858
352,272,190692,5,4
424,168,191359,1,0
296,160,192025,2,0,B|224:312,1,160,0|4
152,200,193359,5,4
176,72,194025,1,4
304,80,194692,1,4
300,212,195360,5,4
346,330,196026,1,0
219,302,196693,2,0,B|140:277|87:213,1,160,0|0
52,93,198026,5,4
159,20,198693,1,0
216,136,199360,2,0,B|264:178|322:207,1,120,4|4
435,255,200526,1,4
326,374,201360,5,0
199,375,202026,1,2
264,265,202693,1,0
158,193,203360,1,0
85,86,204026,1,0
210,74,204693,2,0,B|276:118|342:163,1,160,4|4
448,235,206026,5,4
348,312,206693,1,0
217,320,207360,1,4
98,268,208026,1,0
36,159,208693,2,0,B|54:75|106:13,1,160,4|0
230,29,210026,2,0,B|329:96,1,120,4|4
187,165,211360,5,4
240,200,211693,1,4
293,236,212026,1,4
256,192,212526,12,4,215360
