osu file format v9

[General]
AudioFilename: SUPER STREAM.mp3
AudioLeadIn: 1000
PreviewTime: 56526
Countdown: 0
SampleSet: Soft
StackLeniency: 0.7
Mode: 0
LetterboxInBreaks: 1

[Editor]
DistanceSpacing: 1.3
BeatDivisor: 4
GridSize: 4

[Metadata]
Title:SUPER STREAM
Artist:Infinite Stratos Cast
Creator:KanaRin
Version:Dis
Source:Infinite Stratos
Tags:is shinonono houki seshiria orukotto fan rinin sharurotto dunoa raura boudevihhi Hikasa Youko Yukana Shimoda Asami Hanazawa Kana Inoue Marina kanpakyin karenying aesopl19193 Rucker disoy

[Difficulty]
HPDrainRate:4
CircleSize:4
OverallDifficulty:3
ApproachRate:7
SliderMultiplier:1.4
SliderTickRate:1

[Events]
//Background and Video events
0,0,"BG.jpg"
//Break Periods
2,87560,95793
2,163560,170293
//Storyboard Layer 0 (Background)
//Storyboard Layer 1 (Fail)
//Storyboard Layer 2 (Pass)
//Storyboard Layer 3 (Foreground)
Sprite,Foreground,Centre,"Disoy.png",320,240 M,0,11360,,172,162 F,0,11360,11693,0,1 S,0,11360,11693,1.98304,1 F,0,11693,215026,1 F,0,215026,215360,1,0
//Storyboard Sound Samples
//Background Colour Transformations
3,100,163,162,255

[TimingPoints]
693,333.333333333333,4,2,1,80,1,0
21693,-100,4,1,2,80,0,0
22026,-100,4,2,1,80,0,0
32193,-100,4,2,1,80,0,0
35360,-100,4,2,1,80,0,0
40693,-133.333333333333,4,2,1,80,0,0
42693,-100,4,2,1,80,0,0
53860,-133.333333333333,4,2,1,80,0,0
55526,-100,4,2,1,80,0,0
55860,-133.333333333333,4,2,1,80,0,0
56360,-100,4,2,1,80,0,0
56692,-100,4,2,1,90,0,1
87276,-100,4,2,1,0,0,0
87443,-100,4,2,1,80,0,0
96693,-133.333333333333,4,2,1,70,0,0
106360,-100,4,2,1,70,0,0
129610,-100,4,2,1,0,0,0
129776,-100,4,2,1,70,0,0
131026,-100,4,1,2,70,0,0
131359,-100,4,2,1,90,0,1
160693,-100,4,2,1,70,0,0
160860,-100,4,2,1,0,0,0
171193,-100,4,2,1,70,0,0
184026,-133.333333333333,4,2,1,30,0,0
184360,-133.333333333333,4,1,2,80,0,0
184692,-133.333333333333,4,2,1,60,0,1
195276,-133.333333333333,4,2,1,90,0,0
195359,-100,4,2,1,90,0,1
215360,-100,4,2,1,80,0,0

[Colours]
Combo1 : 255,128,128
Combo2 : 128,255,255
Combo3 : 255,255,128

[HitObjects]
152,120,2026,1,2
284,68,2360,1,2
216,188,2693,2,0,B|152:236|80:184,1,140,0|2
216,188,3360,1,0
340,252,3693,5,2
424,252,3860,1,0
340,252,4026,1,2
248,112,4360,1,2
216,188,4526,1,0
156,248,4693,2,0,B|80:288|20:220,1,140,4|0
120,92,5360,6,8,B|196:52|256:120,1,140,4|8
88,168,6026,1,2
120,92,6193,1,0
172,160,6360,2,0,B|220:200|248:184,2,70,8|0|0
172,160,7026,1,8
320,76,7360,5,0
400,224,7693,1,8
252,300,8026,1,0
172,160,8360,1,8
172,160,8526,2,0,B|204:160|204:160|220:152|220:152|252:172|252:172|268:164|268:164|304:164,1,140,2|0
368,108,9026,1,8
408,272,9360,5,0
408,272,9693,2,0,B|324:272,1,70,2|0
256,192,10026,12,4,11360
96,96,11693,6,0,B|124:192|200:224,1,140,8|0
248,252,12193,2,0,B|292:272|316:324,1,70,0|8
344,224,12526,2,0,B|320:148|396:88,1,140
383,98,13026,1,8
216,80,13360,5,2
296,100,13526,1,0
152,184,13860,1,2
84,136,14026,2,0,B|40:212|128:272,1,140,2|8
272,292,14693,2,0,B|284:212,1,70,2|0
364,248,15026,2,0,B|384:88,1,140,8|2
381,109,15526,1,2
216,136,15860,6,0,B|200:180|144:196,1,70,2|0
132,112,16193,2,0,B|164:36|256:56,1,140,2|8
245,54,16693,1,8
228,224,17026,1,8
60,248,17360,1,2
144,244,17526,1,0
300,176,17860,2,0,B|340:136|348:92,1,70,8|2
228,224,18360,6,0,B|288:292|368:232,1,140,8|2
353,242,18860,1,2
224,136,19193,2,0,B|136:160|152:248,1,140
150,238,19693,1,8
304,168,20026,2,0,B|352:152,2,35
304,168,20360,1,8
232,224,20526,2,0,B|160:348|156:348,2,140,2|2|2
232,224,21360,1,0
160,344,21693,1,4
332,192,22026,5,4
216,68,22360,1,2
216,68,22526,1,0
144,112,22693,1,0
60,124,22860,2,0,B|84:212|180:192,1,140,0|2
244,172,23360,5,0
376,72,23693,1,2
408,236,24026,1,0
300,108,24360,1,2
300,108,24526,2,0,B|356:176|296:256,1,140,0|2
212,100,25193,5,0
288,140,25360,1,0
448,192,25693,1,2
372,156,25860,1,0
288,140,26026,2,0,B|248:180|248:180|264:172|264:172|208:224,1,140,0|2
215,216,26526,1,0
292,256,26693,5,0
124,244,27026,1,2
228,112,27360,2,0,B|268:144|352:136|376:120,2,140,0|2|0
60,92,28360,1,2
192,196,28693,6,0,B|228:260,1,70
296,212,29026,2,0,B|304:292,1,70,2|0
384,260,29360,2,0,B|384:344,1,70
468,316,29693,2,0,B|468:296|468:296|476:288|476:288|460:288|460:288|468:288|468:288|468:196,1,140,2|0
320,124,30360,6,0,B|240:120|208:200,2,140,2|0|2
404,124,31193,1,0
416,124,31276,1,0
428,124,31360,2,0,B|440:124|440:124|452:116|452:132|464:124|464:124|500:124,1,70,2|0
496,124,31693,1,8
496,124,31860,1,8
344,192,32193,6,0,B|296:216,3,35,8|0|8|0
272,204,32526,2,0,B|188:212,1,70,0|4
84,92,33026,2,0,B|136:96|168:148|148:200,1,140,2|0
68,176,33526,1,0
216,96,33860,1,2
292,56,34026,6,0,B|336:128|408:152,1,140,0|2
232,180,34693,2,0,B|188:252|116:276,1,140,0|2
128,271,35193,1,0
212,256,35360,2,0,B|264:276|260:328|260:328|328:328,2,140,0|2|0
180,332,36193,5,0
212,256,36360,1,2
152,196,36526,2,0,B|184:156|252:164|280:200,1,140
276,196,37026,1,2
396,316,37360,5,0
276,196,37693,1,2
440,160,38026,1,0
316,272,38360,2,0,B|256:320|176:316,1,140,2|0
20,324,39026,2,0,B|48:288|88:280,1,70,2|0
148,236,39360,2,0,B|132:156|28:132,2,140,0|2|0
55,139,40360,5,2
180,120,40693,2,0,B|232:192|324:184,1,157.499995306134,0|2
256,192,41360,12,8,42692
416,240,43193,6,0,B|348:172,1,70,0|2
312,124,43526,2,0,B|352:100,2,35,0|0|8
180,228,44026,6,0,B|164:228|164:228|148:212|132:228|132:228|116:244|100:228|100:228|44:228,1,140,2|8
48,228,44526,1,0
292,288,45026,1,8
244,140,45360,1,2
292,288,45693,2,0,B|360:324,1,70,8|0
368,236,46026,6,0,B|404:224|404:224|432:168|376:128,1,140,2|8
208,144,46693,2,0,B|172:156|172:156|144:212|200:252,1,140,2|8
280,100,47360,5,2
208,144,47526,1,0
124,160,47693,1,8
40,144,47860,2,0,B|96:200|76:284,1,140
78,272,48360,1,8
240,316,48693,6,0,B|268:256|340:232|372:236,1,140,4|8
443,97,49360,1,2
443,97,49527,1,2
256,96,49860,1,2
256,96,50193,2,0,B|176:132,2,70,0|8|0
332,132,50693,2,0,B|400:132,2,70,0|0|8
256,192,51193,12,8,52693
256,80,53193,5,0
198,141,53360,1,2
280,164,53526,1,0
256,80,53693,1,8
256,192,53860,12,0,55026
244,192,55360,5,0
136,204,55526,1,8
200,288,55693,1,8
244,192,55860,2,0,B|296:224|360:240|408:216,1,157.499995306134,8|0
256,100,56693,6,0,B|124:48,2,140,4|8|2
424,80,57526,1,0
352,136,57693,1,8
352,136,58026,2,0,B|400:200|356:288,1,140,2|8
192,324,58693,2,0,B|144:260|188:172,1,140,2|8
260,152,59193,5,0
168,156,59360,2,0,B|244:24,1,140,2|0
312,76,59860,2,0,B|388:64|460:84,1,140,2|2
450,81,60360,1,8
420,252,60693,5,2
332,228,60860,1,0
400,168,61026,1,2
420,252,61193,1,2
408,72,61526,5,0
328,120,61693,1,8
256,180,61860,2,0,B|208:228|108:220,1,140,2|0
126,221,62360,1,8
248,88,62693,5,2
224,268,63026,1,8
396,204,63360,1,0
216,176,63693,1,2
216,176,63860,2,0,B|140:164|72:232,1,140,2|0
120,132,64360,5,8
212,132,64526,1,0
300,108,64693,2,0,B|400:104|456:68,1,140,2|8
204,256,65360,6,0,B|104:252|48:216,1,140,2|8
67,227,65860,1,0
92,140,66026,2,0,B|144:148|200:124,2,105,2|8|0
92,140,66693,1,2
268,100,67026,1,8
404,220,67360,6,0,B|420:292|392:368,1,140,4|8
236,304,67860,2,0,B|220:232|248:156,1,140,2|0
336,156,68360,6,0,B|328:216|244:268|168:248,1,210,8|2
84,216,69026,1,8
252,148,69360,1,2
96,52,69693,5,8
144,132,69860,1,0
184,52,70026,2,0,B|252:48|328:72,1,140,2|8
408,100,70526,1,0
316,100,70693,2,0,B|248:96|172:120,1,140,2|8
252,256,71360,5,2
200,320,71526,1,0
284,328,71693,1,8
252,256,71860,2,0,B|180:232|96:260,1,140,2|0
120,164,72360,1,8
196,112,72526,2,0,B|268:136|352:108,1,140,2|0
333,113,73026,1,8
188,224,73360,5,2
360,284,73693,1,8
244,144,74026,2,0,B|284:208|256:296,1,140,2|8
148,136,74693,5,2
44,224,74860,1,0
176,264,75026,1,8
112,200,75193,5,0
112,200,75360,2,0,B|64:144|64:64,1,140,2|8
220,164,76026,2,0,B|216:96|260:24,1,140,2|8
255,30,76526,1,0
180,80,76693,2,0,B|144:124|80:100,2,105,2|8|0
180,80,77360,1,2
180,80,77693,1,8
360,112,78026,5,4
208,212,78360,1,8
376,280,78693,1,2
264,136,79026,2,0,B|196:112|196:112|124:152,1,140,8|2
304,220,79693,2,0,B|388:192,1,70,8|0
412,116,80026,1,2
324,100,80193,1,0
280,184,80360,6,0,B|196:168|124:188,2,140,8|2|8
192,344,81360,2,0,B|276:360|348:340,1,140,2|8
172,256,82026,5,2
124,176,82193,1,0
44,132,82360,1,8
44,132,82526,2,0,B|104:232|240:212,1,210,2|8
396,152,83360,5,2
223,213,83693,1,8
380,308,84026,1,2
300,144,84360,1,8
300,144,84526,2,0,B|332:220|300:296,1,140
216,304,85026,5,8
64,204,85360,1,2
232,136,85693,1,2
232,136,85860,1,2
256,192,86026,12,0,87360
116,108,96693,6,0,B|164:180|256:172,1,157.499995306134,4|2
272,36,97526,1,0
380,120,97860,1,2
328,188,98026,6,0,B|332:236|304:292,1,104.999996870756,0|2
152,248,98693,2,0,B|148:200|176:144,1,104.999996870756,0|2
264,168,99193,1,8
276,260,99360,6,0,B|344:324|428:332,1,157.499995306134,8|2
414,330,100026,1,0
332,196,100360,2,0,B|280:176|280:176|216:196,1,104.999996870756,2|0
172,240,100860,1,0
120,300,101026,2,0,B|172:320|172:320|236:300,2,104.999996870756,2|0|2
120,300,101860,1,8
92,228,102026,6,0,B|104:176|92:104,1,104.999996870756,8|2
248,156,102693,2,0,B|236:104|248:32,1,104.999996870756,0|2
245,51,103193,1,8
320,72,103360,2,0,B|380:128|468:112,1,157.499995306134,8|2
452,188,104026,5,0
396,244,104193,1,2
328,208,104360,1,0
328,208,104693,6,0,B|272:212|208:204,1,104.999996870756,8|2
164,140,105193,1,8
252,112,105360,2,0,B|308:108|372:116,1,104.999996870756,8|2
404,180,105860,1,8
447,245,106026,5,8
439,109,106193,1,8
320,188,106360,2,0,B|340:224|328:276,1,70
180,160,106860,5,2
187,155,106943,1,2
195,150,107026,1,8
202,145,107110,1,2
210,140,107193,2,0,B|260:108|296:96,1,70,2|0
251,268,107693,5,8
388,168,108026,1,2
416,332,108360,1,8
364,268,108526,1,0
308,204,108693,6,0,B|288:148|320:92|372:80,1,140,2|8
436,56,109193,1,0
476,128,109360,2,0,B|496:184|464:240|412:252,1,140,2|8
308,204,109860,5,0
232,172,110026,1,2
68,136,110360,1,8
188,252,110693,1,2
168,92,110860,5,0
148,172,111026,1,8
84,228,111193,2,0,B|76:304|84:372,1,140,2|0
83,367,111693,1,8
248,328,112026,6,0,B|288:268|260:188,1,140,2|8
100,144,112693,1,2
260,88,113026,1,8
168,228,113360,1,2
160,60,113693,1,8
188,140,113860,6,0,B|232:172|308:180|344:160,1,140,2|0
404,156,114360,1,8
436,320,114693,1,2
280,260,115026,1,8
448,232,115360,6,0,B|380:244|380:244|344:308,1,140,2|8
345,305,115860,1,0
345,305,116026,1,2
256,192,116193,12,8,117526
256,192,117860,5,4
400,104,118193,1,8
400,104,118360,1,8
260,328,118693,6,0,B|240:264|256:188,1,140,0|8
176,160,119193,1,0
256,188,119360,1,2
88,176,119693,6,0,B|103:250|83:314,2,140,8|2|8
36,108,120526,1,0
120,96,120693,6,0,B|172:76|244:84|288:104,1,140,2|8
400,184,121360,2,0,B|348:164|276:172|232:192,1,140,2|8
188,220,121860,1,0
252,276,122026,5,2
188,220,122193,1,8
168,300,122360,1,8
252,276,122526,2,0,B|304:312|304:312|404:304,1,140,2|0
380,305,123026,1,8
300,116,123360,5,4
300,116,123526,1,0
224,68,123693,1,8
224,68,123860,1,0
204,156,124026,2,0,B|192:220|208:320,2,140,2|8|2
284,200,124860,5,0
356,252,125026,1,8
404,176,125193,1,0
404,176,125360,2,0,B|448:172|448:172|492:212|464:280,1,140,2|8
472,259,125860,1,8
256,192,126026,12,8,127693
256,192,127859,12,0,129692
404,276,130026,6,8,B|444:272|484:224|484:228,3,70
212,256,131026,1,4
308,108,131360,6,0,B|252:64|168:80,1,140,4|8
108,128,131860,1,0
28,148,132026,1,2
88,208,132193,2,0,B|120:276|120:276|80:348,1,140,0|8
28,272,132693,1,2
180,204,133026,5,8
344,172,133360,1,2
300,332,133693,1,8
276,252,133860,1,0
260,168,134026,6,0,B|228:120|160:120|136:132,1,140,2|8
64,180,134526,1,0
116,112,134693,2,0,B|148:64|216:64|240:76,1,140,2|8
320,108,135193,1,0
384,164,135360,5,2
272,256,135526,1,0
420,300,135693,1,8
356,236,135860,6,0,B|316:300|340:372,1,140,0|2
244,336,136360,1,8
244,336,136526,1,0
244,336,136693,2,0,B|192:312|96:320,1,140,2|8
208,204,137360,5,2
372,172,137693,1,8
216,108,138026,1,2
308,248,138360,1,8
284,168,138526,1,0
320,92,138693,6,0,B|348:68|348:68|408:52|452:120,1,140,2|8
438,101,139193,1,0
308,248,139360,2,0,B|280:272|280:272|220:288|176:220,1,140,2|8
252,184,139860,1,0
328,216,140026,2,0,B|356:192|356:192|416:176|460:244,1,140,2|8
388,284,140526,1,0
328,216,140693,5,2
228,292,140943,1,8
124,224,141193,1,8
208,208,141360,2,0,B|260:180,6,35,2|0|2|0|2|0|2
48,260,142026,6,0,B|36:180|48:112,1,140,4|8
46,120,142526,1,0
168,184,142693,2,0,B|180:104|168:36,2,140,2|8|2
168,184,143693,1,8
304,284,144026,1,2
148,352,144360,1,8
168,184,144693,6,0,B|104:200|104:200|76:272,1,140,2|8
160,264,145193,1,0
328,360,145360,2,0,B|364:348|364:348|380:304,1,70,2|0
252,296,145693,2,0,B|216:308|216:308|200:352,1,70,8|0
320,248,146026,6,0,B|388:192,1,70,4|0
440,256,146360,2,0,B|468:164,1,70,8|0
460,189,146860,1,8
444,108,147026,1,8
392,40,147193,2,0,B|388:140|324:180,1,140,2|0
341,166,147693,1,8
184,112,148026,5,2
352,92,148360,1,8
212,188,148693,1,2
296,44,149026,1,8
284,212,149360,5,2
272,128,149526,1,0
224,60,149693,1,8
144,32,149860,2,0,B|84:64|64:148,1,140,0|2
65,143,150360,1,8
148,168,150526,5,0
204,228,150693,2,0,B|172:276|72:296,1,140,2|8
83,293,151193,1,0
83,293,151360,1,8
208,304,151610,2,8,B|264:292|336:312,1,105
312,306,152026,1,2
392,212,152360,5,2
380,208,152443,1,2
368,208,152526,1,2
356,212,152610,1,2
344,220,152693,2,0,B|288:240|204:220,1,140,4|8
132,180,153193,5,0
216,176,153360,2,0,B|216:120|160:88|112:100,2,140,2|8|2
176,248,154193,1,0
216,176,154360,1,8
272,240,154526,1,0
408,236,154860,5,0
420,152,155026,1,8
408,236,155193,1,8
408,236,155360,6,0,B|388:300|400:376,1,140,4|8
292,288,155860,1,0
180,320,156026,2,0,B|191:245|171:181,2,140,2|8|2
104,284,156860,1,0
32,328,157026,1,8
104,284,157193,1,0
92,132,157693,5,8
68,44,157860,1,8
92,132,158026,2,0,B|168:124|248:136,1,140,4|8
384,60,158693,2,0,B|308:68|228:56,1,140,2|8
232,132,159193,2,0,B|312:140|380:188,1,140
384,260,159693,2,0,B|360:296|348:352,2,70,0|0|8
216,264,160360,1,0
216,264,160526,2,0,B|148:248,1,70,0|8
256,192,160860,12,0,163360
144,96,171193,6,0,B|180:156|272:172,1,140,4|0
332,208,171693,2,0,B|396:256|400:328,2,140,2|0|2
264,256,172526,1,0
408,144,172860,6,0,B|444:152|472:180,2,70,0|2|0
336,88,173360,2,0,B|376:56|428:60,2,70,0|0|2
272,152,173860,1,0
192,192,174026,2,0,B|120:188|64:128,2,140,0|2|0
272,240,174860,6,0,B|364:244,1,70,0|2
372,328,175193,2,0,B|444:304,1,70
452,124,175693,2,0,B|376:128|292:120,3,140,2|0|2|0
236,72,176860,1,0
228,156,177026,1,2
152,120,177193,1,0
84,268,177526,5,0
108,180,177693,1,2
172,244,177860,1,0
348,288,178193,1,0
256,276,178360,1,2
308,204,178526,2,0,B|356:192|400:212,1,70
440,268,178860,5,0
456,180,179026,1,2
392,116,179193,1,0
256,192,179360,12,0,181193
256,192,181359,12,8,183026
256,120,183360,5,8
216,48,183526,1,8
300,48,183693,1,8
256,120,183860,1,8
256,120,184026,2,0,B|268:180|236:220|264:236,1,104.999996870756,0|4
380,224,184693,6,0,B|444:168|428:56,2,157.499995306134,4|0|2
136,288,186026,2,0,B|72:232|88:120,2,157.499995306134,0|0|2
216,292,187193,1,0
180,220,187360,6,0,B|184:168|232:124,1,104.999996870756,0|2
304,104,187860,1,0
332,32,188026,2,0,B|400:44|378:123,1,104.999996870756,0|2
304,104,188526,1,0
324,180,188693,2,0,B|376:208,2,52.4999984353781,0|0|2
248,184,189193,6,0,B|199:177|143:185,1,104.999996870756,0|0
84,236,189693,1,2
100,312,189860,2,0,B|156:320|220:312,1,104.999996870756
216,312,190276,1,2
228,312,190360,2,0,B|284:304|348:312,1,104.999996870756,0|2
440,192,191026,5,2
288,232,191360,1,0
436,284,191693,1,2
372,236,191860,1,0
348,160,192026,2,0,B|336:92|344:40,1,104.999996870756,0|2
342,55,192526,1,0
200,108,192693,6,0,B|206:144|194:212,1,104.999996870756,0|2
224,56,193360,2,0,B|272:96|296:156,1,104.999996870756,0|2
264,212,193860,1,0
224,280,194026,2,0,B|164:348,2,78.7499976530672,2|0|2
292,240,194693,2,0,B|352:224|416:224,1,104.999996870756
372,148,195193,1,2
291,196,195360,6,0,B|229:152|199:65,1,140,4|0
126,110,195860,1,0
153,189,196026,2,0,B|101:253|149:324,1,140,2|8
216,260,196526,1,0
164,180,196693,6,0,B|120:196|100:240,1,70,2|0
240,340,197026,2,0,B|284:324|304:280,1,70,8|0
288,208,197360,2,0,B|344:188|416:192|448:220,2,140,2|8|2
232,136,198193,6,0,B|280:100|324:108,1,70,0|8
380,76,198526,2,0,B|384:128|360:156,1,70,0|2
288,192,198860,2,8,B|364:152|456:188,1,140,0|8
376,256,199360,5,4
436,324,199526,1,0
464,236,199693,1,8
376,256,199860,2,0,B|352:312|352:312|256:328,1,140,0|2
188,260,200360,1,8
188,260,200527,2,0,B|212:204|212:204|308:188,1,140,2|0
292,100,201026,6,0,B|196:112,1,70,8|0
289,191,201360,2,0,B|385:179,1,70,2|0
380,96,201693,2,0,B|424:88|424:88|472:88|472:88|524:76,2,140,8|2|8
132,96,202693,2,0,B|88:88|88:88|40:88|40:88|-12:76,1,140,2|8
24,164,203193,5,0
116,164,203360,2,0,B|180:156|251:200,1,140,2|8
176,256,203860,1,0
76,240,204026,2,0,B|44:248|16:296,1,70,2|0
112,308,204360,2,0,B|152:352|220:356|272:340,1,140,8|2
356,308,204915,5,0
448,188,205193,1,8
448,188,205360,1,8
300,80,205693,5,2
300,92,205776,1,2
300,104,205860,2,0,B|300:184,1,70,2|4
168,156,206360,6,0,B|184:232|168:304,1,140,8|2
88,260,206860,1,0
272,348,207026,2,0,B|256:272|272:200,1,140,8|2
348,160,207526,2,0,B|360:112|340:64,1,70,0|8
264,124,207860,1,0
316,200,208026,2,0,B|348:244|432:252|472:228,1,140,2|8
443,238,208526,1,0
360,276,208693,6,0,B|320:284|284:320,1,70,2|0
252,228,209026,2,0,B|215:246|191:291,1,70,8|0
124,228,209360,2,0,B|100:261|99:312,1,70,2|0
184,172,209693,2,0,B|216:108|188:24,1,140,8|2
116,88,210193,5,0
191,35,210360,1,8
264,92,210526,2,0,B|368:124|484:84,1,210
216,328,211360,6,0,B|216:240,1,70,2|0
312,188,211693,2,0,B|312:268,1,70,8|0
416,200,212026,2,0,B|416:124,1,70,2|0
188,64,212526,6,0,B|148:120|56:144,1,140,0|8
84,228,213026,2,0,B|120:256|132:308,2,70,8|2|2
256,192,213693,1,0
256,192,213860,1,2
256,192,214026,12,6,215360
