osu file format v9

[General]
AudioFilename: SUPER STREAM.mp3
AudioLeadIn: 1000
PreviewTime: 56526
Countdown: 0
SampleSet: Soft
StackLeniency: 0.7
Mode: 0
LetterboxInBreaks: 1

[Editor]
DistanceSpacing: 1.5
BeatDivisor: 4
GridSize: 4

[Metadata]
Title:SUPER STREAM
Artist:Infinite Stratos Cast
Creator:KanaRin
Version:Collab
Source:Infinite Stratos
Tags:is shinonono houki seshiria orukotto fan rinin sharurotto dunoa raura boudevihhi Hikasa Youko Yukana Shimoda Asami Hanazawa Kana Inoue Marina kanpakyin karenying aesopl19193 Rucker disoy

[Difficulty]
HPDrainRate:7
CircleSize:4
OverallDifficulty:5
ApproachRate:8
SliderMultiplier:1.8
SliderTickRate:0.5

[Events]
//Background and Video events
0,0,"BG.jpg"
//Break Periods
2,87560,95943
2,171393,178443
//Storyboard Layer 0 (Background)
//Storyboard Layer 1 (Fail)
//Storyboard Layer 2 (Pass)
//Storyboard Layer 3 (Foreground)
Sprite,Foreground,Centre,"kanarin.png",320,240 M,0,11360,,143,142 F,0,11360,11693,0,1 S,0,11360,11693,1.83968,1 F,0,11693,87026,1 F,0,87026,87360,1,0 F,0,87360,,0
Sprite,Foreground,Centre,"kanpakyin.png",320,240 F,0,96360,96693,0,1 S,0,96360,96693,1.73728,1 M,0,96360,160693,143,146 F,0,96693,,1 F,0,96693,160360,1 F,0,160360,160693,1,0
Sprite,Foreground,Centre,"karenying.png",320,240 M,0,160360,160693,152,536,145,153 F,0,160360,160693,0,1 M,0,160693,,145,153 F,0,160693,161026,1 F,0,161026,,1 F,0,161026,171192,1 F,0,171192,171526,1,0 F,0,179192,179526,0,1 F,0,179526,224192,1 F,0,224192,224526,1,0
//Storyboard Sound Samples
//Background Colour Transformations
3,100,163,162,255

[TimingPoints]
693,333.333333333333,4,2,1,90,1,0
55860,-200,4,2,1,90,0,0
56360,-100,4,2,1,90,0,0
56692,-100,4,2,1,90,0,1
87276,-100,4,2,1,0,0,0
87443,-100,4,2,1,90,0,0
96943,-100,4,2,1,90,0,0
107443,-100,4,2,1,90,0,0
131359,-100,4,2,1,90,0,1
159026,-100,4,2,1,90,0,1
160693,-100,4,2,1,90,0,0
184110,-200,4,2,1,90,0,0
188692,-100,4,2,1,90,0,0
190359,-100,4,2,1,90,0,1
215360,-100,4,2,1,90,0,0

[Colours]
Combo1 : 255,128,128
Combo2 : 128,255,255
Combo3 : 255,255,128

[HitObjects]
256,112,1527,2,0,B|256:36,2,45,0|0|8
196,316,2027,6,0,B|92:316,1,90
148,236,2360,2,0,B|236:236,1,90,0|2
316,280,2693,2,0,B|364:176|272:112,1,180,0|2
220,56,3193,1,0
100,76,3360,6,0,B|160:160,1,90,0|2
312,132,3693,2,0,B|280:228,1,90,0|2
60,280,4026,2,0,B|148:308,1,90,2|0
384,300,4360,2,0,B|292:340,1,90,2|0
196,256,4693,6,0,B|148:239|128:188|148:136|200:120,1,180,4|2
256,192,5193,1,0
316,124,5360,2,0,B|363:140|383:192|363:244|311:260,1,180,4|2
256,328,5860,1,0
108,236,6026,6,0,B|200:236,1,90,4|2
408,124,6360,2,0,B|288:124,1,90,0|2
408,248,6693,6,0,B|408:176,2,45,0|2|0
284,320,7026,2,0,B|284:364,2,45,0|2|0
180,292,7360,6,0,B|108:236,1,90,4|0
256,212,7693,2,0,B|256:104,1,90,4|0
332,292,8026,2,0,B|404:236,2,90,4|0|4
260,348,8527,6,0,B|260:240,1,90,4|0
312,164,8860,2,0,B|424:112,2,90,4|4|0
200,164,9360,2,0,B|72:104,1,135,0|2
36,140,9693,2,0,B|84:216,1,90
128,316,10027,6,0,B|168:220,1,90,0|0
296,108,10360,2,0,B|256:204,1,90,0|0
308,344,10693,5,2
332,320,10776,1,0
345,293,10860,1,2
357,264,10943,1,0
367,234,11026,1,2
373,202,11110,1,0
376,170,11193,1,2
376,138,11276,1,0
365,108,11360,6,0,B|460:75|546:131,2,180,0|8|0
276,116,12193,1,0
320,200,12360,1,8
228,200,12527,1,0
276,276,12693,6,0,B|178:294|87:251,2,180,0|8|0
348,328,13527,1,0
400,256,13693,2,0,B|408:208|400:160,1,90,8|0
344,100,14026,1,0
264,140,14193,2,0,B|168:80,1,90,0|8
72,268,14693,6,0,B|24:172,2,90,0|0|8
132,200,15193,2,0,B|136:96,1,90,2|0
220,140,15527,2,0,B|272:36,1,90,2|8
328,116,15860,2,0,B|420:40,1,90,2|0
424,144,16193,2,0,B|528:112,1,90,2|10
464,236,16527,6,0,B|524:236,2,45,0|0|4
256,64,17027,1,4
48,236,17360,1,4
48,236,17527,1,4
256,244,17860,5,0
193,180,18026,2,0,B|145:197|125:248|145:300|197:316,2,180,0|8|4
257,244,18860,2,0,B|305:227|325:176|305:124|253:108,1,180,4|2
84,52,19526,5,0
84,52,19693,2,0,B|188:52,1,90,0|2
328,120,20026,2,0,B|232:120,1,90,0|2
48,176,20360,2,0,B|152:176,1,90,0|6
256,312,20860,5,4
396,200,21193,1,4
396,200,21360,2,0,B|396:92,1,90
396,20,21693,1,8
56,52,22026,6,0,B|55:144|148:208,1,180,4|2
212,148,22526,1,0
228,236,22693,2,0,B|272:256|320:252,1,90,0|2
404,244,23026,1,2
356,168,23193,1,0
252,72,23360,6,0,B|328:8|438:52,1,180,0|2
472,120,23860,1,0
384,128,24026,2,0,B|304:188|320:292,1,180,0|2
404,316,24526,1,0
336,376,24693,1,0
248,348,24860,1,2
248,348,25026,2,0,B|48:348,1,180,2|0
48,196,25693,5,2
168,136,25860,1,0
168,272,26026,1,2
168,272,26193,1,0
296,316,26360,5,2
272,184,26526,1,0
168,272,26693,1,2
196,96,27026,5,2
372,56,27360,2,0,B|388:148|324:224,1,180,4|2
248,172,27860,1,0
232,260,28026,2,0,B|127:279|61:179,1,180,0|2
8,136,28526,1,0
96,112,28693,6,0,B|184:80|296:112,3,180,0|2|0|2
292,284,30026,2,0,B|220:308|136:272,2,135,0|2|0
276,372,30693,2,0,B|308:288|284:188,1,180
248,112,31193,5,0
376,168,31360,1,4
352,40,31526,1,0
248,112,31693,1,4
280,240,31860,1,0
52,184,32193,6,0,B|4:180,5,45
64,144,32693,2,0,B|116:60|208:36,1,180,4|2
240,120,33193,1,0
308,60,33360,1,2
344,144,33526,2,0,B|436:164|496:263,1,180,2|0
380,288,34026,6,0,B|324:215|225:209,2,180,0|2|0
320,356,34860,1,2
248,300,35026,1,0
156,300,35193,1,2
88,360,35360,6,0,B|0:316|8:204,2,180,0|2|0
88,360,36193,1,0
200,216,36360,1,4
304,364,36526,2,0,B|396:348|420:220,1,180,0|2
448,152,37026,5,0
360,168,37193,1,2
360,168,37360,2,0,B|268:176|180:164,2,180
384,80,38193,1,0
296,92,38360,2,0,B|228:16,1,90,0|2
172,88,38693,2,0,B|64:76,1,90,0|2
108,164,39026,1,0
108,164,39193,1,0
108,164,39360,2,0,B|104:344,3,180,0|2|0|2
256,108,40693,6,0,B|310:188,1,90,4|2
368,124,41027,2,0,B|340:232,1,90,0|2
436,208,41360,2,0,B|352:272,1,90,0|2
420,332,41693,2,0,B|300:292,1,90,0|4
156,324,42193,5,0
156,292,42276,1,0
156,260,42360,1,0
156,228,42443,1,0
156,196,42526,1,0
156,164,42610,1,0
156,132,42693,2,0,B|156:44,1,90,4|0
332,84,43193,1,4
292,260,43527,5,0
292,260,43693,2,0,B|256:288|208:299,1,90,8|0
184,212,44027,1,0
264,172,44193,2,0,B|240:128|236:64,1,90,0|8
312,32,44527,1,0
336,120,44693,6,0,B|440:120|504:24,1,180,0|8
264,172,45360,2,0,B|160:172|96:268,1,180,0|8
164,320,45860,1,0
76,340,46027,5,0
196,256,46193,1,0
272,308,46360,2,0,B|304:344|368:356,1,90,8|0
364,264,46693,2,0,B|432:208|432:92,1,180,0|8
432,104,47193,1,0
352,64,47360,6,0,B|304:80|248:60,1,90,4|0
112,168,47693,2,0,B|160:152|216:172,1,90,0|4
104,320,48193,2,0,B|8:320,2,90,0|8|0
196,320,48693,6,0,B|328:320,1,90,4|0
244,240,49027,2,0,B|348:196,1,90,8|0
260,144,49360,2,0,B|312:56,2,90,0|0|8
180,100,49860,6,0,B|188:0,1,90
84,164,50193,2,0,B|76:280,1,90,0|8
72,344,50526,1,0
156,312,50693,5,4
300,292,50860,1,0
212,180,51026,1,8
156,312,51193,1,4
256,192,51360,12,0,52693
256,328,53027,6,0,B|256:232,1,90,8|0
344,224,53360,1,0
304,144,53527,1,0
216,144,53693,1,8
176,224,53860,1,4
256,192,54026,12,0,55026
252,264,55360,5,4
160,108,55527,1,4
340,108,55693,1,4
252,264,55860,6,0,B|252:120,1,135,0|8
44,224,56693,5,4
88,300,56860,1,0
140,224,57027,2,0,B|112:116,1,90,8|0
204,116,57360,1,0
244,196,57526,1,0
216,280,57693,2,0,B|257:308|310:295|341:248|323:196,1,180,8|0
384,132,58193,6,0,B|296:36,1,90,0|8
264,136,58527,2,0,B|160:104,1,90
160,200,58860,2,0,B|52:192,1,90,0|8
96,280,59193,1,0
184,304,59360,2,0,B|209:348|262:359|310:330|317:276,1,180,4|8
244,224,59860,1,0
296,152,60026,2,0,B|270:107|217:96|169:125|162:179,1,180,4|8
192,56,60693,6,0,B|144:60|84:44,2,90,4|0|8
284,52,61193,2,0,B|380:40|472:60,1,180,4|0
480,148,61693,1,8
392,132,61860,1,4
172,272,62193,6,0,B|76:272,2,90,0|8|0
236,336,62693,2,0,B|284:319|304:268|284:216|232:200,1,180,0|8
148,180,63193,1,0
68,140,63360,2,0,B|116:56|232:56,1,180,0|8
217,56,63860,1,0
420,312,64360,5,8
332,316,64526,1,0
372,236,64693,1,4
96,76,65026,5,8
184,72,65192,1,0
144,152,65359,1,4
256,336,65692,5,8
256,336,65860,1,2
256,336,66027,1,4
144,152,66277,1,4
360,152,66526,1,4
256,232,66693,2,0,B|256:40,1,180,4|8
488,228,67360,6,0,B|456:316|324:324,1,180,4|8
340,232,67860,2,0,B|320:128|244:84,1,180
208,168,68360,2,0,B|120:196|80:332,2,180,8|0|8
260,244,69193,1,0
312,168,69360,2,0,B|396:132|425:17,2,180,0|8|0
260,92,70193,6,0,B|224:64|188:20,1,90,0|8
252,292,70526,2,0,B|288:320|324:364,1,90
256,192,70860,2,0,B|164:192|164:192,1,90,0|8
80,92,71360,5,4
112,176,71527,1,0
172,108,71693,1,8
80,92,71860,1,4
432,292,72193,5,0
336,316,72360,1,8
360,228,72527,1,4
360,228,72693,6,0,B|392:124|300:32,2,180,0|8|0
288,176,73527,1,0
240,252,73693,1,8
184,184,73860,1,0
120,248,74027,6,0,B|56:180|92:64,1,180,4|8
176,104,74526,1,0
244,56,74693,2,0,B|308:124|272:240,1,180,4|8
204,280,75193,1,0
288,316,75360,6,0,B|388:336,1,90
396,244,75693,2,0,B|508:212,1,90,8|0
428,148,76026,2,0,B|468:56,1,90
376,48,76360,5,8
308,164,76527,1,0
240,48,76693,1,4
124,248,76943,1,4
352,248,77193,1,4
240,336,77360,2,0,B|240:152,1,180,0|8
472,108,78027,6,0,B|400:180|300:164,1,180,4|8
240,108,78527,1,0
168,56,78693,2,0,B|72:92|44:196,1,180,0|8
136,204,79193,1,0
120,292,79360,6,0,B|216:300|296:228,1,180,0|8
376,252,79860,1,0
376,252,80026,2,0,B|400:207|381:155|331:130|282:153,1,180,0|8
204,192,80526,5,0
200,100,80693,2,0,B|160:64|96:48,2,90,4|0|8
128,156,81193,2,0,B|76:148|28:168,1,90,0|4
88,240,81526,2,0,B|56:280|80:344,1,90,0|8
452,236,82026,5,4
324,276,82193,1,0
356,144,82360,1,8
356,144,82526,1,4
92,80,82860,5,0
168,156,83026,1,4
240,80,83193,1,0
308,172,83360,6,0,B|308:288,1,90,4|0
104,324,83693,2,0,B|104:212,1,90,4|0
192,120,84026,2,0,B|192:32,2,90,4|0|8
144,196,84526,2,0,B|192:176|252:220|336:192,1,180
388,256,85026,1,12
416,172,85193,1,0
344,112,85360,1,8
256,272,85693,5,8
257,272,85860,1,0
256,192,86026,12,0,87360
184,144,96693,5,4
238,215,96860,1,2
149,229,97026,2,0,B|59:246,1,90,8|2
90,331,97360,1,0
90,331,97526,2,0,B|6:362,1,90,2|8
181,328,97860,1,2
181,328,98026,2,0,B|234:338|283:304,1,90,0|2
423,245,98360,2,0,B|370:235|321:269,1,90,8|2
263,50,98693,2,0,B|263:244,2,180,0|8|4
175,72,99526,5,2
175,72,99693,2,0,B|96:136,1,90,0|2
152,217,100026,2,0,B|207:236|205:295,2,90,0|2|8
118,300,100526,1,2
118,300,100693,6,0,B|47:353,1,90,4|2
394,300,101026,2,0,B|483:366,1,90,8|2
195,130,101360,2,0,B|145:49,1,90,4|2
317,130,101693,2,0,B|369:44,1,90,8|2
260,196,102026,6,0,B|265:292|262:378,2,180,4|8|0
169,188,102860,1,2
169,188,103026,2,0,B|147:233|95:252,1,90,8|2
250,147,103360,6,0,B|272:102|324:83,1,90,4|2
303,259,103693,2,0,B|311:202|378:179,1,90,8|2
386,290,104026,1,0
214,212,104193,1,2
369,80,104360,1,8
369,80,104693,6,0,B|244:72,1,90,4|2
407,247,105026,2,0,B|500:254,1,90,8|2
143,80,105360,2,0,B|268:72,1,90,4|2
105,247,105693,2,0,B|12:254,1,90,8|2
191,292,106026,5,4
300,164,106193,1,4
368,313,106360,1,12
300,164,106526,1,4
284,344,106860,6,0,B|236:332,2,45,2|0|8
352,232,107193,2,0,B|400:220,2,45,2|0|4
172,208,107693,5,8
172,208,107860,2,0,B|104:205|62:213,1,90,0|2
119,294,108193,1,0
119,294,108360,2,0,B|59:297|25:326,2,90,8|2|0
207,313,108860,1,0
294,292,109026,2,0,B|374:278|401:213,1,135,8|2
353,217,109360,2,0,B|364:158|311:112,1,90
218,26,109693,2,0,B|207:85|260:131,1,90,8|2
256,192,110026,12,4,111026
354,66,111360,6,0,B|403:158|351:247,1,180,2|8
275,278,111860,1,2
275,278,112026,2,0,B|250:324|283:378,2,90,0|0|8
307,193,112526,1,2
288,104,112693,5,4
201,129,112860,1,2
223,215,113026,1,8
253,130,113193,5,2
112,184,113360,1,0
168,336,113526,1,2
312,288,113693,1,8
432,304,113860,6,0,B|448:196|432:124,1,180,2|0
436,36,114360,1,8
296,149,114693,6,0,B|234:149|234:149|191:164|191:164|108:165,1,180,2|8
380,148,115193,1,0
380,148,115360,2,0,B|380:264,1,90,4|2
296,344,115693,2,0,B|296:232,1,90,0|2
416,88,116026,2,0,B|416:284,1,180,4|8
332,300,116526,6,0,B|284:268|240:268,2,90,2|2|0
316,208,117026,2,0,B|300:160|228:140,1,90,2|0
208,144,117276,1,0
172,116,117360,2,0,B|118:112|91:39,1,90,4|0
40,192,117860,5,6
40,192,117943,1,0
40,192,118026,2,0,B|17:243|38:329|88:348,1,180,0|8
144,224,118693,5,0
144,224,118860,2,0,B|233:199|337:227,1,180,2|0
356,322,119360,6,0,B|388:284|432:260,1,90,2|0
440,40,119693,2,0,B|412:66|408:112|436:134,1,90,8|0
484,212,120026,2,0,B|439:223|390:192,1,90,0|0
264,168,120359,2,0,B|308:136|380:140,1,90,8|0
346,141,120693,6,0,B|315:189|345:251,1,90,0|2
246,235,121026,2,0,B|243:292|283:329,1,90,8|2
182,172,121360,2,0,B|126:146|35:160|10:205,1,180,0|8
92,52,122026,5,4
236,36,122193,1,0
184,172,122360,1,8
92,52,122526,1,4
328,152,123026,5,4
432,100,123359,2,0,B|412:52|352:32,1,90,4|2
224,184,123692,2,0,B|240:240|304:252,1,90,8|2
328,152,124026,1,2
328,152,124193,1,0
183,335,124526,6,0,B|213:289|302:284|369:312,1,180,4|4
349,305,125026,2,0,B|315:274|245:268,1,90,8|0
349,305,125360,1,2
399,132,125526,1,2
222,95,125693,1,8
169,267,125860,1,4
256,192,126026,12,0,127693
217,291,127860,5,0
191,205,128026,1,2
131,138,128193,2,2,B|99:100|44:96,1,90
191,205,128526,1,6
256,192,128693,12,2,131026
136,163,131360,6,0,B|137:109|93:84,1,90,4|2
219,199,131693,2,0,B|272:191|326:223,1,90,8|2
150,245,132026,2,0,B|121:314|29:335,1,135,0|2
50,329,132360,1,8
164,312,132526,5,0
280,332,132693,1,4
396,322,132860,1,0
396,322,132943,1,0
396,322,133026,6,0,B|385:264|390:204,1,90,8|0
274,69,133360,2,0,B|285:125|276:182,1,90,0|2
165,314,133693,2,0,B|169:230|163:194,1,90,8|2
180,136,134026,1,4
99,162,134193,1,0
99,162,134360,2,0,B|77:115|16:100,1,90,8|2
28,195,134693,2,0,B|28:8,1,180,0|8
268,88,135360,5,4
339,252,135526,1,4
165,224,135693,1,8
268,88,135859,1,2
211,292,136193,6,0,B|105:314,2,90,2|8|0
300,300,136693,2,0,B|481:300,2,180,4|8|2
267,215,137526,1,0
267,215,137693,2,0,B|197:213|197:213|155:199|66:208,1,180,8|4
83,116,138193,1,2
117,105,138276,1,0
144,81,138360,2,0,B|185:109|246:101,1,90,8|0
315,73,138693,2,0,B|332:121|384:145,1,90,0|2
324,215,139026,1,8
236,232,139193,1,0
159,279,139360,6,0,B|141:327|168:368,1,90,4|2
236,232,139693,1,8
173,164,139860,1,0
86,139,140026,2,0,B|34:156|14:203,1,90,4|2
173,164,140360,1,8
248,115,140526,1,0
304,44,140693,5,4
428,168,140943,1,4
260,216,141193,1,4
320,136,141360,1,4
225,274,141693,5,0
198,237,141776,1,2
155,219,141860,1,2
110,210,141943,1,2
65,215,142026,2,0,B|17:237|17:237|-3:294,1,90,4|0
139,168,142360,2,0,B|187:141|187:141|200:90,1,90,8|2
137,302,142693,2,0,B|151:258|151:258|211:227,1,90
222,321,143026,6,0,B|21:323,2,180,8|4|8
305,286,143860,2,0,B|360:202,1,90,2|0
220,321,144193,2,0,B|235:217,1,90,2|8
143,367,144526,1,2
143,367,144610,1,0
143,367,144693,2,0,B|126:270,1,90,4|0
94,194,145026,1,8
94,194,145193,1,2
94,194,145360,2,0,B|1:179,1,90
165,149,145693,6,0,B|242:148|242:148|267:162|267:162|360:165,1,180,8|4
427,322,146193,2,0,B|317:321,1,90,2|8
128,344,146526,2,0,B|232:344,1,90,0|4
260,244,146860,1,2
260,244,147026,1,8
256,192,147193,12,0,148026
250,193,148360,5,2
250,193,148693,2,0,B|198:190|198:190|173:183|173:183|106:185,1,135,4|2
119,229,149026,2,0,B|63:235|39:294,1,90,8|0
128,317,149360,2,0,B|150:367|213:374,1,90,4|0
213,282,149693,2,0,B|270:269|274:202,1,90,8|0
256,192,150026,12,2,151026
154,64,151360,5,4
119,331,151610,1,4
377,252,151860,1,4
216,200,152026,1,4
154,64,152360,5,2
154,64,152693,6,0,B|153:113|153:113|178:156,1,90,4|2
119,260,153026,2,0,B|119:213|119:213|78:156,1,90,8|2
194,196,153360,2,0,B|390:196,1,180,0|8
376,105,153860,1,2
448,157,154026,5,0
447,247,154193,1,0
447,247,154276,1,0
447,247,154360,1,8
381,308,154526,2,0,B|267:305,1,90,2|0
216,260,154860,1,2
216,260,155026,1,0
216,260,155193,1,2
144,212,155360,6,0,B|54:212,1,90,4|2
301,297,155693,2,0,B|384:358,1,90,8|2
216,124,156026,2,0,B|126:124,1,90,4|2
301,87,156359,2,0,B|384:26,1,90,8|2
296,180,156693,1,12
112,128,156860,1,2
70,302,157026,1,8
244,349,157193,1,6
146,198,157526,5,2
146,198,157693,2,2,B|47:199,1,90
240,94,158026,2,0,B|366:87,1,90,4|0
180,314,158360,2,0,B|75:319,1,90,4|0
280,220,158693,6,0,B|384:212|448:280,1,180,4|8
444,166,159193,1,0
444,166,159360,6,0,B|413:133|413:133|408:68,1,90,0|2
498,102,159693,1,8
498,102,159860,1,2
498,102,160026,2,0,B|318:101,1,180,4|8
227,104,160526,1,4
104,136,160693,6,0,B|40:224|136:324,1,180,4|8
184,244,161193,1,0
248,180,161360,2,0,B|284:220|336:220,2,90,0|0|8
192,108,161860,2,0,B|384:108,1,180
448,64,162360,1,8
320,192,162693,1,0
452,316,163026,1,8
364,324,163193,1,0
364,324,163276,1,0
364,324,163360,2,0,B|316:256|212:232,1,180,2|8
128,260,163860,5,0
128,260,163943,1,0
128,260,164026,1,0
28,168,164193,1,0
128,76,164360,1,8
220,172,164526,5,0
400,148,164693,1,2
228,96,164860,1,0
364,212,165026,1,8
164,132,165193,6,0,B|140:232|212:304,1,180,2|0
206,298,165693,1,8
384,276,165860,5,0
460,228,166026,2,0,B|412:204|392:156,1,90
372,128,166276,1,0
352,88,166360,2,0,B|258:62,1,90,8|0
180,48,166693,1,2
96,76,166860,1,0
36,140,167026,1,8
40,232,167193,1,0
132,232,167360,6,0,B|80:312,1,90,2|0
272,252,167693,2,0,B|180:279,1,90,8|0
380,352,168027,2,0,B|292:314,1,90
408,232,168360,2,0,B|442:321,1,90,8|0
440,316,168693,6,0,B|476:212|432:124,1,180,2|8
376,76,169193,1,0
288,52,169360,2,0,B|248:120|164:128,1,135
136,116,169693,2,0,B|100:204,1,90,8|0
76,288,170026,5,8
204,340,170193,1,8
432,288,170360,5,8
308,340,170527,1,8
256,76,170860,5,8
256,344,171193,1,12
256,192,179193,12,4,181860
256,192,181942,12,4,183026
256,92,183360,5,4
164,188,183526,1,4
256,288,183693,1,4
348,188,183860,1,4
392,56,184193,2,0,B|428:104,1,45,0|2
372,268,184693,5,4
80,320,186026,1,0
108,188,186360,1,4
192,84,186693,1,4
320,40,187026,1,4
424,160,187360,6,4,B|328:200|344:312,1,180
80,84,188693,2,4,B|184:84,1,90,4|4
432,84,189026,2,4,B|328:84,1,90,8|4
256,348,189526,5,0
304,272,189693,1,8
200,220,189860,1,4
324,152,190026,1,0
164,92,190193,2,8,B|100:92,2,45,0|0|8
52,232,190693,6,0,B|116:304|140:280|220:348,1,180,0|8
280,288,191193,1,0
280,288,191360,2,0,B|220:200|280:112,1,180,0|8
340,56,191860,2,0,B|444:32,1,90,0|0
404,124,192193,1,0
456,196,192360,5,8
392,292,192526,1,0
256,336,192693,1,4
256,164,192860,1,0
256,164,193026,1,8
56,188,193360,5,0
120,92,193526,1,0
256,48,193693,1,12
328,104,193860,5,0
308,192,194026,2,0,B|300:272|344:344,1,135,4|4
328,104,194526,2,0,B|368:144|376:204,1,90,2|4
200,240,195026,5,8
192,252,195110,1,2
180,256,195193,1,2
168,252,195276,1,2
164,240,195360,2,0,B|136:180|104:196|60:112,1,135,0|0
88,132,195693,2,0,B|173:93,1,90,8|0
340,100,196193,1,0
328,188,196360,2,0,B|416:212|432:324,1,180,8|0
248,320,197026,6,0,B|152:336,1,90,8|0
288,208,197360,2,0,B|208:256,1,90
248,76,197693,2,0,B|224:176,1,90,8|0
160,104,198026,6,0,B|64:152|112:268,1,180,4|8
192,224,198526,1,0
244,300,198693,2,0,B|340:252|292:136,1,180,4|8
212,172,199193,1,0
208,80,199360,6,0,B|308:80,1,90,4|0
460,192,199693,2,0,B|360:192,1,90,8|4
32,192,200193,1,0
104,136,200360,1,8
172,196,200526,1,4
100,252,200693,2,0,B|156:320|276:296,1,180,0|8
428,224,201360,6,0,B|364:184|372:96,1,135
371,108,201693,2,0,B|284:60,1,90,8|0
204,56,202026,2,0,B|108:92|124:216,1,180,4|8
168,280,202526,1,0
244,328,202693,2,0,B|252:276|312:264,2,90,4|0|8
156,340,203193,1,0
136,208,203360,6,0,B|28:208,1,90
168,76,203693,2,0,B|232:44|268:12,1,90,8|0
300,204,204026,2,0,B|220:136,1,90
360,96,204360,5,8
480,208,204526,1,0
320,256,204693,1,4
384,184,204943,5,4
384,184,205193,1,4
384,184,205360,1,4
248,240,205693,5,2
240,248,205776,1,0
228,256,205860,1,2
216,260,205943,1,0
204,264,206026,2,0,B|124:292|80:228,1,135,4|0
76,224,206360,2,0,B|108:180|76:132,1,90,8|0
68,52,206693,1,0
68,52,206860,1,0
152,84,207026,1,8
152,84,207193,1,0
192,164,207360,6,0,B|240:184|300:172,1,90
348,116,207693,2,0,B|368:164|356:224,1,90,8|0
312,280,208026,1,0
312,280,208193,1,0
312,280,208360,1,8
188,332,208526,6,0,B|80:344|28:268,1,180,4|0
144,196,209026,1,8
144,196,209193,1,0
29,114,209360,2,0,B|80:40|188:52,1,180,4|8
416,172,210026,6,0,B|304:172,1,90,4|4
104,224,210360,2,0,B|216:224,1,90,8|4
256,52,210860,1,0
256,52,211026,1,8
256,52,211193,1,0
200,120,211360,6,0,B|192:192|260:244,1,135,4|0
252,237,211693,2,0,B|200:332,1,90,8|0
132,364,212026,2,0,B|148:252|60:200,1,180,0|8
124,80,212526,5,4
124,80,212860,1,4
212,80,213026,1,4
300,96,213193,1,0
384,132,213360,1,0
384,132,213693,1,0
460,180,213860,1,0
416,256,214026,5,0
416,256,214193,1,0
300,324,214360,1,0
300,324,214526,1,0
180,260,214693,1,2
172,248,214776,1,0
160,240,214860,1,2
148,236,214943,1,0
136,232,215026,1,0
124,224,215110,1,0
120,212,215193,1,0
124,200,215276,1,0
132,188,215360,6,0,B|232:128|168:16,1,180,4|8
356,28,216026,1,2
392,112,216193,2,0,B|292:172|356:284,1,180,0|0
346,265,216693,1,0
280,324,216860,1,0
260,236,217026,6,0,B|192:296|88:288,1,180,8|0
92,288,217526,2,0,B|104:208|32:200|40:116,1,180,2|0
39,121,218026,1,0
104,56,218193,1,0
132,144,218360,6,0,B|232:136,1,90,8|0
312,128,218693,1,0
312,128,218860,1,0
312,128,219026,1,0
180,220,219193,6,0,B|168:264|128:292,1,90,2|0
332,232,219526,2,0,B|294:258|246:255,1,90,2|8
452,324,219860,2,0,B|406:321|370:288,1,90,2|0
312,128,220193,2,0,B|208:128,1,90,0|8
208,128,220443,5,0
196,128,220526,2,0,B|92:128,1,90,0|4
24,288,221026,1,4
106,128,221360,1,4
104,216,221526,2,0,B|180:296,1,90,4|0
256,292,221860,5,4
412,72,222193,1,4
364,200,222360,1,4
364,200,222693,1,0
364,200,222860,1,0
288,140,223026,6,0,B|232:140,4,45,2|0|2|0|4
256,192,223526,12,4,224526
