osu file format v12

[General]
AudioFilename: BEAUTIFUL SKY.mp3
AudioLeadIn: 1500
PreviewTime: 57622
Countdown: 0
SampleSet: Soft
StackLeniency: 0.7
Mode: 0
LetterboxInBreaks: 0
WidescreenStoryboard: 0

[Editor]
DistanceSpacing: 0.7
BeatDivisor: 4
GridSize: 4

[Metadata]
Title:BEAUTIFUL SKY (TV Size)
TitleUnicode:BEAUTIFUL SKY (TV Size)
Artist:Infinite Stratos Cast
ArtistUnicode:Infinite Stratos Cast
Creator:Guy
Version:Insane
Source:Infinite Stratos 2
Tags:is is2 shinonono houki seshiria orukotto fan rinin sharurotto dunoa raura boudevihhi hikasa youko yukana shimoda mami hanazawa kana inoue marina maaagic ending KanaRin インフィニット・ストラトス
BeatmapID:308981
BeatmapSetID:120328

[Difficulty]
HPDrainRate:7
CircleSize:4
OverallDifficulty:8
ApproachRate:9
SliderMultiplier:1.8
SliderTickRate:1

[Events]
//Background and Video events
0,0,"bg1.jpg",0,0
Video,0,"video.avi"
//Break Periods
//Storyboard Layer 0 (Background)
//Storyboard Layer 1 (Fail)
//Storyboard Layer 2 (Pass)
//Storyboard Layer 3 (Foreground)
//Storyboard Sound Samples
//Background Colour Transformations
3,100,163,162,255

[TimingPoints]
872.397334057102,333.333333333333,4,2,1,90,1,0
5539,-100,4,2,1,60,0,0
6039,-100,4,2,1,90,0,0
23539,-133.333333333333,4,2,1,90,0,0
24872,-100,4,2,1,70,0,0
25205,-100,4,2,1,80,0,0
43372,-100,4,2,1,90,0,0
46205,-133.333333333333,4,2,1,70,0,0
51539,-100,4,2,1,90,0,0
57872,-100,4,2,1,50,0,0
58039,-100,4,2,1,90,0,0
58205,-100,4,2,1,100,0,1
79372,-100,4,2,1,90,0,0
87455,-100,4,2,1,40,0,0
88705,-100,4,2,1,5,0,0

[Colours]
Combo1 : 255,0,204
Combo2 : 255,255,0
Combo3 : 255,128,64
Combo4 : 0,128,255
Combo5 : 170,201,48

[HitObjects]
252,200,872,2,0,L|312:220,3,45,12|0|0|0,0:0|0:0|0:0|0:0,0:0:0:0:
320,224,1205,1,8,0:0:0:0:
196,60,1372,1,8,0:0:0:0:
188,88,1455,1,8,0:0:0:0:
180,116,1539,1,8,0:0:0:0:
124,268,1705,5,0,0:0:0:0:
252,200,1872,1,0,0:0:0:0:
104,136,2039,1,0,0:0:0:0:
320,224,2205,5,4,0:0:0:0:
332,236,2872,1,0,0:0:0:0:
332,236,3372,6,0,L|324:48,1,180,10|10,0:0|0:0,0:0:0:0:
412,32,3872,1,0,0:0:0:0:
380,180,4039,1,0,0:0:0:0:
264,80,4205,1,0,0:0:0:0:
192,248,4372,2,0,P|228:208|356:220,1,180,8|8,0:0|0:0,0:0:0:0:
284,288,4872,5,4,0:0:0:0:
240,112,5039,1,2,0:0:0:0:
208,344,5205,1,6,0:0:0:0:
96,252,5372,1,0,0:0:0:0:
96,252,5455,1,0,0:0:0:0:
96,252,5539,1,8,3:3:0:0:
264,220,5705,1,8,3:3:0:0:
96,152,5872,1,8,3:3:0:0:
192,288,6039,6,0,P|288:300|352:236,1,180,4|2,0:0|0:0,0:0:0:0:
336,40,6539,2,0,B|292:56|292:56|240:52,1,90,0|2,0:0|0:0,0:0:0:0:
84,68,6872,1,2,0:0:0:0:
88,100,6955,1,0,0:0:0:0:
92,132,7039,1,0,0:0:0:0:
96,164,7122,1,0,0:0:0:0:
100,196,7205,2,0,L|104:228,7,22.5,4|0|0|0|0|0|0|0,0:0|0:0|0:0|0:0|0:0|0:0|0:0|0:0,0:0:0:0:
112,268,7539,6,0,P|160:228|272:232,1,180,4|8,0:0|0:0,0:0:0:0:
344,308,8039,1,0,0:0:0:0:
204,136,8205,1,2,0:0:0:0:
372,208,8372,1,2,0:0:0:0:
248,328,8539,1,8,0:0:0:0:
416,220,8705,6,0,P|456:292|400:380,1,180,4|2,0:0|0:0,0:0:0:0:
216,208,9205,1,8,0:0:0:0:
336,152,9372,1,0,0:0:0:0:
136,128,9539,2,0,P|132:184|132:228,1,90,2|2,0:0|0:0,0:0:0:0:
344,308,9872,1,8,0:0:0:0:
264,192,10039,6,0,P|264:136|260:92,1,90,4|0,0:0|0:0,0:0:0:0:
256,8,10372,1,2,0:0:0:0:
256,8,10455,1,0,0:0:0:0:
256,8,10539,1,8,0:0:0:0:
144,116,10705,1,0,0:0:0:0:
144,116,10789,1,0,0:0:0:0:
144,116,10872,2,0,P|104:112|80:112,1,45,8|0,0:0|0:0,0:0:0:0:
12,192,11039,2,0,P|52:196|76:196,1,45,2|0,0:0|0:0,0:0:0:0:
156,204,11205,1,8,0:0:0:0:
72,296,11372,6,0,P|148:240|232:248,1,180,4|2,0:0|0:0,0:0:0:0:
273,230,11789,1,0,0:0:0:0:
273,230,11872,1,8,0:0:0:0:
252,340,12039,1,0,0:0:0:0:
360,312,12205,6,0,L|408:296,1,45,2|0,0:0|0:0,0:0:0:0:
273,230,12372,2,0,L|225:214,1,45,2|0,0:0|0:0,0:0:0:0:
380,200,12539,1,8,0:0:0:0:
296,124,12705,6,0,P|376:80|456:124,1,180,4|2,0:0|0:0,0:0:0:0:
273,230,13205,2,0,P|204:196|196:88,1,180,8|2,0:0|0:0,0:0:0:0:
380,200,13705,2,0,L|368:296,1,90,2|8,0:0|0:0,0:0:0:0:
280,352,14039,6,0,P|176:328|96:320,1,180,4|2,0:0|0:0,0:0:0:0:
4,252,14539,2,0,P|44:220|96:188,1,90,8|0,0:0|0:0,0:0:0:0:
168,156,14872,1,2,0:0:0:0:
160,256,15039,1,2,0:0:0:0:
268,152,15205,1,8,0:0:0:0:
296,300,15372,6,0,P|340:240|448:260,1,180,4|2,0:0|0:0,0:0:0:0:
436,249,15872,2,0,L|420:152,1,90,8|0,0:0|0:0,0:0:0:0:
404,56,16205,1,2,0:0:0:0:
328,128,16372,1,2,0:0:0:0:
304,24,16539,1,8,0:0:0:0:
264,216,16705,6,0,P|188:156|100:172,1,180,4|2,0:0|0:0,0:0:0:0:
110,165,17122,1,0,0:0:0:0:
110,165,17205,1,8,0:0:0:0:
64,80,17372,2,0,L|80:28,1,45
156,4,17539,1,8,0:0:0:0:
232,80,17705,1,2,0:0:0:0:
110,165,17872,1,8,0:0:0:0:
56,28,18039,6,0,P|8:88|8:216,1,180,4|2,0:0|0:0,0:0:0:0:
84,344,18539,2,0,P|80:288|68:240,1,90,8|0,0:0|0:0,0:0:0:0:
110,165,18872,1,2,0:0:0:0:
188,232,19039,1,2,0:0:0:0:
280,192,19205,1,8,0:0:0:0:
84,128,19372,6,0,L|104:312,1,180,4|2,0:0|0:0,0:0:0:0:
276,376,19872,2,0,L|264:276,1,90,8|0,0:0|0:0,0:0:0:0:
200,140,20205,1,2,0:0:0:0:
312,220,20372,1,2,0:0:0:0:
384,104,20539,1,8,0:0:0:0:
196,40,20705,6,0,P|112:80|108:176,1,180,4|2,0:0|0:0,0:0:0:0:
108,192,21122,1,0,0:0:0:0:
108,192,21205,2,0,B|116:240|116:240|108:288,1,90,8|0,0:0|0:0,0:0:0:0:
92,312,21455,1,0,0:0:0:0:
92,312,21539,1,8,0:0:0:0:
200,360,21705,1,2,0:0:0:0:
320,352,21872,1,8,0:0:0:0:
256,252,22039,6,0,L|292:64,1,180,4|0,0:0|0:0,0:0:0:0:
316,96,22455,1,2,0:0:0:0:
344,112,22539,1,10,0:0:0:0:
180,176,22705,1,2,0:0:0:0:
176,144,22789,1,2,0:0:0:0:
172,112,22872,1,8,0:0:0:0:
96,16,23039,5,2,0:0:0:0:
68,41,23122,1,2,0:0:0:0:
48,73,23205,1,8,0:0:0:0:
39,109,23288,1,8,0:0:0:0:
40,146,23372,1,8,0:0:0:0:
51,182,23455,1,8,0:0:0:0:
72,212,23539,6,0,L|152:212,1,67.5000025749208,4|0,0:0|0:0,0:0:0:0:
228,196,23872,1,0,0:0:0:0:
172,124,24039,1,0,0:0:0:0:
156,296,24205,1,0,0:0:0:0:
320,228,24372,1,0,0:0:0:0:
84,264,24539,1,0,0:0:0:0:
224,336,24705,1,0,0:0:0:0:
344,224,24872,6,0,P|288:168|192:184,2,180,4|2|2,0:0|0:0|0:0,0:0:0:0:
328,320,25705,1,0,0:0:0:0:
256,256,25872,1,2,0:0:0:0:
444,248,26039,6,0,P|444:196|440:152,1,90,0|2,0:0|0:0,0:0:0:0:
248,104,26372,2,0,P|248:156|252:200,1,90,0|2,0:0|0:0,0:0:0:0:
268,296,26705,1,0,0:0:0:0:
172,260,26872,1,2,0:0:0:0:
344,224,27039,1,0,0:0:0:0:
344,224,27205,2,0,P|348:268|348:328,1,90,2|0,0:0|0:0,0:0:0:0:
252,184,27539,6,0,P|308:132|416:156,2,180,2|2|2,0:0|0:0|0:0,0:0:0:0:
212,284,28372,1,0,0:0:0:0:
144,200,28539,1,2,0:0:0:0:
184,100,28705,6,0,P|176:56|160:4,1,90,0|2,0:0|0:0,0:0:0:0:
48,208,29039,2,0,P|56:252|72:304,1,90,0|2,0:0|0:0,0:0:0:0:
284,288,29372,1,0,0:0:0:0:
188,192,29539,1,2,0:0:0:0:
152,324,29705,1,0,0:0:0:0:
296,364,29872,2,0,P|352:324|352:256,1,135,2|0,0:0|0:0,0:0:0:0:
324,220,30205,6,0,L|324:124,1,90,2|0,0:0|0:0,0:0:0:0:
324,24,30539,2,0,P|276:36|228:44,1,90,2|0,0:0|0:0,0:0:0:0:
132,60,30872,2,0,P|48:96|44:184,1,180,2|2,0:0|0:0,0:0:0:0:
148,296,31372,6,0,P|176:208|100:140,2,180,0|0|0,0:0|0:0|0:0,0:0:0:0:
48,332,32205,1,2,0:0:0:0:
68,232,32372,1,0,0:0:0:0:
148,296,32539,2,0,P|200:320|248:332,1,90,2|0,0:0|0:0,0:0:0:0:
304,260,32872,6,0,P|296:204|296:160,1,90,2|0,0:0|0:0,0:0:0:0:
248,44,33205,2,0,P|300:65|338:87,1,90,2|0,0:0|0:0,0:0:0:0:
464,100,33539,2,0,P|419:134|381:156,1,90,2|0,0:0|0:0,0:0:0:0:
212,128,33872,1,2,0:0:0:0:
112,80,34039,5,2,0:0:0:0:
112,80,34122,1,2,0:0:0:0:
112,80,34205,2,0,P|108:140|112:184,2,90,4|2|8,0:0|0:0|0:0,0:0:0:0:
196,228,34705,1,4,0:0:0:0:
196,228,35039,2,0,P|264:168|352:168,1,180,4|2,0:0|0:0,0:0:0:0:
416,200,35455,1,2,0:0:0:0:
416,200,35539,6,0,L|408:296,1,90,4|0,0:0|0:0,0:0:0:0:
264,360,35872,2,0,L|272:264,1,90,8|0,0:0|0:0,0:0:0:0:
288,72,36205,1,2,0:0:0:0:
208,144,36372,1,0,0:0:0:0:
188,40,36539,1,8,0:0:0:0:
308,172,36705,6,0,P|312:224|304:288,1,90,0|2,0:0|0:0,0:0:0:0:
300,368,37039,2,0,P|252:345|201:306,1,90,0|8,0:0|0:0,0:0:0:0:
136,264,37372,2,0,P|179:234|238:209,1,90,0|2,0:0|0:0,0:0:0:0:
400,176,37705,1,0,0:0:0:0:
300,56,37872,2,0,P|296:100|300:160,1,90,8|0,0:0|0:0,0:0:0:0:
324,252,38205,6,0,B|240:236|240:296|144:272,1,180,2|8,0:0|0:0,0:0:0:0:
168,100,38705,2,0,P|180:148|188:212,1,90,0|2,0:0|0:0,0:0:0:0:
64,340,39039,2,0,P|52:292|44:228,1,90,0|8,0:0|0:0,0:0:0:0:
40,144,39372,6,0,P|116:140|184:60,2,180
84,52,40205,1,2,0:0:0:0:
144,212,40372,1,0,0:0:0:0:
264,88,40539,2,0,L|244:192,1,90,8|0,0:0|0:0,0:0:0:0:
208,336,40872,6,0,P|280:280|364:292,1,180,2|8,0:0|0:0,0:0:0:0:
468,312,41372,1,0,0:0:0:0:
428,212,41539,2,0,P|416:160|424:108,1,90,2|0,0:0|0:0,0:0:0:0:
436,24,41872,1,8,0:0:0:0:
336,56,42039,6,0,B|292:64|248:84|248:84|204:76|160:80,1,180
72,124,42539,2,0,P|64:80|72:28,1,90,8|0,0:0|0:0,0:0:0:0:
152,176,42872,2,0,P|160:220|152:272,1,90,2|0,0:0|0:0,0:0:0:0:
68,224,43205,1,8,0:0:0:0:
240,132,43372,6,0,P|256:216|240:312,1,180,4|8,0:0|0:0,0:0:0:0:
68,224,43872,1,8,0:0:0:0:
68,224,44205,5,8,0:0:0:0:
252,264,44372,1,2,0:0:0:0:
96,328,44539,1,8,0:0:0:0:
184,120,44705,6,0,P|148:208|176:292,1,180,4|8,0:0|0:0,0:0:0:0:
264,352,45205,2,0,L|316:340,1,45,8|0,0:0|0:0,0:0:0:0:
384,240,45372,2,0,L|332:252,1,45,2|0,0:0|0:0,0:0:0:0:
252,264,45539,5,8,0:0:0:0:
256,228,45622,1,0,0:0:0:0:
264,192,45705,1,8,0:0:0:0:
276,160,45789,1,0,0:0:0:0:
300,116,45872,6,0,L|300:72,1,45,8|0,0:0|0:0,0:0:0:0:
184,120,46039,2,0,L|192:164,1,45,8|0,0:0|0:0,0:0:0:0:
152,20,46205,6,0,P|112:88|80:136,1,135.000005149842,4|0,0:0|0:0,0:0:0:0:
32,208,46705,2,0,P|44:248|52:280,2,67.5000025749208,2|8|0,0:0|0:0|0:0,0:0:0:0:
124,236,47205,1,0,0:0:0:0:
208,196,47372,6,0,P|272:168|352:160,1,135.000005149842,4|4,0:0|0:0,0:0:0:0:
428,172,47872,1,0,0:0:0:0:
440,320,48039,1,2,0:0:0:0:
440,320,48122,1,2,0:0:0:0:
440,320,48205,2,0,P|388:332|352:336,1,67.5000025749208,4|0,0:0|0:0,0:0:0:0:
244,260,48539,2,0,P|296:248|332:244,1,67.5000025749208,4|0,0:0|0:0,0:0:0:0:
428,172,48872,6,0,P|344:136|280:100,1,135.000005149842,4|0,0:0|0:0,0:0:0:0:
228,68,49372,2,0,P|264:36|304:16,2,67.5000025749208,2|8|0,0:0|0:0|0:0,0:0:0:0:
184,148,49872,1,0,0:0:0:0:
224,232,50039,6,0,P|244:292|248:364,1,135.000005149842,4|4,0:0|0:0,0:0:0:0:
128,296,50539,1,0,0:0:0:0:
112,184,50705,1,2,0:0:0:0:
112,184,50789,1,2,0:0:0:0:
112,184,50872,2,0,P|108:128|116:96,1,67.5000025749208,4|0,0:0|0:0,0:0:0:0:
296,196,51205,2,0,P|300:252|292:284,1,67.5000025749208,4|0,0:0|0:0,0:0:0:0:
236,328,51539,5,2,0:0:0:0:
204,184,51705,1,0,0:0:0:0:
100,292,51872,1,8,0:0:0:0:
232,232,52039,1,0,0:0:0:0:
112,148,52205,2,0,P|160:84|256:80,1,180,2|4,0:0|0:0,0:0:0:0:
376,176,52705,5,0,0:0:0:0:
376,176,52789,1,0,0:0:0:0:
376,176,52872,2,0,P|396:128|404:84,1,90,2|0,0:0|0:0,0:0:0:0:
280,208,53205,2,0,P|311:249|345:278,1,90,8|0,0:0|0:0,0:0:0:0:
300,108,53539,2,0,P|248:114|206:129,1,90,2|0,0:0|0:0,0:0:0:0:
116,160,53872,1,4,0:0:0:0:
184,344,54039,5,0,0:0:0:0:
184,344,54122,1,0,0:0:0:0:
184,344,54205,2,0,L|284:332,1,90,2|0,0:0|0:0,0:0:0:0:
432,200,54539,2,0,L|332:212,1,90,8|0,0:0|0:0,0:0:0:0:
236,220,54872,1,2,0:0:0:0:
284,124,55039,1,0,0:0:0:0:
300,304,55205,1,8,0:0:0:0:
136,228,55372,6,0,P|156:136|168:48,1,180,4|2,0:0|0:0,0:0:0:0:
260,12,55872,1,8,0:0:0:0:
284,124,56039,1,0,0:0:0:0:
368,48,56205,1,8,0:0:0:0:
204,192,56372,1,0,0:0:0:0:
388,160,56539,1,8,0:0:0:0:
84,88,56705,5,8,0:0:0:0:
84,88,57039,1,8,0:0:0:0:
84,88,57372,1,8,0:0:0:0:
96,200,57705,5,0,0:0:0:0:
192,136,57872,1,4,0:0:0:0:
84,88,58039,1,0,0:0:0:0:
96,200,58205,6,0,P|104:272|112:312,1,90,4|0,0:0|0:0,0:0:0:0:
260,320,58539,1,8,0:0:0:0:
200,216,58705,1,0,0:0:0:0:
320,188,58872,2,0,P|312:116|304:76,1,90,2|0,0:0|0:0,0:0:0:0:
172,32,59205,1,8,0:0:0:0:
52,164,59372,6,0,P|88:212|200:216,1,180
376,216,59872,1,8,0:0:0:0:
288,136,60039,1,0,0:0:0:0:
268,256,60205,2,0,P|272:308|272:364,1,90,2|0,0:0|0:0,0:0:0:0:
176,364,60539,1,8,0:0:0:0:
372,328,60705,1,0,0:0:0:0:
176,364,60872,6,0,P|176:304|172:252,1,90,4|0,0:0|0:0,0:0:0:0:
84,256,61205,2,0,P|116:200|136:156,1,90,8|0,0:0|0:0,0:0:0:0:
148,80,61539,2,0,P|200:32|316:48,1,180,2|8,0:0|0:0,0:0:0:0:
268,200,62039,6,0,P|248:144|240:104,1,90,0|2,0:0|0:0,0:0:0:0:
360,136,62372,1,0,0:0:0:0:
368,244,62539,2,0,P|368:296|364:340,1,90,8|0,0:0|0:0,0:0:0:0:
136,320,62872,5,2,0:0:0:0:
140,288,62955,1,0,0:0:0:0:
144,256,63039,1,0,0:0:0:0:
148,224,63122,1,0,0:0:0:0:
152,192,63205,1,8,0:0:0:0:
156,160,63289,1,0,0:0:0:0:
160,128,63372,1,0,0:0:0:0:
164,96,63455,1,0,0:0:0:0:
168,64,63539,6,0,P|120:100|92:116,1,90,4|0,0:0|0:0,0:0:0:0:
0,132,63872,1,8,0:0:0:0:
32,40,64039,1,0,0:0:0:0:
60,208,64205,1,2,0:0:0:0:
188,88,64372,1,0,0:0:0:0:
0,132,64539,1,8,0:0:0:0:
160,184,64705,1,0,0:0:0:0:
128,20,64872,6,0,P|104:80|92:116,1,90,2|0,0:0|0:0,0:0:0:0:
124,316,65205,2,0,P|124:252|120:200,1,90,8|0,0:0|0:0,0:0:0:0:
208,152,65539,1,2,0:0:0:0:
292,216,65705,1,0,0:0:0:0:
368,136,65872,2,0,P|368:80|364:40,1,90,8|0,0:0|0:0,0:0:0:0:
196,256,66205,6,0,P|232:304|352:304,1,180,4|8,0:0|0:0,0:0:0:0:
208,152,66705,1,0,0:0:0:0:
208,152,66872,2,0,P|128:176|88:264,1,180,2|8,0:0|0:0,0:0:0:0:
292,216,67372,1,0,0:0:0:0:
312,112,67539,5,4,0:0:0:0:
196,256,67705,1,2,0:0:0:0:
216,60,67872,1,8,0:0:0:0:
292,312,68039,6,0,P|348:304|376:180,1,180,4|2,0:0|0:0,0:0:0:0:
352,148,68455,1,0,0:0:0:0:
352,148,68539,2,0,P|348:100|356:48,1,90,8|0,0:0|0:0,0:0:0:0:
216,60,68872,6,0,L|44:116,1,180,4|8,0:0|0:0,0:0:0:0:
28,224,69372,1,0,0:0:0:0:
124,352,69539,2,0,P|144:252|96:184,1,180,2|8,0:0|0:0,0:0:0:0:
208,168,70039,5,0,0:0:0:0:
208,168,70122,1,0,0:0:0:0:
208,168,70205,2,0,P|256:180|304:188,1,90,2|0,0:0|0:0,0:0:0:0:
476,100,70539,2,0,P|428:88|380:80,1,90,8|0,0:0|0:0,0:0:0:0:
256,56,70872,1,2,0:0:0:0:
300,188,71039,1,0,0:0:0:0:
392,84,71205,2,0,P|408:132|416:176,1,90,8|0,0:0|0:0,0:0:0:0:
216,308,71539,6,0,P|188:236|172:128,2,180,4|8|2,0:0|0:0|0:0,0:0:0:0:
112,288,72372,1,0,0:0:0:0:
112,288,72455,1,0,0:0:0:0:
112,288,72539,1,8,0:0:0:0:
280,212,72705,6,0,P|332:164|436:180,1,180,0|0,0:0|0:0,0:0:0:0:
408,340,73205,2,0,P|380:280|368:240,1,90,8|0,0:0|0:0,0:0:0:0:
332,68,73539,5,2,0:0:0:0:
300,72,73622,1,0,0:0:0:0:
268,76,73705,1,0,0:0:0:0:
236,80,73789,1,0,0:0:0:0:
204,84,73872,1,8,0:0:0:0:
172,88,73955,1,0,0:0:0:0:
140,92,74039,1,0,0:0:0:0:
108,96,74122,1,0,0:0:0:0:
76,100,74205,6,0,P|64:152|56:192,2,90,4|0|8,0:0|0:0|0:0,0:0:0:0:
140,224,74705,1,0,0:0:0:0:
232,152,74872,1,2,0:0:0:0:
252,268,75039,1,2,0:0:0:0:
80,292,75205,1,8,0:0:0:0:
144,128,75372,6,0,P|192:72|292:88,1,180,4|2,0:0|0:0,0:0:0:0:
289,85,75789,1,0,0:0:0:0:
289,85,75872,1,8,0:0:0:0:
260,248,76039,1,0,0:0:0:0:
232,152,76205,1,2,0:0:0:0:
192,324,76372,1,2,0:0:0:0:
364,264,76539,1,8,0:0:0:0:
136,224,76705,6,0,P|132:136|144:40,1,180,4|2,0:0|0:0,0:0:0:0:
142,44,77122,1,0,0:0:0:0:
142,44,77205,1,8,0:0:0:0:
260,248,77372,1,2,0:0:0:0:
260,248,77455,1,0,0:0:0:0:
260,248,77539,1,8,0:0:0:0:
336,172,77705,1,2,0:0:0:0:
176,136,77872,1,8,0:0:0:0:
392,64,78039,6,0,P|448:128|444:228,1,180,4|2,0:0|0:0,0:0:0:0:
447,219,78455,1,0,0:0:0:0:
447,219,78539,1,8,0:0:0:0:
364,324,78705,2,0,L|312:332,1,45,0|0,0:0|0:0,0:0:0:0:
260,248,78872,2,0,L|312:240,1,45,2|0,0:0|0:0,0:0:0:0:
180,348,79039,1,2,0:0:0:0:
164,316,79122,1,0,0:0:0:0:
148,284,79205,1,8,0:0:0:0:
88,104,79372,6,0,P|172:112|232:40,1,180,4|2,0:0|0:0,0:0:0:0:
24,52,79872,2,0,P|8:104|24:160,1,90,8|0,0:0|0:0,0:0:0:0:
120,332,80205,1,2,0:0:0:0:
152,224,80372,1,2,0:0:0:0:
44,256,80539,1,8,0:0:0:0:
228,308,80705,6,0,P|316:316|376:232,1,180,4|2,0:0|0:0,0:0:0:0:
272,128,81205,2,0,L|280:228,1,90,8|0,0:0|0:0,0:0:0:0:
168,92,81539,1,2,0:0:0:0:
252,24,81705,1,2,0:0:0:0:
272,128,81872,1,8,0:0:0:0:
96,192,82039,6,0,P|72:88|28:32,1,180,4|2,0:0|0:0,0:0:0:0:
12,176,82539,1,8,0:0:0:0:
144,68,82705,1,0,0:0:0:0:
156,80,82789,1,0,0:0:0:0:
168,92,82872,2,0,P|216:84|276:72,1,90,2|2,0:0|0:0,0:0:0:0:
384,156,83205,1,8,0:0:0:0:
288,276,83372,6,0,P|240:284|180:296,1,90,4|0,0:0|0:0,0:0:0:0:
296,172,83705,1,2,0:0:0:0:
296,172,83789,1,2,0:0:0:0:
296,172,83872,2,0,P|344:164|404:152,1,90,8|0,0:0|0:0,0:0:0:0:
232,264,84205,1,8,0:0:0:0:
188,160,84372,1,2,0:0:0:0:
124,252,84539,1,8,0:0:0:0:
200,48,84705,6,0,P|268:76|292:184,1,180,4|2,0:0|0:0,0:0:0:0:
232,264,85205,1,8,0:0:0:0:
188,160,85372,1,2,0:0:0:0:
188,160,85455,1,2,0:0:0:0:
188,160,85539,1,8,0:0:0:0:
400,124,85705,1,8,0:0:0:0:
160,348,86039,6,0,P|136:280|128:232,1,90,4|0,0:0|0:0,0:0:0:0:
272,96,86372,1,2,0:0:0:0:
272,96,86455,1,2,0:0:0:0:
272,96,86539,2,0,P|296:164|304:212,1,90,8|0,0:0|0:0,0:0:0:0:
272,304,86872,1,8,0:0:0:0:
188,160,87039,1,0,0:0:0:0:
64,264,87205,1,8,0:0:0:0:
188,160,87372,1,4,0:0:0:0:
256,192,87455,12,0,88705,0:0:0:0:
