osu file format v9

[General]
AudioFilename: 01 - SUPER STREAM.mp3
AudioLeadIn: 1996
PreviewTime: 56550
Countdown: 0
SampleSet: Soft
StackLeniency: 0.7
Mode: 0
LetterboxInBreaks: 1

[Editor]
DistanceSpacing: 1.2
BeatDivisor: 4
GridSize: 8

[Metadata]
Title:SUPER STREAM
Artist:Infinite Stratos CAST
Creator:net45291
Version:Insane
Source:Infinite Stratos
Tags:artpiggo regenz

[Difficulty]
HPDrainRate:6
CircleSize:4
OverallDifficulty:3
ApproachRate:8
SliderMultiplier:1.3
SliderTickRate:1

[Events]
//Background and Video events
0,0,"BG.png"
//Break Periods
2,87482,94199
2,162149,173699
2,179315,180365
//Storyboard Layer 0 (Background)
//Storyboard Layer 1 (Fail)
//Storyboard Layer 2 (Pass)
//Storyboard Layer 3 (Foreground)
//Storyboard Sound Samples
//Background Colour Transformations
3,100,163,162,255

[TimingPoints]
616,333.333333333333,4,2,0,80,1,0
616,-200,4,2,0,80,0,0
1569,-100,4,2,0,80,0,0
18197,-133.333333333333,4,2,0,80,0,0
18449,-153.846153846153,4,2,0,80,0,0
18616,-181.818181818182,4,2,0,80,0,0
18949,-200,4,2,0,80,0,0
20366,-100,4,2,0,80,0,0
20699,-90.9090909090909,4,2,0,80,0,0
20949,-55.5555555555556,4,2,0,80,0,0
21199,-50,4,2,0,80,0,0
21366,-100,4,2,0,80,0,0
21615,-100,4,2,0,80,0,1
21699,-100,4,2,0,80,0,0
31032,-133.333333333333,4,2,0,80,0,0
31366,-62.5,4,2,0,80,0,0
31532,-50,4,2,0,80,0,0
31699,-50,4,2,0,80,0,0
31866,-100,4,2,0,80,0,0
35032,-133.333333333333,4,2,0,80,0,0
36032,-66.6666666666667,4,2,0,80,0,0
36199,-50,4,2,0,80,0,0
36366,-50,4,2,0,80,0,0
36449,-100,4,2,0,80,0,0
36532,-100,4,2,0,80,0,0
47210,-66.6666666666667,4,2,0,80,0,0
47366,-58.8235294117647,4,2,0,80,0,0
47699,-50,4,2,0,80,0,0
47949,-100,4,2,0,80,0,0
50410,-200,4,2,0,80,0,0
50616,-166.666666666667,4,2,0,80,0,0
50782,-142.857142857143,4,2,0,80,0,0
50949,-125,4,2,0,80,0,0
51032,-200,4,2,0,80,0,0
52699,-100,4,2,0,80,0,0
53032,-200,4,2,0,80,0,0
53199,-166.666666666667,4,2,0,80,0,0
53373,-142.857142857143,4,2,0,80,0,0
53532,-125,4,2,0,80,0,0
53777,-200,4,2,0,80,0,0
55199,-71.4285714285714,4,2,0,80,0,0
55366,-66.6666666666667,4,2,0,80,0,0
55532,-58.8235294117647,4,2,0,80,0,0
55699,-50,4,2,0,80,0,0
56616,-100,4,2,0,80,0,1
64199,-200,4,2,0,80,0,0
64366,-166.666666666667,4,2,0,80,0,0
64532,-142.857142857143,4,2,0,80,0,0
64699,-125,4,2,0,80,0,0
64866,-111.111111111111,4,2,0,80,0,0
65032,-100,4,2,0,80,0,0
65237,-90.9090909090909,4,2,0,80,0,0
65532,-66.6666666666667,4,2,0,80,0,0
65866,-62.5,4,2,0,80,0,0
66032,-58.8235294117647,4,2,0,80,0,0
66372,-55.5555555555556,4,2,0,80,0,0
66532,-50,4,2,0,80,0,0
66699,-100,4,2,0,80,0,0
67282,-100,4,2,0,80,0,1
71199,-200,4,2,0,80,0,1
71366,-166.666666666667,4,2,0,80,0,1
71532,-142.857142857143,4,2,0,80,0,1
71699,-125,4,2,0,80,0,1
71866,-100,4,2,0,80,0,1
74532,-100,4,2,0,100,0,1
75032,-100,4,2,0,46,0,1
75449,-100,4,2,0,72,0,1
75616,-100,4,2,0,90,0,1
75782,-100,4,2,0,100,0,1
76116,-100,4,2,0,80,0,0
76199,-133.333333333333,4,2,0,80,0,0
76366,-62.5,4,2,0,80,0,0
76532,-58.8235294117647,4,2,0,80,0,0
76699,-55.5555555555556,4,2,0,80,0,0
76866,-52.6315789473684,4,2,0,80,0,0
77199,-50,4,2,0,80,0,0
77449,-100,4,2,0,80,0,0
77949,-100,4,2,0,80,0,1
82032,-66.6666666666667,4,2,0,80,0,1
82199,-50,4,2,0,80,0,1
82532,-111.111111111111,4,2,0,80,0,1
82699,-133.333333333333,4,2,0,80,0,1
82866,-200,4,2,0,80,0,1
83032,-100,4,2,0,80,0,1
87282,-100,4,2,0,80,0,0
94890,-66.6666666666667,4,2,0,80,0,1
95366,-55.5555555555556,4,2,0,80,0,1
95699,-50,4,2,0,80,0,1
95782,-100,4,2,0,80,0,1
96032,-100,4,2,0,80,0,0
96282,-100,4,2,0,80,0,1
96365,-100,4,2,0,80,0,0
105699,-66.6666666666667,4,2,0,80,0,0
105865,-58.8235294117647,4,2,0,80,0,0
106032,-50,4,2,0,80,0,0
106532,-100,4,2,0,80,0,0
106699,-133.333333333333,4,2,0,80,0,0
107199,-100,4,2,0,80,0,0
110865,-153.846153846153,4,2,0,80,0,0
111032,-200,4,2,0,80,0,0
111199,-100,4,2,0,80,0,0
111865,-200,4,2,0,80,0,0
112032,-142.857142857143,4,2,0,80,0,0
112199,-125,4,2,0,80,0,0
112365,-100,4,2,0,80,0,0
117115,-142.857142857143,4,2,0,80,0,0
117365,-166.666666666667,4,2,0,80,0,0
117615,-200,4,2,0,80,0,0
118449,-100,4,2,0,80,0,0
121865,-200,4,2,0,80,0,0
122023,-66.6666666666667,4,2,0,80,0,0
122282,-50,4,2,0,80,0,0
122615,-100,4,2,0,80,0,0
125216,-142.857142857143,4,2,0,80,0,0
125365,-166.666666666667,4,2,0,80,0,0
125532,-200,4,2,0,80,0,0
127699,-142.857142857143,4,2,0,80,0,0
127865,-166.666666666667,4,2,0,80,0,0
128032,-200,4,2,0,80,0,0
129865,-50,4,2,0,80,0,0
130032,-50,4,2,0,80,0,0
130782,-100,4,2,0,80,0,0
131282,-100,4,2,0,80,0,1
140365,-200,4,2,0,80,0,1
140532,-142.857142857143,4,2,0,80,0,1
140699,-142.857142857143,4,2,0,80,0,1
141199,-100,4,2,0,80,0,1
141615,-100,4,2,0,80,0,0
141949,-100,4,2,0,80,0,1
149699,-200,4,2,0,80,0,1
150532,-100,4,2,0,60,0,1
150699,-100,4,2,0,80,0,1
150865,-200,4,2,0,80,0,1
151032,-166.666666666667,4,2,0,80,0,1
151199,-142.857142857143,4,2,0,80,0,1
151365,-66.6666666666667,4,2,0,80,0,1
151615,-58.8235294117647,4,2,0,80,0,1
151865,-50,4,2,0,80,0,1
152282,-100,4,2,0,80,0,0
152615,-100,4,2,0,80,0,1
156532,-125,4,2,0,80,0,1
156699,-142.857142857143,4,2,0,80,0,1
156865,-166.666666666667,4,2,0,80,0,1
157032,-200,4,2,0,80,0,1
157282,-100,4,2,0,80,0,1
157613,-100,4,2,0,80,0,0
157949,-100,4,2,0,80,0,1
158949,-100,4,2,0,80,0,0
159115,-100,4,2,0,80,0,1
159699,-142.857142857143,4,2,0,80,0,1
159865,-125,4,2,0,80,0,1
160115,-200,4,2,0,80,0,1
160449,-100,4,2,0,80,0,1
161949,-100,4,2,0,80,0,0
183032,-100,4,2,0,100,0,0
183199,-50,4,2,0,100,0,0
183282,-50,4,2,0,80,0,1
183365,-50,4,2,0,80,0,0
183449,-50,4,2,0,80,0,1
183532,-50,4,2,0,80,0,0
183615,-50,4,2,0,80,0,1
183699,-50,4,2,0,80,0,0
183782,-50,4,2,0,80,0,1
184115,-100,4,2,0,80,0,0
184282,-100,4,2,0,80,0,1
184365,-100,4,2,0,80,0,0
184615,-100,4,2,0,80,0,1
193615,-100,4,2,0,80,0,0
193782,-50,4,2,0,80,0,1
193865,-50,4,2,0,80,0,0
193949,-50,4,2,0,80,0,1
194199,-50,4,2,0,80,0,0
194282,-50,4,2,0,80,0,1
194375,-50,4,2,0,80,0,0
194449,-50,4,2,0,80,0,1
194532,-50,4,2,0,80,0,0
194620,-50,4,2,0,80,0,1
194699,-100,4,2,0,80,0,1
194949,-100,4,2,0,80,0,0
195282,-100,4,2,0,80,0,1
203032,-133.333333333333,4,2,0,80,0,1
203949,-100,4,2,0,80,0,0
204282,-50,4,2,0,80,0,1
204365,-50,4,2,0,80,0,0
204449,-50,4,2,0,80,0,1
204532,-50,4,2,0,80,0,0
204615,-50,4,2,0,80,0,1
204782,-50,4,2,0,80,0,0
204865,-50,4,2,0,80,0,1
204949,-50,4,2,0,80,0,0
205115,-50,4,2,0,80,0,1
205199,-50,4,2,0,80,0,0
205282,-50,4,2,0,80,0,1
205365,-100,4,2,0,80,0,1
205615,-100,4,2,0,80,0,0
205949,-100,4,2,0,80,0,1
213532,-50,4,2,0,80,0,1
213699,-50,4,2,0,31,0,1
214199,-50,4,2,0,52,0,1
214699,-50,4,2,0,79,0,1
215115,-50,4,2,0,100,0,1
215449,-100,4,2,0,80,0,0

[Colours]
Combo1 : 79,255,123
Combo2 : 128,128,255
Combo3 : 255,138,255
Combo4 : 255,139,83

[HitObjects]
88,96,616,2,0,B|80:184|80:184|144:240,1,162.5,2|0
176,248,1532,1,0
216,240,1615,1,4
352,168,1949,6,2,B|408:144|408:144|456:72,2,130,2|0|2
240,128,2949,1,0
88,176,3282,2,0,B|88:248|144:296,1,130,2|0
216,312,3782,1,0
256,312,3865,1,0
288,296,3949,1,2
344,240,4115,5,0
280,192,4282,1,0
352,160,4449,2,0,B|312:80|312:80|208:88,1,195,0|0
184,160,5115,1,0
120,112,5282,1,2
40,248,5615,2,0,B|88:304|88:304|160:312,1,130,0|2
184,304,6032,1,0
208,272,6115,2,0,B|208:240|208:240|184:192,2,65
272,320,6615,5,2
352,312,6782,1,0
400,240,6949,1,4
168,168,7199,6,0,B|104:192|104:192|88:264,1,130
88,288,7615,1,0
120,312,7699,1,0
160,304,7782,2,0,B|192:288|192:288|232:288,1,65,0|2
296,264,8115,1,0
328,192,8282,1,0
304,160,8365,1,0
264,152,8449,2,0,B|200:152|200:152|144:104,1,130
88,64,8949,5,0
40,120,9115,1,0
104,160,9282,2,0,B|160:200|160:200|168:264,1,130,2|0
240,232,9782,1,0
240,312,9949,1,2
312,272,10115,1,0
240,312,10282,1,2
168,272,10449,1,0
168,192,10615,1,2
152,160,10699,1,0
112,152,10782,1,0
32,152,10949,1,4
152,56,11282,6,0,B|224:56|224:56|272:120,2,130,2|8|2
112,72,12032,1,0
96,104,12116,1,0
152,152,12282,1,8
224,176,12449,2,0,B|176:240,1,65,0|2
264,240,12782,2,0,B|320:168,1,65,0|8
384,200,13116,1,0
384,240,13199,1,0
408,264,13282,1,2
488,272,13449,1,0
464,120,13782,6,0,B|464:48|464:48|392:0,1,130
376,24,14199,1,0
360,56,14282,1,8
232,144,14616,2,0,B|176:144|176:144|152:168,1,65,2|0
216,216,14949,2,0,B|264:216|264:216|280:232,1,65,8|0
224,288,15282,2,0,B|176:288|176:288|160:304,1,65,2|0
136,328,15532,1,0
96,328,15616,1,8
24,312,15782,2,0,B|24:232|24:232|56:192,1,130
192,104,16449,5,0
224,128,16532,1,0
264,136,16616,2,0,B|264:208|264:208|200:240,1,130,2|8
352,312,17282,5,2
312,304,17366,1,0
288,280,17449,2,0,B|288:208|288:208|339:182,1,130
376,112,17949,6,0,B|432:48,1,65,2|0
464,104,18282,1,8
456,152,18449,1,0
424,176,18616,1,2
384,176,18782,1,0
304,176,19115,2,0,B|232:176|232:176|184:256|184:256|144:184|144:184|136:168,1,260,0|4
24,288,20782,5,4
176,48,21115,1,4
216,200,21282,1,2
344,288,21615,1,4
456,168,21949,1,2
336,64,22282,6,0,B|304:72|304:72|264:112,2,65,0|0|2
360,136,22782,1,0
352,216,22949,2,0,B|384:216|384:216|424:184,2,65,0|0|2
272,216,23449,1,0
224,280,23615,2,0,B|136:280|136:280|96:256,1,130,0|2
80,224,24032,1,0
80,184,24115,1,0
120,120,24282,1,0
200,112,24449,2,0,B|328:64|328:64|400:88|400:88|432:168|432:168|432:168,1,292.5
248,184,25615,5,0
288,248,25782,1,0
248,184,25949,1,2
200,240,26115,1,0
248,184,26282,1,0
216,112,26449,2,0,B|248:104|248:104|296:120,1,65,0|2
424,176,26949,1,0
336,304,27282,1,2
264,288,27449,1,0
192,304,27615,1,0
96,176,27949,1,2
216,80,28282,6,0,B|296:80|296:80|320:136,1,130,0|2
160,104,28949,2,0,B|184:144|184:144|288:144,1,130,0|2
328,192,29449,1,0
272,240,29615,1,0
192,240,29949,2,0,B|80:240|80:240|24:176,1,195,2|0
8,144,30532,1,0
24,112,30615,1,2
96,72,30782,1,0
160,112,30949,5,0
200,72,31115,1,0
224,64,31199,1,0
256,72,31282,1,6
376,104,31449,1,4
304,240,31615,1,4
200,160,31782,1,4
64,232,32115,1,0
88,264,32199,1,0
128,280,32282,1,0
168,288,32365,1,0
208,288,32449,1,0
248,280,32532,1,0
280,264,32615,1,2
376,136,32949,5,0
320,80,33115,1,0
240,80,33282,2,0,B|208:72|208:72|160:88,1,65,2|0
144,96,33532,1,0
128,136,33615,1,0
200,168,33782,1,0
256,224,33949,2,0,B|232:240|232:240|192:248,1,65,2|0
120,256,34282,2,0,B|56:224|56:224|48:144,1,130,0|2
80,96,34782,1,0
144,56,34949,1,0
184,40,35032,1,0
224,56,35115,2,0,B|320:96|320:96|328:200,1,194.999994188547
160,88,36115,5,0
120,240,36282,1,0
16,128,36449,2,0,B|112:168|112:168|192:168,1,162.5
408,256,37282,5,2
384,288,37365,1,0
344,296,37449,1,0
272,296,37615,2,0,B|200:296|200:296|144:272,2,130,0|2|0
320,232,38449,1,0
320,152,38615,2,0,B|264:112|264:112|176:112,1,130,2|0
168,128,39032,1,0
128,120,39115,1,0
64,176,39282,1,2
144,40,39616,5,0
296,56,39949,2,0,B|296:128|296:128|344:168,2,130,2|0|2
440,112,40949,1,0
408,184,41116,1,0
368,200,41199,1,0
328,192,41282,1,2
272,136,41449,1,0
240,64,41616,1,0
176,112,41782,1,4
32,176,42116,1,0
104,208,42282,1,0
88,288,42449,1,0
160,320,42616,5,2
200,328,42699,1,0
240,320,42782,1,0
392,304,43116,2,0,B|296:272|296:272|296:160,1,195
232,136,43782,1,0
160,104,43949,2,0,B|120:48,2,65,2|0|0
88,144,44449,1,0
136,200,44616,1,2
72,240,44782,1,0
144,280,44949,2,0,B|216:280|216:280|280:240,2,130,0|2|0
296,328,45949,5,6
376,320,46116,1,0
328,256,46282,1,0
400,232,46449,2,0,B|416:184|408:152,1,65,0|2
368,104,46782,1,0
296,64,46949,1,0
112,56,47282,1,6
160,192,47449,1,0
24,288,47782,1,4
176,336,48116,1,0
216,344,48199,1,0
256,328,48282,1,0
328,304,48449,1,0
384,248,48616,6,0,B|384:176|384:176|336:128,1,130,2|0
312,112,49032,1,0
272,128,49116,1,0
208,176,49282,1,2
168,112,49449,1,0
120,176,49616,1,0
88,104,49782,2,0,B|40:152|40:152|56:224,1,130
72,248,50199,1,0
112,256,50282,1,0
176,272,50449,5,0
216,296,50616,1,2
272,296,50782,1,0
328,272,50949,1,0
360,248,51116,2,0,B|400:168|400:168|312:112|312:112|256:160|256:160|224:160,1,292.5,4|2
200,272,53116,1,0
160,304,53282,1,2
104,296,53449,1,0
56,256,53616,1,0
32,224,53782,2,0,B|16:160|16:160|88:112|88:112|160:168|160:168|176:168,1,260,4|0
256,88,55282,1,6
368,120,55449,1,4
264,200,55616,1,4
408,264,55782,1,4
104,192,56282,5,0
224,288,56616,1,2
296,256,56782,1,0
360,296,56949,2,0,B|384:272|384:272|384:232,1,65
376,200,57199,1,0
352,168,57282,1,2
272,160,57449,1,0
192,160,57616,2,0,B|80:160|80:160|32:256,1,195
120,232,58282,1,0
128,312,58449,1,0
192,264,58616,1,2
264,288,58782,5,0
304,296,58866,1,0
344,280,58949,2,0,B|400:232|400:232|400:152,1,130,0|2
344,120,59449,1,0
264,112,59616,2,0,B|200:128|200:128|184:200,1,130,0|2
48,264,60282,1,0
72,192,60449,1,0
136,232,60616,1,2
72,192,60782,1,0
128,136,60949,1,0
200,104,61116,1,0
352,104,61449,6,0,B|288:104,2,65
392,112,61866,1,0
416,144,61949,1,2
416,232,62116,1,0
352,280,62282,1,0
240,304,62532,2,0,B|168:304|168:304|112:248,2,130
280,288,63282,1,2
288,248,63366,1,0
232,144,63616,1,0
160,120,63782,1,0
88,152,63949,1,2
56,224,64282,5,0
80,264,64449,1,0
120,224,64616,1,6
144,280,64782,1,0
176,216,64949,1,0
208,288,65116,1,0
248,208,65282,1,6
264,248,65366,1,0
304,264,65449,1,0
424,64,65782,5,4
368,176,65949,1,6
224,40,66199,1,4
208,248,66449,1,4
88,144,66616,1,6
56,296,66949,5,0
80,328,67032,1,0
120,328,67116,1,0
200,328,67282,2,0,B|288:328|288:328|328:304,1,130,2|0
264,256,67782,2,0,B|296:224|296:224|408:224,1,130
416,208,68199,1,0
424,168,68282,2,0,B|424:96|424:96|384:56|384:56|312:56|312:56|272:104,1,260
240,120,69032,1,0
208,104,69116,1,0
128,112,69282,2,0,B|104:176|104:176|152:248,1,130,2|0
216,208,69782,1,0
224,288,69949,1,2
288,240,70116,5,0
368,248,70282,1,0
400,232,70366,1,0
416,200,70449,1,0
424,120,70616,2,0,B|376:80|376:80|296:80,1,130,2|0
192,80,71282,1,2
144,88,71449,1,0
96,120,71616,1,0
80,176,71782,1,0
152,304,72116,5,0
184,328,72199,1,0
224,328,72282,1,0
304,328,72449,2,0,B|400:288|400:288|448:208,1,195
448,128,73116,1,0
416,56,73282,1,2
376,48,73366,1,0
336,56,73449,1,0
256,64,73616,2,0,B|184:96|184:96|168:168,2,130,0|2|0
104,72,74616,5,2
56,136,74782,1,0
120,184,74949,1,0
56,232,75116,2,0,B|56:272,10,32.5,0|0|2|0|0|0|0|0|0|0|2
72,120,76282,1,4
128,232,76449,1,0
176,104,76616,1,6
216,320,76866,1,0
296,112,77116,1,4
360,256,77282,1,6
424,112,77616,1,0
280,64,77949,5,2
224,120,78116,1,0
160,80,78282,1,0
104,136,78449,1,0
48,192,78616,2,0,B|16:232|16:248|16:328,2,130,2|0|2
88,176,79365,1,0
128,192,79449,1,0
208,176,79615,1,0
248,240,79782,2,0,B|352:240|352:240|424:168,1,195
376,104,80449,5,0
336,96,80532,1,0
296,112,80615,1,2
216,120,80782,1,0
136,120,80949,2,0,B|56:120|56:120|8:160,1,130,0|2
88,192,81449,1,0
16,224,81615,2,0,B|40:264|40:264|136:264,1,130,0|2
200,352,82115,1,0
312,240,82282,1,0
248,96,82449,1,0
184,72,82615,1,2
128,88,82782,1,0
104,120,82949,1,0
64,184,83115,5,0
56,224,83199,1,0
80,256,83282,1,2
216,320,83615,2,0,B|288:320|288:320|336:288,1,130,0|2
280,232,84115,1,0
344,200,84282,1,0
392,136,84449,1,0
344,72,84615,1,2
304,136,84782,1,0
264,64,84949,1,0
224,136,85115,1,0
184,72,85282,2,0,B|144:128|144:128|176:192,1,130,2|0
208,208,85699,5,0
248,184,85782,1,0
280,208,85865,1,0
312,184,85949,1,2
256,192,86032,12,0,87282
144,72,94949,5,0
200,48,95032,1,0
256,64,95115,1,4
504,192,95449,1,4
352,184,95782,1,4
320,208,95865,1,0
280,208,95949,1,6
360,72,96282,5,0
80,192,96949,5,0
104,224,97032,1,0
144,224,97115,1,0
184,224,97199,1,0
224,224,97282,2,0,B|272:240|272:240|288:272,1,65,2|0
240,320,97615,1,0
320,320,97782,1,0
352,296,97865,1,0
360,264,97949,2,0,B|360:184|360:184|304:136,1,130,2|0
256,112,98449,1,0
184,88,98615,2,0,B|184:176|184:176|224:216,1,130,2|0
288,200,99115,6,0,B|208:240|208:240|208:288|208:288|248:328|248:328|368:280,1,325,0|2
408,280,100032,1,0
448,288,100115,1,0
448,208,100282,1,0
376,176,100449,1,0
440,128,100615,1,2
376,176,100782,1,0
368,96,100949,1,0
376,176,101115,1,0
304,144,101282,1,2
408,264,101615,2,0,B|336:256|336:256|288:208,1,130,0|2
176,312,102282,5,0
32,248,102615,1,2
40,96,102949,1,0
184,32,103282,1,2
224,32,103365,1,0
264,40,103449,1,0
336,64,103615,1,0
480,128,103949,1,2
440,128,104032,1,0
400,112,104115,1,0
312,136,104282,2,0,B|312:216|312:216|280:264,2,130,0|2|0
240,120,105115,1,0
200,112,105199,1,0
160,128,105282,1,2
16,192,105615,5,0
96,280,105782,1,0
128,152,105949,1,2
176,304,106115,1,0
208,152,106282,1,0
328,256,106449,1,0
360,144,106782,1,0
328,144,106865,1,0
320,112,106949,1,0
296,136,107032,1,0
288,104,107115,1,0
272,128,107199,1,0
248,104,107282,2,0,B|184:128|184:128|184:216,1,130,6|0
264,208,107782,5,0
208,264,107949,1,2
128,248,108115,1,0
64,104,108449,1,0
136,80,108615,1,2
296,80,108949,1,0
432,160,109282,1,2
448,192,109365,1,0
440,232,109449,1,0
376,272,109615,1,0
296,272,109782,2,0,B|256:272|256:272|176:336|176:336|160:336|160:336|72:280|72:280,1,260
40,264,110532,1,0
16,232,110615,1,2
56,160,110782,5,4
80,112,110949,5,4
120,88,111115,5,4
312,80,111949,5,2
352,112,112115,1,0
376,168,112282,1,0
312,312,112615,2,0,B|312:256|312:256|368:192,2,130,2|0|2
344,336,113365,1,0
384,320,113449,2,0,B|384:280|384:280|416:248,2,65
344,336,113865,1,0
312,312,113949,1,2
288,160,114282,2,0,B|288:232|288:232|248:288,1,130,0|2
224,128,114949,2,0,B|224:56|224:56|256:0,2,130,0|2|0
192,152,115699,1,0
152,160,115782,1,0
112,152,115865,1,0
80,128,115949,1,2
48,288,116282,5,0
200,328,116615,1,2
352,296,116949,1,0
384,192,117282,1,2
384,144,117449,1,0
336,88,117782,2,0,B|288:48|288:48|240:48,1,97.5
104,48,118615,1,2
48,104,118782,1,0
200,120,119115,2,0,B|200:208|200:208|272:128,1,195
424,128,119949,5,2
344,144,120115,1,0
272,176,120282,1,0
128,248,120615,2,0,B|160:288|160:288|256:288,1,130,2|0
392,288,121282,1,2
488,160,121615,1,0
440,96,121949,1,6
336,48,122115,1,4
56,192,122449,1,4
256,312,122949,1,0
408,280,123282,6,0,B|432:256|432:256|448:208,1,65,2|0
400,160,123615,2,0,B|384:192|384:192|384:232,1,65
328,272,123949,2,0,B|360:280|360:280|408:272,1,65,2|0
448,216,124282,2,0,B|416:208|416:208|368:216,1,65
344,216,124532,1,0
304,208,124615,1,2
240,160,124782,1,0
176,112,124949,1,0
240,160,125115,1,0
248,216,125282,1,2
216,256,125449,1,0
176,272,125615,1,0
136,272,125782,2,0,B|80:256|48:208|56:144|112:112|192:160,1,260,4|0
376,264,127782,5,0
424,248,127949,1,2
440,216,128115,1,0
432,176,128282,1,0
408,144,128449,2,0,B|392:120|296:96|224:160|232:232|216:224,1,227.5,4|0
88,288,129949,5,2
208,192,130115,5,0
64,136,130282,5,0
160,256,130449,5,0
384,192,130949,5,4
280,72,131282,1,2
248,48,131365,1,0
208,56,131449,1,0
152,104,131615,1,0
224,128,131782,1,0
320,144,131949,1,2
296,176,132032,1,0
264,192,132115,1,0
184,192,132282,2,0,B|224:256|224:256|344:264,1,195
416,224,132949,2,0,B|368:184|368:184|424:144,2,130,0|2|0
440,256,133699,1,0
424,288,133782,1,0
344,296,133949,2,0,B|232:296|232:296|144:240,1,195,2|0
128,232,134532,1,0
120,192,134615,1,2
256,112,134949,5,0
408,120,135282,1,2
344,168,135449,1,0
408,208,135615,1,0
336,240,135782,1,0
344,168,135949,1,2
272,200,136115,1,0
232,216,136199,1,0
192,200,136282,1,0
120,168,136449,1,0
288,328,136949,5,0
120,320,137282,1,2
48,280,137449,1,0
120,248,137615,1,0
120,320,137782,1,0
192,280,137949,1,2
120,248,138115,1,0
104,216,138199,1,0
104,176,138282,1,0
160,120,138449,2,0,B|216:72|216:72|296:72,1,130,0|0
312,80,138865,1,0
320,120,138949,2,0,B|304:176|304:176|240:224,1,130,0|2
128,320,139615,5,0
280,272,139949,1,2
368,192,140449,1,0
368,136,140615,1,2
336,64,140865,1,0
256,48,141115,1,0
184,72,141282,1,2
88,192,141615,1,4
192,312,141949,1,2
344,312,142282,1,0
408,264,142449,1,0
288,168,142782,5,0
248,160,142865,1,0
208,168,142949,2,0,B|168:216|168:216|168:288,2,130,0|2|0
328,72,143949,1,2
184,144,144282,1,0
336,192,144615,2,0,B|384:216|384:216|280:328,1,195,2|0
248,336,145199,1,0
208,328,145282,2,2,B|96:224|96:224|136:192,1,195,2|0
160,176,145865,1,0
200,176,145949,1,2
256,120,146115,1,0
328,88,146282,1,0
408,80,146449,2,0,B|464:120|464:120|464:200,1,130
392,200,146949,5,0
344,248,147115,2,0,B|208:248|208:248|152:312,1,195
48,176,147949,1,2
168,72,148282,1,0
320,72,148615,2,0,B|368:120|368:120|368:208,2,130,2|0|2
280,72,149365,1,0
248,96,149449,1,0
240,176,149615,1,0
232,256,149782,2,0,B|228:252|228:252|228:256|228:256|224:252|224:252|224:256|224:256|220:252|220:252|220:256|220:256|216:252|216:252|216:256|216:256|212:252|212:252|212:256|212:256|208:252|208:252|208:256|208:256|204:252|204:252|204:256|204:256|200:252|200:252|200:256|200:256|196:252|196:252|196:256|196:256|192:252|192:252|192:256|192:256|188:252|188:252|188:256|188:256|184:252|184:252|184:256|184:256|180:252|180:252|180:256|180:256|176:252|176:252|176:256|176:256|172:252|172:252|172:256|172:256|152:256,1,162.5,6|0
144,176,150949,1,0
160,128,151115,1,0
200,96,151282,1,2
392,160,151532,5,0
192,184,151782,1,0
272,320,151949,1,2
424,296,152282,1,0
400,144,152615,2,0,B|360:96|360:96|272:96,2,130,2|0|2
336,192,153449,1,0
400,232,153615,1,0
376,264,153699,1,0
336,272,153782,1,0
256,272,153949,2,0,B|200:224|200:224|200:144,1,130,2|0
176,136,154365,1,0
136,136,154449,1,0
32,248,154782,5,0
168,312,155115,2,0,B|216:312|216:312|288:232,1,130
304,240,155532,1,0
344,248,155615,1,0
416,224,155782,1,0
360,168,155949,1,2
232,72,156282,1,0
112,88,156615,1,2
72,128,156782,1,0
56,176,156949,1,0
56,216,157115,1,0
256,320,157616,5,0
408,272,157949,1,2
440,248,158032,1,0
448,208,158116,1,0
432,128,158282,2,0,B|384:96|384:96|312:96,1,130,0|2
256,152,158782,1,0
208,88,158949,1,0
176,160,159116,2,0,B|128:216|128:216|128:288,1,130
144,304,159532,1,0
184,320,159616,1,0
240,320,159782,1,0
304,312,159949,1,6
368,272,160282,1,0
416,208,160449,1,4
256,192,160616,12,2,161949
112,136,174449,5,0
144,120,174532,1,0
184,120,174615,1,6
264,112,174782,1,0
312,176,174949,1,0
384,144,175115,1,4
368,296,175449,2,0,B|304:352|304:352|232:352,2,130
216,272,176449,1,0
96,176,176782,1,0
88,136,176865,1,0
104,96,176949,1,0
184,80,177115,1,0
376,176,178282,1,4
232,248,178615,1,2
200,272,178699,1,0
160,272,178782,1,0
88,240,178949,1,0
56,168,179115,1,0
80,136,181115,5,0
96,176,181199,1,0
120,200,181282,1,2
192,240,181449,1,0
272,240,181615,1,0
344,208,181782,1,0
48,168,183116,5,4
168,72,183282,1,6
312,128,183449,1,4
296,280,183616,1,4
144,312,183782,1,4
352,208,184282,5,0
200,192,184616,2,0,B|144:192|144:192|96:128,1,130,2|0
112,96,185032,1,0
152,88,185116,1,0
248,88,185282,1,2
328,88,185449,1,0
368,88,185532,1,0
392,120,185616,2,0,B|368:192|368:192|288:192,1,130,0|2
256,336,186282,5,0
200,280,186449,1,0
256,224,186616,1,2
312,176,186782,1,0
256,120,186949,1,0
192,72,187116,1,0
256,24,187282,2,0,B|256:168,2,130,2|0|2
256,154,188282,5,0
408,192,188616,1,2
328,192,188782,1,0
408,192,188949,1,0
368,256,189116,1,0
288,256,189282,1,2
248,184,189449,1,0
296,120,189616,1,0
376,120,189782,1,0
152,192,190282,1,0
256,328,190616,5,2
328,304,190782,1,0
280,248,190949,1,0
208,264,191116,1,0
120,264,191282,1,2
88,248,191366,1,0
72,208,191449,1,0
104,136,191616,1,0
192,128,191782,2,0,B|256:128,2,65,0|2|0
104,136,192282,1,0
64,64,192449,1,0
144,72,192616,1,2
256,176,192949,5,0
432,184,193282,1,2
344,312,193616,1,0
184,312,193782,1,0
88,192,193949,1,6
256,24,194199,1,4
432,184,194449,1,4
344,312,194616,1,6
256,192,194949,1,0
128,120,195282,5,2
152,88,195366,1,0
192,88,195449,1,0
256,136,195616,1,0
320,88,195782,1,0
360,88,195866,1,0
384,120,195949,1,2
392,200,196116,1,0
312,208,196282,2,0,B|272:208|272:208|192:296,2,130,0|2|0
352,208,197032,1,0
392,200,197116,1,0
448,144,197282,5,2
384,96,197449,1,0
312,144,197616,1,0
256,88,197782,1,0
224,160,197949,2,0,B|176:208|176:208|176:296,1,130,2|0
208,296,198366,1,0
248,296,198449,1,0
304,240,198616,2,0,B|280:192|280:192|176:192,1,130,2|0
128,144,199116,5,0
192,80,199282,1,2
232,152,199449,1,0
200,224,199616,1,0
240,288,199782,1,0
272,304,199866,1,0
312,296,199949,1,2
352,232,200116,1,0
336,152,200282,1,0
384,88,200449,2,0,B|440:128|440:128|440:272,1,195
312,336,201282,5,2
168,288,201616,1,0
240,152,201949,1,2
104,72,202282,1,0
272,40,202616,1,2
344,72,202782,1,0
352,152,202949,1,0
264,232,203116,2,0,B|256:240|256:240|272:240|272:240|256:248|256:248|272:248|272:248|256:256|256:256|272:256|272:256|256:264|256:264|272:264|272:264|256:272|256:272|272:272|272:272|256:280|256:280|272:280|272:280|264:288|264:288|264:336,1,243.749992735684,0|2
48,72,204282,5,0
200,120,204449,1,0
360,64,204616,1,2
256,272,204866,1,0
32,200,205116,1,0
120,328,205282,1,2
168,176,205616,1,0
312,104,205949,5,2
352,120,206032,1,0
368,152,206116,1,0
384,232,206282,1,0
304,240,206449,1,0
304,320,206616,1,2
232,288,206782,1,0
160,320,206949,1,0
96,280,207116,1,0
160,320,207282,1,2
168,224,207449,5,0
144,192,207532,1,0
104,184,207616,1,0
56,120,207782,1,0
208,96,208116,1,0
368,88,208449,5,0
400,112,208532,1,0
408,152,208616,1,2
336,184,208782,1,0
400,232,208949,2,0,B|368:304|368:304|296:304,1,130,0|2
256,256,209449,1,0
200,312,209616,1,0
64,232,209949,5,2
40,200,210032,1,0
40,160,210116,1,0
64,88,210282,1,0
136,64,210449,1,0
360,128,210949,1,0
216,192,211282,1,2
360,264,211616,1,0
496,192,211949,1,2
288,88,212449,5,0
256,72,212532,1,0
216,80,212616,1,2
152,120,212782,2,0,B|152:184,1,65
232,184,213116,2,0,B|232:256,1,65,0|2
296,296,213449,1,0
448,256,213616,1,0
392,112,213782,2,0,B|432:112,36,32.5,0|0|0|0|0|0|0|0|0|0|0|0|0|0|0|0|0|0|0|0|0|0|0|0|0|0|0|0|0|0|0|0|0|0|0|4|0
