osu file format v12

[General]
AudioFilename: Infinite Challenge - Hana Mana Song (Original Ver.).mp3
AudioLeadIn: 1500
PreviewTime: 61842
Countdown: 0
SampleSet: Normal
StackLeniency: 0.7
Mode: 0
LetterboxInBreaks: 0

[Editor]
Bookmarks: 577,15697,23377,31057,38737,46417,54097,61750,69430,77110
DistanceSpacing: 1
BeatDivisor: 4
GridSize: 4

[Metadata]
Title:Hana Mana Song (Original Ver.)
TitleUnicode:하나마나송 (Original Ver.)
Artist:Infinite Challenge
ArtistUnicode:무한도전
Creator:Sonnyc
Version:Hard
Source:Infinite Challenge
Tags:yoo jae seok park myeong su no hong chul jung jun ha jeong hyeong don ha dong hoon muhan dojeon
BeatmapID:190562
BeatmapSetID:64891

[Difficulty]
HPDrainRate:5
CircleSize:4
OverallDifficulty:5
ApproachRate:7
SliderMultiplier:1.7
SliderTickRate:2

[Events]
//Background and Video events
0,0,"IC.jpg",0,0
//Break Periods
//Storyboard Layer 0 (Background)
//Storyboard Layer 1 (Fail)
//Storyboard Layer 2 (Pass)
//Storyboard Layer 3 (Foreground)
//Storyboard Sound Samples
//Background Colour Transformations
3,100,163,162,255

[TimingPoints]
642,480,4,1,0,45,1,0
2562,-100,4,1,0,55,0,0
4482,-100,4,1,0,60,0,0
62082,-100,4,1,0,65,0,1
77202,-100,4,1,0,65,0,0

[Colours]
Combo1 : 255,150,0
Combo2 : 5,240,5
Combo3 : 5,5,240
Combo4 : 240,5,5

[HitObjects]
80,168,642,6,0,P|100:120|128:112,1,85,2|0,0:0|0:0,0:0:0:0:
200,160,1122,1,2,0:2:0:0:
260,220,1362,2,0,P|344:192|344:92,1,170,2|0,0:0|0:0,0:0:0:0:
296,60,2082,1,8,0:0:0:0:
480,124,2562,6,0,P|480:172|456:200,1,85,2|0,0:0|0:0,0:0:0:0:
372,204,3042,1,2,0:2:0:0:
332,280,3282,1,2,0:0:0:0:
280,212,3522,5,4,3:0:0:0:
113,240,4002,1,8,3:0:0:0:
136,72,4482,6,0,P|184:68|216:84,1,85,2|0,0:0|0:0,0:0:0:0:
160,148,4962,1,2,0:2:0:0:
220,212,5202,2,0,P|288:248|376:208,1,170,2|0,0:0|0:0,0:0:0:0:
392,132,5922,2,0,P|344:132|312:100,1,85,8|0,0:0|0:0,0:0:0:0:
380,52,6402,6,0,P|424:52|464:80,2,85,2|0|2,0:0|0:0|0:2,0:0:0:0:
296,32,7122,2,0,P|224:60|220:156,1,170,2|0,0:0|0:0,0:0:0:0:
296,120,7842,5,8,0:3:0:0:
296,120,8082,1,0,0:0:0:0:
340,192,8322,6,0,P|360:232|344:272,1,85,2|0,0:0|0:0,0:0:0:0:
272,304,8802,1,2,0:2:0:0:
192,276,9042,2,0,B|152:292|124:328|124:328|88:308|40:312,1,170,2|0,0:0|0:0,0:0:0:0:
16,232,9762,1,8,0:0:0:0:
100,228,10002,1,0,0:0:0:0:
60,152,10242,6,0,P|88:120|132:108,1,85,2|0,0:0|0:0,0:0:0:0:
168,184,10722,2,0,P|200:184|244:152,1,85,2|2,0:2|0:0,0:0:0:0:
216,72,11202,5,4,3:0:0:0:
380,116,11682,1,8,3:0:0:0:
372,284,12162,6,0,P|348:328|308:332,2,85,2|0|2,0:0|0:0|0:2,0:0:0:0:
336,208,12882,2,0,P|280:148|220:192,1,170,2|0,0:0|0:0,0:0:0:0:
268,260,13602,1,8,0:0:0:0:
188,292,13842,1,0,0:0:0:0:
116,248,14082,6,0,P|92:204|100:160,1,85,2|0,0:0|0:0,0:0:0:0:
144,100,14562,1,2,0:2:0:0:
196,168,14802,2,0,P|268:160|312:80,1,170,2|0,0:0|0:0,0:0:0:0:
312,80,15522,1,8,0:0:0:0:
392,104,15762,6,0,L|432:184,2,85
311,80,16482,1,2,0:2:0:0:
288,160,16722,2,0,P|252:224|152:216,1,170,2|0,0:0|0:0,0:0:0:0:
176,140,17442,2,0,P|124:148|96:184,1,85,8|0,0:0|0:0,0:0:0:0:
80,252,17922,5,0,0:0:0:0:
68,336,18162,1,0,0:0:0:0:
148,304,18402,1,2,0:2:0:0:
164,220,18642,2,0,P|244:204|328:232,1,170,2|0,0:0|0:0,0:0:0:0:
384,292,19362,2,0,P|344:312|304:312,1,85,8|0,0:0|0:0,0:0:0:0:
224,284,19842,5,0,0:0:0:0:
224,284,20082,1,0,0:0:0:0:
264,208,20322,1,2,0:2:0:0:
264,208,20562,1,0,0:0:0:0:
184,176,20802,2,0,L|88:144,1,85
132,68,21282,2,0,L|228:100,1,85,8|0,0:0|0:0,0:0:0:0:
296,116,21762,6,0,P|356:176|336:252,1,170,2|2,0:0|0:2,0:0:0:0:
272,196,22482,1,0,0:0:0:0:
188,216,22722,2,0,L|104:240,2,85,4|0|8,0:3|0:0|0:3,0:0:0:0:
244,280,23442,6,0,L|260:328,2,42.5
188,216,23922,1,0,0:0:0:0:
160,296,24162,1,2,0:2:0:0:
104,232,24402,2,0,P|68:180|112:76,1,170,2|0,0:0|0:0,0:0:0:0:
168,136,25122,2,0,P|196:120|216:68,1,85,8|0,0:0|0:0,0:0:0:0:
296,44,25602,6,0,P|340:56|364:88,1,85
312,156,26082,1,2,0:2:0:0:
368,220,26322,2,0,P|368:264|264:324,1,170,2|0,0:0|0:0,0:0:0:0:
224,256,27042,2,0,P|184:284|184:332,1,85,8|0,0:0|0:0,0:0:0:0:
100,292,27522,6,0,P|112:248|136:216,1,85
196,156,28002,2,0,P|232:132|256:96,1,85,2|0,0:2|0:0,0:0:0:0:
188,48,28482,2,0,P|152:72|128:108,1,85
196,156,28962,2,0,P|232:132|256:96,1,85,8|0,0:0|0:0,0:0:0:0:
304,28,29442,5,2,0:0:0:0:
388,28,29682,1,0,0:0:0:0:
436,96,29922,1,2,0:2:0:0:
408,176,30162,1,0,0:0:0:0:
340,128,30402,2,0,P|320:184|324:216,1,85,4|0,0:3|0:0,0:0:0:0:
340,292,30882,1,8,0:3:0:0:
260,316,31122,6,0,P|216:316|180:288,1,85
164,208,31602,1,0,0:0:0:0:
248,228,31842,1,2,0:2:0:0:
232,144,32082,2,0,P|180:80|96:88,1,170,2|0,0:0|0:0,0:0:0:0:
64,164,32802,2,0,P|116:168|160:148,1,85,8|0,0:0|0:0,0:0:0:0:
188,84,33282,5,0,0:0:0:0:
260,40,33522,1,0,0:0:0:0:
332,84,33762,1,2,0:2:0:0:
292,160,34002,2,0,P|304:228|408:240,1,170,2|0,0:0|0:0,0:0:0:0:
476,228,34722,2,0,P|468:284|444:312,1,85,8|0,0:0|0:0,0:0:0:0:
376,348,35202,6,0,P|340:360|288:356,2,85,0|0|2,0:0|0:0|0:2,0:0:0:0:
372,264,35922,1,0,0:0:0:0:
320,196,36162,2,0,P|268:200|236:228,1,85
220,300,36642,2,0,P|172:316|132:300,1,85,8|0,0:0|0:0,0:0:0:0:
96,232,37122,6,0,P|72:192|84:148,2,85,2|0|2,0:0|0:0|0:2,0:0:0:0:
160,176,37842,2,0,P|184:104|280:80,1,170
352,92,38562,1,8,0:3:0:0:
396,164,38802,6,0,L|420:212,2,42.5
312,164,39282,1,0,0:0:0:0:
256,228,39522,1,2,0:2:0:0:
308,296,39762,2,0,P|232:344|148:304,1,170,2|0,0:0|0:0,0:0:0:0:
120,244,40482,2,0,P|164:228|204:248,1,85,8|0,0:0|0:0,0:0:0:0:
162,320,40962,5,0,0:0:0:0:
76,316,41202,1,0,0:0:0:0:
36,240,41442,1,2,0:2:0:0:
120,244,41682,2,0,P|144:188|88:104,1,170,2|0,0:0|0:0,0:0:0:0:
4,96,42402,2,0,P|8:140|40:172,1,85,8|0,0:0|0:0,0:0:0:0:
88,104,42882,6,0,P|140:44|228:72,1,170,0|2,0:0|0:2,0:0:0:0:
264,136,43602,1,0,0:0:0:0:
184,164,43842,2,0,P|192:216|220:236,1,85
180,312,44322,2,0,P|220:348|260:344,1,85,8|0,0:0|0:0,0:0:0:0:
332,332,44802,6,0,P|312:296|272:272,2,85,2|0|2,0:0|0:0|0:2,0:0:0:0:
408,296,45522,1,0,0:0:0:0:
432,216,45762,2,0,P|404:124|332:92,1,170,4|8,0:3|0:3,0:0:0:0:
260,88,46482,5,0,0:0:0:0:
296,164,46722,1,0,0:0:0:0:
212,156,46962,1,0,0:0:0:0:
60,224,47442,2,0,P|80:308|172:308,1,170,2|0,0:0|0:0,0:0:0:0:
212,260,48162,1,8,0:0:0:0:
240,340,48402,1,0,0:0:0:0:
296,276,48642,6,0,P|340:288|372:316,2,85,0|0|2,0:0|0:0|0:2,0:0:0:0:
212,260,49362,2,0,P|152:208|168:120,1,170,2|0,0:0|0:0,0:0:0:0:
244,92,50082,2,0,P|248:140|228:176,1,85,8|0,0:0|0:0,0:0:0:0:
148,192,50562,6,0,P|112:200|56:176,2,85,0|0|2,0:0|0:0|0:2,0:0:0:0:
140,108,51282,1,0,0:0:0:0:
208,60,51522,2,0,P|240:104|232:144,1,85
308,180,52002,2,0,P|276:220|240:224,1,85,8|0,0:0|0:0,0:0:0:0:
160,244,52482,6,0,P|172:276|216:304,2,85,2|0|2,0:0|0:0|0:2,0:0:0:0:
184,160,53202,1,0,0:0:0:0:
156,80,53442,2,0,L|72:64,2,85,4|0|8,0:3|0:0|0:3,0:0:0:0:
240,96,54162,5,0,0:0:0:0:
272,176,54402,1,0,0:0:0:0:
328,112,54642,1,0,0:0:0:0:
400,264,55122,2,0,P|480:232|476:148,1,170,2|0,0:0|0:0,0:0:0:0:
444,84,55842,2,0,P|408:120|408:164,1,85,8|0,0:0|0:0,0:0:0:0:
332,196,56322,5,0,0:0:0:0:
328,112,56562,1,0,0:0:0:0:
248,84,56802,1,2,0:2:0:0:
252,168,57042,2,0,P|204:244|264:292,1,170,2|0,0:0|0:0,0:0:0:0:
336,308,57762,2,0,P|312:360|268:364,1,85,8|0,0:0|0:0,0:0:0:0:
204,366,58242,6,0,L|112:366,1,85
76,292,58722,2,0,L|164:292,1,85,2|0,0:2|0:0,0:0:0:0:
204,220,59202,2,0,P|216:180|252:148,1,85
296,220,59682,2,0,P|308:260|348:284,1,85,8|0,0:0|0:0,0:0:0:0:
376,204,60162,6,0,P|412:192|436:152,1,85,2|0,0:0|0:0,0:0:0:0:
360,116,60642,1,2,0:2:0:0:
280,88,60882,1,0,0:0:0:0:
232,156,61122,2,0,P|188:156|156:132,2,85,4|0|8,0:3|0:0|0:3,0:0:0:0:
268,232,61842,5,0,0:0:0:0:
268,232,61962,1,0,0:0:0:0:
268,232,62082,2,0,P|248:272|208:288,2,85,4|0|2,0:0|0:0|0:2,0:0:0:0:
264,148,62802,2,0,P|224:60|136:56,1,170,2|0,0:0|0:0,0:0:0:0:
80,76,63522,2,0,P|108:120|148:128,1,85,8|0,0:0|0:0,0:0:0:0:
164,208,64002,6,0,P|136:252|104:268,2,85,0|0|2,0:0|0:0|0:2,0:0:0:0:
212,136,64722,2,0,P|284:196|264:260,1,170,2|0,0:0|0:0,0:0:0:0:
200,316,65442,1,8,0:0:0:0:
280,344,65682,1,0,0:0:0:0:
348,292,65922,6,0,P|384:264|396:224,1,85
316,204,66402,2,0,P|324:160|308:116,1,85,2|0,0:2|0:0,0:0:0:0:
236,156,66882,2,0,P|216:108|224:64,1,85
292,32,67362,2,0,P|340:32|376:56,1,85,8|0,0:0|0:0,0:0:0:0:
420,120,67842,6,0,P|436:160|416:200,2,85,2|0|2,0:0|0:0|0:2,0:0:0:0:
348,164,68562,1,0,0:0:0:0:
320,244,68802,2,0,L|336:288,2,42.5,4|0|0,0:3|0:0|0:0,0:0:0:0:
252,192,69282,1,8,0:3:0:0:
172,168,69522,5,0,0:0:0:0:
172,168,69642,1,0,0:0:0:0:
172,168,69762,2,0,P|132:176|100:204,1,85,4|0,0:0|0:0,0:0:0:0:
156,268,70242,1,2,0:2:0:0:
108,336,70482,2,0,P|196:368|264:328,1,170,2|0,0:0|0:0,0:0:0:0:
300,260,71202,2,0,P|348:276|360:316,1,85,8|0,0:0|0:0,0:0:0:0:
440,340,71682,6,0,P|476:312|480:268,1,85
432,208,72162,1,2,0:2:0:0:
472,132,72402,2,0,P|448:52|360:52,1,170,2|0,0:0|0:0,0:0:0:0:
388,128,73122,2,0,P|336:120|308:92,1,85,8|0,0:0|0:0,0:0:0:0:
236,64,73602,6,0,P|196:88|192:136,1,85
256,172,74082,1,2,0:2:0:0:
180,212,74322,1,0,0:0:0:0:
104,248,74562,2,0,P|116:292|156:320,1,85
224,348,75042,1,8,0:0:0:0:
268,276,75282,1,0,0:0:0:0:
332,332,75522,6,0,P|376:328|408:288,1,85,2|0,0:0|0:0,0:0:0:0:
416,216,76002,1,2,0:2:0:0:
415,130,76242,1,0,0:0:0:0:
344,92,76482,1,4,0:3:0:0:
268,130,76722,1,2,0:0:0:0:
268,216,76962,1,8,0:3:0:0:
344,176,77202,5,4,0:0:0:0:
