osu file format v14

[General]
AudioFilename: 01. Those Who From the Heavens Came.mp3
AudioLeadIn: 0
PreviewTime: 44762
Countdown: 0
SampleSet: Normal
StackLeniency: 0.7
Mode: 0
LetterboxInBreaks: 1
WidescreenStoryboard: 0

[Editor]
Bookmarks: 56696,66776,79736,85496,91256,102776,111416,114296,125816,135896,148856,171896,181287,184417,198753,204753,213362,219623,232144,257188,269710,291623,306492,314318,316405,321100,334969,345769,352249,356569,358021
DistanceSpacing: 1.5
BeatDivisor: 4
GridSize: 4
TimelineZoom: 1.9

[Metadata]
Title:Those Who from the Heavens Came
TitleUnicode:Those Who from the Heavens Came
Artist:Inferi
ArtistUnicode:Inferi
Creator:Mazzerin
Version:Fengshen Yanyi
Source:
Tags:the path of apotheosis melodic technical death metal marathon deathstream rsi
BeatmapID:845378
BeatmapSetID:387311

[Difficulty]
HPDrainRate:6
CircleSize:4.2
OverallDifficulty:9
ApproachRate:10
SliderMultiplier:2.2
SliderTickRate:1

[Events]
//Background and Video events
0,0,"ibg.jpg",0,0
//Break Periods
//Storyboard Layer 0 (Background)
//Storyboard Layer 1 (Fail)
//Storyboard Layer 2 (Pass)
//Storyboard Layer 3 (Foreground)
//Storyboard Sound Samples

[TimingPoints]
721,272.727272727273,6,2,5,10,1,0
23630,-100,6,1,5,40,0,0
23767,-100,6,3,5,40,0,0
24040,-100,6,2,5,40,0,0
24176,-100,6,1,6,40,0,0
24993,-100,6,1,8,40,0,0
25402,272.727272727273,7,1,5,40,1,0
26356,-100,7,1,5,40,0,0
26492,-100,7,2,5,40,0,0
26629,-100,7,3,5,40,0,0
26970,-100,7,1,5,40,0,0
27447,272.727272727273,6,1,5,40,1,0
29083,272.727272727273,7,1,5,40,1,0
30787,-100,7,2,5,40,0,0
30992,272.727272727273,6,2,5,30,1,0
30992,-133.333333333333,6,2,5,30,0,0
32627,272.727272727273,4,1,5,40,1,0
32627,-100,4,1,5,40,0,0
33172,272.727272727273,4,1,5,40,1,0
35422,-100,4,2,5,20,0,0
35626,-100,4,1,5,40,0,0
41899,-133.333333333333,4,1,5,40,0,0
42172,-100,4,1,5,40,0,0
44149,-100,4,2,5,40,0,0
45176,240,3,1,5,40,1,1
55316,-100,3,1,8,40,0,1
55736,-100,3,1,5,40,0,1
55856,-100,3,1,8,40,0,1
55976,-100,3,1,5,40,0,1
56216,-100,3,1,8,40,0,1
56456,-100,3,1,5,40,0,1
56696,-80,3,1,5,40,0,0
56816,-100,3,1,5,40,0,0
58130,240,3,1,5,40,1,0
58130,-80,3,1,5,40,0,0
58250,-100,3,1,5,40,0,0
59570,-80,3,1,5,40,0,0
59690,-100,3,1,5,40,0,0
62450,-80,3,1,5,40,0,0
62570,-100,3,1,5,40,0,0
63890,-80,3,1,5,40,0,0
64010,-100,3,1,5,40,0,0
65330,-80,3,1,5,40,0,0
65450,-100,3,1,5,40,0,0
79490,-100,3,1,8,40,0,0
79730,-100,3,1,5,40,0,1
91250,-100,3,1,5,40,0,0
102770,-100,3,1,5,40,0,1
113810,-100,3,1,8,40,0,1
114050,-100,3,1,5,40,0,1
114290,-200,3,1,5,40,0,0
114350,-200,3,1,5,15,0,0
114890,-200,3,3,5,20,0,0
115010,-200,3,1,5,40,0,0
116150,-200,3,1,5,15,0,0
116330,-200,3,3,5,20,0,0
116450,-200,3,1,5,40,0,0
116870,-200,3,1,5,15,0,0
117050,-200,3,3,5,20,0,0
117170,-200,3,1,5,40,0,0
119030,-200,3,1,5,15,0,0
119210,-200,3,3,5,20,0,0
119330,-200,3,1,5,40,0,0
120110,-200,3,1,5,15,0,0
120650,-200,3,3,5,20,0,0
120770,-200,3,1,5,40,0,0
122270,-200,3,1,5,15,0,0
122810,-200,3,3,5,20,0,0
122930,-200,3,1,5,40,0,0
126050,-133.333333333333,3,1,5,40,0,0
126290,-100,3,1,5,40,0,0
126530,-200,3,1,5,40,0,0
129650,-100,3,1,5,40,0,0
130370,-200,3,1,5,40,0,0
136130,-161.290322580645,3,1,8,40,0,0
136370,-133.333333333333,3,1,5,40,0,0
137330,-133.333333333333,3,1,5,40,0,1
140210,-133.333333333333,3,1,6,40,0,1
142370,-100,3,1,5,40,0,1
148370,-100,3,1,8,40,0,1
148850,-200,3,1,5,40,0,0
149330,-200,3,1,9,40,0,0
149570,-200,3,1,6,40,0,0
149810,-200,3,1,9,40,0,0
151010,-200,3,1,6,40,0,0
151250,-200,3,1,9,40,0,0
152450,-200,3,1,6,40,0,0
152690,-200,3,1,9,40,0,0
153890,-200,3,1,6,40,0,0
154130,-200,3,1,9,40,0,0
154210,-200,3,1,8,40,0,0
154610,-200,3,1,9,40,0,0
155330,-200,3,1,6,40,0,0
155570,-200,3,1,9,40,0,0
156770,-200,3,1,6,40,0,0
157010,-200,3,1,9,40,0,0
158210,-200,3,1,6,40,0,0
158450,-200,3,1,9,40,0,0
159650,-200,3,1,6,40,0,0
159890,-200,3,1,9,40,0,0
159970,-200,3,1,8,40,0,0
160370,-200,3,1,9,40,0,0
161090,-200,3,1,6,40,0,0
161330,-200,3,1,9,40,0,0
162530,-200,3,1,6,40,0,0
162770,-200,3,1,9,40,0,0
163970,-200,3,1,6,40,0,0
164210,-200,3,1,9,40,0,0
165410,-200,3,1,6,40,0,0
166130,-200,3,1,9,40,0,0
166850,-200,3,1,6,40,0,0
167090,-200,3,1,9,40,0,0
168290,-200,3,1,6,40,0,0
168530,-200,3,1,9,40,0,0
169730,-200,3,1,6,40,0,0
169970,-200,3,1,9,40,0,0
170450,-100,3,1,5,40,0,0
171470,-100,3,1,8,40,0,0
171890,260.869565217391,3,1,5,40,1,0
172933,-100,3,1,6,40,0,0
173455,-100,3,1,5,40,0,0
174498,-100,3,1,8,40,0,0
174629,-100,3,1,5,40,0,0
174759,-100,3,1,8,40,0,0
175020,-100,3,1,5,40,0,0
176063,-100,3,1,6,40,0,0
176585,-100,3,1,5,40,0,0
179194,-100,3,1,6,40,0,0
179716,-100,3,1,5,40,0,0
180107,-100,3,1,9,40,0,0
180172,-100,3,1,5,40,0,0
183955,-100,3,1,8,40,0,0
184020,-100,3,1,5,40,0,0
184085,-100,3,1,8,40,0,0
184150,-100,3,1,5,40,0,0
184411,260.869565217391,4,1,5,40,1,1
186497,-100,4,1,5,40,0,0
188455,-100,4,1,8,40,0,0
188584,-100,4,1,5,40,0,1
190671,-100,4,1,5,40,0,0
192237,-100,4,1,9,40,0,0
192302,-100,4,1,5,40,0,0
192628,-100,4,1,8,40,0,0
192758,-100,4,1,5,40,0,1
194845,-100,4,1,5,40,0,0
196802,-100,4,1,8,40,0,0
196932,-100,4,1,5,40,0,1
198758,-100,4,1,5,40,0,0
198954,-100,4,2,5,10,0,0
201106,260.869565217391,3,1,5,40,1,0
202737,-100,3,2,5,10,0,0
204759,-100,3,1,5,40,0,0
205019,-100,3,1,5,40,0,1
211279,-100,3,1,9,40,0,0
211345,-100,3,1,8,40,0,0
212062,-100,3,1,5,40,0,0
213366,260.869565217391,6,1,5,40,1,1
216235,-100,6,1,5,40,0,0
216496,-100,6,1,5,40,0,1
218061,-100,6,1,9,40,0,1
218126,-100,6,1,8,40,0,1
218452,-100,6,1,5,40,0,1
218583,-100,6,1,8,40,0,1
218844,-100,6,1,5,40,0,1
219366,-100,6,1,8,40,0,1
219626,260.869565217391,3,1,5,40,1,0
219626,-133.333333333333,3,1,5,40,0,0
231626,-133.333333333333,3,1,8,40,0,0
231886,-133.333333333333,3,1,5,40,0,0
249691,-133.333333333333,3,1,5,15,0,0
249756,-133.333333333333,3,1,5,40,0,0
255886,-133.333333333333,3,1,8,40,0,0
256408,-133.333333333333,3,1,5,40,0,0
268147,-133.333333333333,3,1,8,40,0,0
268278,-133.333333333333,3,1,5,40,0,0
268408,-133.333333333333,3,1,8,40,0,0
268669,-133.333333333333,3,1,5,40,0,0
268799,-133.333333333333,3,1,8,40,0,0
268930,-133.333333333333,3,1,5,40,0,0
269060,-133.333333333333,3,1,8,40,0,0
269452,-200,3,1,5,40,0,0
269517,-200,3,1,5,15,0,0
269712,-100,3,1,5,40,0,0
281843,-100,3,1,8,40,0,0
282234,-100,3,1,5,40,0,0
291886,-133.333333333333,3,1,5,40,0,0
291952,-100,3,1,5,15,0,0
292147,-133.333333333333,3,1,8,40,0,0
292212,-100,3,1,5,15,0,0
292408,-100,3,1,5,40,0,0
292473,-100,3,1,5,15,0,0
292669,-100,3,1,8,40,0,0
293191,-100,3,1,5,40,0,0
293778,-100,3,1,5,15,0,0
293973,-100,3,1,5,40,0,0
294886,-100,3,1,8,40,0,0
295017,-133.333333333333,3,1,8,40,0,0
295147,-133.333333333333,3,1,5,40,0,0
295278,-200,3,1,8,40,0,0
295539,-100,3,1,5,40,0,1
297104,-100,3,1,5,40,0,0
297234,-100,3,1,8,40,0,0
297365,-133.333333333333,3,1,8,40,0,0
297495,-133.333333333333,3,1,5,40,0,0
297625,-200,3,1,8,40,0,0
297886,-100,3,1,5,40,0,1
299452,-100,3,1,5,40,0,0
299582,-100,3,1,8,40,0,0
299712,-133.333333333333,3,1,8,40,0,0
299843,-133.333333333333,3,1,5,40,0,0
299973,-200,3,1,8,40,0,0
300234,-100,3,1,5,40,0,1
300691,-100,3,1,5,40,0,0
301017,-100,3,1,5,40,0,1
303039,-100,3,1,5,40,0,0
304147,-80,3,1,5,40,0,0
304278,-100,3,1,5,40,0,0
305973,-133.333333333333,3,1,8,40,0,0
306234,-200,3,1,5,40,0,0
306495,-100,3,1,6,40,0,1
308060,-100,3,1,6,40,0,1
308321,-100,3,1,8,40,0,1
309365,-100,3,1,5,40,0,0
309625,-100,3,1,6,40,0,1
314321,-100,3,1,6,40,0,0
315886,-100,3,1,8,40,0,0
316411,260.869565217391,3,1,5,40,1,1
316671,-100,3,1,6,40,0,1
321106,-100,3,1,5,40,0,0
321954,-100,3,1,5,15,0,0
322150,-100,3,1,8,40,0,0
322671,-100,3,1,5,40,0,0
322737,-100,3,1,8,40,0,0
323455,240,3,1,5,40,1,1
345055,-100,3,1,5,40,0,0
345775,-100,3,1,8,40,0,0
346015,-100,3,1,5,40,0,0
346495,-100,3,1,5,40,0,1
351775,-100,3,1,8,40,0,1
352015,-100,3,1,5,40,0,0
356815,-100,3,1,8,40,0,1
358015,-100,3,1,5,40,0,0

[Colours]
Combo1 : 136,98,99
Combo2 : 185,45,48
Combo3 : 245,137,140
Combo4 : 91,2,4

[HitObjects]
256,192,21449,12,0,23562,0:0:0:0:
112,88,23630,5,6,0:0:0:0:
99,185,23766,1,0,0:0:0:0:
193,157,23902,2,0,L|211:289,1,110
293,206,24176,6,0,L|314:91,1,110,12|2,0:0|0:0,0:0:0:0:
405,62,24448,1,6,0:0:0:0:
376,216,24585,5,6,0:0:0:0:
370,237,24653,1,2,0:0:0:0:
359,256,24721,1,2,0:0:0:0:
344,272,24789,1,2,0:0:0:0:
325,283,24857,1,2,0:0:0:0:
304,288,24925,1,2,0:0:0:0:
282,288,24994,1,4,0:0:0:0:
261,282,25062,1,4,0:0:0:0:
240,275,25130,1,2,0:0:0:0:
218,272,25198,1,2,0:0:0:0:
196,274,25266,1,2,0:0:0:0:
175,280,25334,1,2,0:0:0:0:
142,243,25403,5,6,0:0:0:0:
152,244,25471,1,8,0:0:0:0:
163,244,25539,1,2,0:0:0:0:
174,242,25607,1,8,0:0:0:0:
185,238,25675,1,2,0:0:0:0:
195,234,25743,1,8,0:0:0:0:
204,227,25812,1,2,0:0:0:0:
212,220,25880,1,8,0:0:0:0:
219,211,25948,1,2,0:0:0:0:
224,202,26016,1,8,0:0:0:0:
228,192,26084,1,2,0:0:0:0:
231,181,26153,1,8,0:0:0:0:
232,170,26221,1,2,0:0:0:0:
232,159,26289,1,8,0:0:0:0:
230,148,26357,5,6,0:0:0:0:
304,127,26492,1,0,0:0:0:0:
216,118,26630,5,0,0:0:0:0:
318,148,26765,1,0,0:0:0:0:
197,159,26903,5,0,0:0:0:0:
340,117,27039,1,8,0:0:0:0:
351,74,27107,1,8,0:0:0:0:
362,31,27175,5,2,0:0:0:0:
364,53,27242,1,2,0:0:0:0:
367,75,27312,1,2,0:0:0:0:
369,97,27380,1,2,0:0:0:0:
371,119,27447,6,2,L|501:98,1,110
429,228,27719,5,2,0:0:0:0:
502,216,27855,1,8,0:0:0:0:
243,286,27992,5,2,0:0:0:0:
348,269,28128,1,2,0:0:0:0:
21,234,28266,5,8,0:0:0:0:
160,212,28402,1,2,0:0:0:0:
242,106,28537,5,8,0:0:0:0:
305,196,28674,1,2,0:0:0:0:
243,286,28810,1,2,0:0:0:0:
306,376,28947,1,2,0:0:0:0:
118,283,29083,5,2,0:0:0:0:
93,261,29151,1,8,0:0:0:0:
79,231,29219,1,2,0:0:0:0:
76,198,29287,1,8,0:0:0:0:
86,167,29355,5,2,0:0:0:0:
107,142,29423,1,8,0:0:0:0:
148,127,29492,1,2,0:0:0:0:
191,135,29560,1,8,0:0:0:0:
223,164,29628,5,2,0:0:0:0:
268,183,29696,1,8,0:0:0:0:
315,171,29764,1,2,0:0:0:0:
345,133,29833,1,8,0:0:0:0:
347,85,29901,5,2,0:0:0:0:
351,106,29969,1,8,0:0:0:0:
356,128,30037,1,2,0:0:0:0:
360,149,30105,1,8,0:0:0:0:
414,157,30173,5,2,0:0:0:0:
410,178,30242,1,8,0:0:0:0:
405,200,30310,1,2,0:0:0:0:
400,221,30378,1,8,0:0:0:0:
346,228,30446,5,2,0:0:0:0:
351,250,30514,1,8,0:0:0:0:
355,271,30583,1,2,0:0:0:0:
360,293,30651,1,8,0:0:0:0:
413,306,30719,5,2,0:0:0:0:
408,327,30787,1,0,0:0:0:0:
404,349,30855,1,0,0:0:0:0:
399,370,30923,1,0,0:0:0:0:
344,378,30992,6,0,P|307:373|246:382,1,82.5000031471254
201,309,31264,1,0,0:0:0:0:
201,309,31401,1,0,0:0:0:0:
279,285,31537,1,0,0:0:0:0:
279,285,31673,2,0,L|262:189,1,82.5000031471254
160,150,31946,6,0,P|208:146|252:110,1,82.5000031471254
120,73,32218,2,0,P|162:61|204:15,1,82.5000031471254
56,25,32491,1,0,0:0:0:0:
37,136,32627,5,12,0:0:0:0:
31,179,32695,1,8,0:0:0:0:
25,223,32763,5,2,0:0:0:0:
42,209,32831,1,2,0:0:0:0:
62,200,32899,1,2,0:0:0:0:
83,196,32967,1,2,0:0:0:0:
105,197,33036,1,2,0:0:0:0:
126,204,33104,1,2,0:0:0:0:
147,244,33172,5,6,0:0:0:0:
158,225,33240,1,2,0:0:0:0:
168,206,33308,1,2,0:0:0:0:
179,186,33376,1,2,0:0:0:0:
160,150,33444,5,6,0:0:0:0:
243,131,33717,5,2,0:0:0:0:
254,150,33785,1,2,0:0:0:0:
264,169,33853,1,2,0:0:0:0:
275,189,33922,1,2,0:0:0:0:
256,225,33990,5,6,0:0:0:0:
256,225,34262,1,6,0:0:0:0:
338,290,34535,5,2,0:0:0:0:
359,284,34603,1,2,0:0:0:0:
380,278,34672,1,2,0:0:0:0:
401,271,34740,1,2,0:0:0:0:
413,232,34808,5,6,0:0:0:0:
413,232,35081,5,6,0:0:0:0:
256,225,35217,1,6,0:0:0:0:
302,364,35353,2,0,P|226:336|103:356,1,165,6|0,0:0|0:0,0:0:0:0:
111,249,35626,5,8,0:0:0:0:
109,254,35693,1,8,0:0:0:0:
107,259,35762,1,8,0:0:0:0:
106,264,35830,1,8,0:0:0:0:
104,269,35898,1,10,0:0:0:0:
95,159,36034,1,8,0:0:0:0:
86,49,36171,1,8,0:0:0:0:
88,54,36239,1,8,0:0:0:0:
90,59,36307,1,8,0:0:0:0:
91,64,36375,1,8,0:0:0:0:
93,69,36443,5,10,0:0:0:0:
167,116,36580,1,8,0:0:0:0:
241,163,36716,1,8,0:0:0:0:
246,160,36784,1,8,0:0:0:0:
251,158,36853,1,8,0:0:0:0:
255,155,36921,1,8,0:0:0:0:
260,153,36989,1,10,0:0:0:0:
367,118,37125,1,8,0:0:0:0:
267,59,37262,1,8,0:0:0:0:
272,62,37330,1,8,0:0:0:0:
277,64,37398,1,8,0:0:0:0:
281,67,37466,1,8,0:0:0:0:
286,69,37534,5,14,0:0:0:0:
455,171,37808,1,8,0:0:0:0:
453,176,37876,1,8,0:0:0:0:
452,181,37944,1,8,0:0:0:0:
452,186,38012,1,8,0:0:0:0:
450,191,38081,1,10,0:0:0:0:
346,226,38217,1,8,0:0:0:0:
367,118,38353,1,8,0:0:0:0:
369,123,38422,1,8,0:0:0:0:
370,128,38490,1,8,0:0:0:0:
370,133,38558,1,8,0:0:0:0:
372,138,38626,5,14,0:0:0:0:
131,194,38899,1,8,0:0:0:0:
126,195,38967,1,8,0:0:0:0:
121,197,39035,1,8,0:0:0:0:
116,199,39103,1,8,0:0:0:0:
111,201,39172,1,10,0:0:0:0:
168,298,39308,1,8,0:0:0:0:
281,332,39444,1,8,0:0:0:0:
276,331,39512,1,8,0:0:0:0:
271,329,39581,1,8,0:0:0:0:
266,327,39649,1,8,0:0:0:0:
261,325,39717,5,14,0:0:0:0:
269,299,39785,1,2,0:0:0:0:
271,271,39853,1,2,0:0:0:0:
265,244,39921,1,2,0:0:0:0:
251,219,39989,5,10,0:0:0:0:
236,189,40057,1,10,0:0:0:0:
236,156,40125,1,10,0:0:0:0:
251,127,40193,1,10,0:0:0:0:
277,108,40262,5,2,0:0:0:0:
315,105,40330,1,2,0:0:0:0:
348,124,40398,1,2,0:0:0:0:
365,159,40466,1,2,0:0:0:0:
359,196,40534,5,2,0:0:0:0:
354,239,40603,1,2,0:0:0:0:
380,273,40671,1,2,0:0:0:0:
422,279,40739,1,2,0:0:0:0:
457,254,40807,5,10,0:0:0:0:
415,219,40875,1,2,0:0:0:0:
362,204,40943,1,10,0:0:0:0:
308,212,41012,1,2,0:0:0:0:
262,240,41080,5,2,0:0:0:0:
214,266,41148,1,2,0:0:0:0:
160,264,41216,1,2,0:0:0:0:
114,235,41284,1,2,0:0:0:0:
89,186,41353,5,6,0:0:0:0:
91,214,41421,1,2,0:0:0:0:
93,241,41489,1,2,0:0:0:0:
94,269,41557,1,2,0:0:0:0:
53,252,41625,5,2,0:0:0:0:
52,279,41693,1,2,0:0:0:0:
50,307,41762,1,2,0:0:0:0:
49,334,41830,1,2,0:0:0:0:
85,357,41899,6,2,L|137:343,3,41.2500015735627,10|2|2|2,0:0|0:0|0:0|0:0,0:0:0:0:
216,321,42172,5,2,0:0:0:0:
215,310,42239,1,2,0:0:0:0:
215,299,42307,1,10,0:0:0:0:
214,288,42375,1,10,0:0:0:0:
234,279,42443,5,2,0:0:0:0:
235,268,42512,1,2,0:0:0:0:
235,257,42580,1,2,0:0:0:0:
236,246,42648,1,2,0:0:0:0:
220,230,42716,5,10,0:0:0:0:
220,219,42784,1,10,0:0:0:0:
219,208,42853,1,10,0:0:0:0:
219,197,42921,1,2,0:0:0:0:
205,179,42989,6,0,L|188:110,3,55,8|8|2|2,0:0|0:0|0:0|0:0,0:0:0:0:
290,79,43262,6,2,L|277:133,3,55
412,176,43534,5,2,0:0:0:0:
401,139,43602,1,2,0:0:0:0:
364,149,43672,1,2,0:0:0:0:
375,187,43739,1,2,0:0:0:0:
403,171,43807,5,2,0:0:0:0:
396,147,43876,1,2,0:0:0:0:
372,153,43944,1,2,0:0:0:0:
379,178,44012,1,2,0:0:0:0:
388,163,44080,6,0,L|375:287,1,110,6|0,0:0|0:0,0:0:0:0:
291,220,44353,1,0,0:0:0:0:
291,220,44489,1,0,0:0:0:0:
162,249,45176,6,0,L|80:259,3,55,6|8|2|8,0:0|0:0|0:0|0:0,0:0:0:0:
160,162,45416,2,0,L|80:145,3,55,2|8|2|8,0:0|0:0|0:0|0:0,0:0:0:0:
221,92,45656,2,0,L|146:56,3,55,2|8|2|8,0:0|0:0|0:0|0:0,0:0:0:0:
336,62,45896,5,2,0:0:0:0:
315,80,45956,1,8,0:0:0:0:
301,103,46016,1,2,0:0:0:0:
292,129,46076,1,8,0:0:0:0:
291,157,46136,1,2,0:0:0:0:
297,184,46196,1,8,0:0:0:0:
310,208,46256,1,2,0:0:0:0:
323,232,46316,1,8,0:0:0:0:
326,259,46376,1,2,0:0:0:0:
317,285,46436,1,8,0:0:0:0:
299,305,46496,1,2,0:0:0:0:
274,315,46556,1,8,0:0:0:0:
246,315,46616,5,6,0:0:0:0:
259,290,46676,1,8,0:0:0:0:
278,270,46736,1,2,0:0:0:0:
301,256,46796,1,8,0:0:0:0:
328,250,46856,1,2,0:0:0:0:
355,251,46916,1,8,0:0:0:0:
381,260,46976,1,2,0:0:0:0:
405,273,47036,1,8,0:0:0:0:
432,275,47096,1,2,0:0:0:0:
457,264,47156,1,8,0:0:0:0:
474,243,47216,1,2,0:0:0:0:
480,216,47276,1,8,0:0:0:0:
474,190,47336,6,0,P|470:165|480:133,3,55,2|8|2|8,0:0|0:0|0:0|0:0,0:0:0:0:
398,142,47576,2,0,P|400:116|418:87,3,55,2|8|2|8,0:0|0:0|0:0|0:0,0:0:0:0:
340,69,47816,2,0,P|348:44|373:22,3,55,2|8|2|8,0:0|0:0|0:0|0:0,0:0:0:0:
267,98,48056,5,6,0:0:0:0:
255,122,48116,1,8,0:0:0:0:
235,142,48176,1,2,0:0:0:0:
211,154,48236,1,8,0:0:0:0:
184,158,48296,1,2,0:0:0:0:
157,150,48356,1,8,0:0:0:0:
130,142,48416,1,2,0:0:0:0:
103,144,48476,1,8,0:0:0:0:
78,155,48536,1,2,0:0:0:0:
59,175,48596,1,8,0:0:0:0:
49,200,48656,1,2,0:0:0:0:
49,227,48716,1,8,0:0:0:0:
59,253,48776,5,2,0:0:0:0:
78,273,48836,1,8,0:0:0:0:
103,284,48896,1,2,0:0:0:0:
129,291,48956,1,8,0:0:0:0:
157,290,49016,1,2,0:0:0:0:
183,283,49076,1,8,0:0:0:0:
206,268,49136,1,2,0:0:0:0:
225,248,49196,1,8,0:0:0:0:
237,224,49256,1,2,0:0:0:0:
243,197,49316,1,8,0:0:0:0:
242,169,49376,1,2,0:0:0:0:
233,143,49436,1,8,0:0:0:0:
218,121,49496,5,6,0:0:0:0:
194,150,49556,1,8,0:0:0:0:
184,187,49616,1,2,0:0:0:0:
191,225,49676,1,8,0:0:0:0:
213,256,49736,1,2,0:0:0:0:
246,275,49796,1,8,0:0:0:0:
284,279,49856,1,2,0:0:0:0:
320,266,49916,1,8,0:0:0:0:
352,246,49976,1,2,0:0:0:0:
390,242,50036,1,8,0:0:0:0:
426,254,50096,1,2,0:0:0:0:
454,280,50156,1,8,0:0:0:0:
468,315,50216,6,0,P|468:348|458:372,3,55,2|8|2|8,0:0|0:0|0:0|0:0,0:0:0:0:
379,334,50456,2,0,P|370:364|354:385,3,55,2|8|2|8,0:0|0:0|0:0|0:0,0:0:0:0:
285,324,50696,2,0,P|268:351|247:367,3,55,2|8|2|8,0:0|0:0|0:0|0:0,0:0:0:0:
156,330,50936,5,6,0:0:0:0:
118,338,50996,1,8,0:0:0:0:
82,326,51056,1,2,0:0:0:0:
57,298,51116,1,8,0:0:0:0:
49,260,51176,1,2,0:0:0:0:
62,224,51236,1,8,0:0:0:0:
91,200,51296,1,2,0:0:0:0:
128,193,51356,1,8,0:0:0:0:
166,191,51416,1,2,0:0:0:0:
199,171,51476,1,8,0:0:0:0:
218,138,51536,1,2,0:0:0:0:
220,100,51596,1,8,0:0:0:0:
201,67,51656,6,0,L|127:59,3,55,2|8|2|8,0:0|0:0|0:0|0:0,0:0:0:0:
300,85,51896,2,0,L|374:77,3,55,2|8|2|8,0:0|0:0|0:0|0:0,0:0:0:0:
228,149,52136,2,0,L|236:223,3,55,2|8|2|8,0:0|0:0|0:0|0:0,0:0:0:0:
395,150,52376,5,6,0:0:0:0:
367,154,52436,1,8,0:0:0:0:
343,167,52496,1,2,0:0:0:0:
325,187,52556,1,8,0:0:0:0:
314,212,52616,1,2,0:0:0:0:
312,239,52676,1,8,0:0:0:0:
319,266,52736,1,2,0:0:0:0:
324,293,52796,1,8,0:0:0:0:
318,319,52856,1,2,0:0:0:0:
301,341,52916,1,8,0:0:0:0:
277,353,52976,1,2,0:0:0:0:
249,355,53036,1,8,0:0:0:0:
224,345,53096,5,2,0:0:0:0:
205,325,53156,1,8,0:0:0:0:
195,300,53216,1,2,0:0:0:0:
196,272,53276,1,8,0:0:0:0:
204,246,53336,1,2,0:0:0:0:
220,224,53396,1,8,0:0:0:0:
242,207,53456,1,2,0:0:0:0:
267,198,53516,1,8,0:0:0:0:
295,196,53576,1,2,0:0:0:0:
321,203,53636,1,8,0:0:0:0:
345,217,53696,1,2,0:0:0:0:
363,238,53756,1,8,0:0:0:0:
374,263,53816,5,6,0:0:0:0:
336,258,53876,1,8,0:0:0:0:
305,235,53936,1,2,0:0:0:0:
289,201,53996,1,8,0:0:0:0:
292,163,54056,1,2,0:0:0:0:
301,126,54116,1,8,0:0:0:0:
288,90,54176,1,2,0:0:0:0:
258,67,54236,1,8,0:0:0:0:
220,65,54296,1,2,0:0:0:0:
187,84,54356,1,8,0:0:0:0:
171,119,54416,1,2,0:0:0:0:
177,156,54476,1,8,0:0:0:0:
196,189,54536,6,0,P|196:222|180:268,3,55,2|8|2|8,0:0|0:0|0:0|0:0,0:0:0:0:
109,225,54776,2,0,P|109:257|125:303,3,55,2|2|2|2,0:0|0:0|0:0|0:0,0:0:0:0:
74,147,55016,2,0,P|73:114|57:68,3,55,2|2|2|2,0:0|0:0|0:0|0:0,0:0:0:0:
163,113,55256,5,2,0:0:0:0:
174,112,55316,1,4,0:0:0:0:
185,112,55376,1,4,0:0:0:0:
196,111,55436,1,4,0:0:0:0:
216,101,55496,5,4,0:0:0:0:
226,101,55556,1,4,0:0:0:0:
237,102,55616,1,4,0:0:0:0:
248,103,55676,1,4,0:0:0:0:
272,116,55736,6,8,L|290:31,1,55
288,201,55856,1,4,0:0:0:0:
299,202,55916,1,4,0:0:0:0:
323,215,55976,6,8,L|341:130,1,55
431,210,56096,1,0,0:0:0:0:
426,213,56156,1,0,0:0:0:0:
422,216,56216,1,2,0:0:0:0:
417,219,56276,1,2,0:0:0:0:
413,223,56336,1,4,0:0:0:0:
410,227,56396,1,4,0:0:0:0:
419,241,56456,5,6,0:0:0:0:
419,241,56516,1,0,0:0:0:0:
419,241,56576,1,0,0:0:0:0:
419,241,56636,1,0,0:0:0:0:
419,241,56696,6,0,B|412:295|412:295|421:330|421:330|415:379,1,137.5,6|8,0:0|0:0,0:0:0:0:
324,307,56936,1,2,0:0:0:0:
508,285,57056,1,8,0:0:0:0:
317,285,57176,1,2,0:0:0:0:
501,307,57296,1,8,0:0:0:0:
362,140,57416,6,0,L|486:146,1,110,2|8,0:0|0:0,0:0:0:0:
237,42,57656,2,0,L|361:36,1,110,2|8,0:0|0:0,0:0:0:0:
98,119,57896,2,0,L|222:125,1,110,2|8,0:0|0:0,0:0:0:0:
29,213,58130,6,0,B|67:225|97:213|97:213|98:222|98:222|123:219|166:247,1,137.5,6|8,0:0|0:0,0:0:0:0:
95,314,58370,1,2,0:0:0:0:
66,126,58490,1,8,0:0:0:0:
233,191,58610,1,2,0:0:0:0:
103,341,58730,1,8,0:0:0:0:
146,157,58850,6,0,L|224:67,1,110,6|8,0:0|0:0,0:0:0:0:
298,282,59090,1,2,0:0:0:0:
318,107,59210,1,8,0:0:0:0:
147,173,59330,1,2,0:0:0:0:
299,298,59450,1,8,0:0:0:0:
316,32,59570,6,0,B|322:93|322:93|318:105|318:105|324:114|324:114|332:176,1,137.5,6|8,0:0|0:0,0:0:0:0:
388,264,59810,1,2,0:0:0:0:
405,100,59930,1,8,0:0:0:0:
260,227,60050,1,2,0:0:0:0:
243,63,60170,1,8,0:0:0:0:
60,165,60290,6,0,B|57:151|57:151|66:56,1,110,2|8,0:0|0:0,0:0:0:0:
152,282,60530,2,0,B|156:268|156:268|147:173,1,110,2|8,0:0|0:0,0:0:0:0:
55,382,60770,2,0,B|52:368|52:368|61:273,1,110,2|8,0:0|0:0,0:0:0:0:
164,330,61010,5,2,0:0:0:0:
177,321,61070,1,2,0:0:0:0:
192,314,61130,1,8,0:0:0:0:
208,308,61190,1,2,0:0:0:0:
224,304,61250,1,2,0:0:0:0:
240,302,61310,1,2,0:0:0:0:
257,302,61370,1,8,0:0:0:0:
273,304,61430,1,2,0:0:0:0:
289,307,61490,1,2,0:0:0:0:
305,312,61550,1,2,0:0:0:0:
320,319,61610,1,8,0:0:0:0:
334,328,61670,1,2,0:0:0:0:
350,333,61730,5,2,0:0:0:0:
366,334,61790,1,2,0:0:0:0:
382,331,61850,1,8,0:0:0:0:
398,325,61910,1,2,0:0:0:0:
411,315,61970,1,2,0:0:0:0:
422,303,62030,1,2,0:0:0:0:
429,288,62090,1,8,0:0:0:0:
433,272,62150,1,2,0:0:0:0:
433,256,62210,1,2,0:0:0:0:
429,240,62270,1,2,0:0:0:0:
422,225,62330,1,8,0:0:0:0:
411,213,62390,1,2,0:0:0:0:
398,203,62450,6,0,P|367:143|412:59,1,137.5,6|8,0:0|0:0,0:0:0:0:
275,149,62690,1,2,0:0:0:0:
459,136,62810,1,8,0:0:0:0:
343,4,62930,1,2,0:0:0:0:
262,162,63050,1,8,0:0:0:0:
160,37,63170,6,0,P|102:49|51:107,1,110,2|8,0:0|0:0,0:0:0:0:
25,216,63410,2,0,L|129:181,1,110,2|8,0:0|0:0,0:0:0:0:
184,277,63650,2,0,P|142:312|88:321,1,110,2|8,0:0|0:0,0:0:0:0:
262,162,63890,6,0,B|313:166|313:166|344:181|344:181|417:184,1,137.5,6|8,0:0|0:0,0:0:0:0:
307,270,64130,1,2,0:0:0:0:
374,92,64250,1,8,0:0:0:0:
462,248,64370,1,2,0:0:0:0:
295,257,64490,1,8,0:0:0:0:
449,145,64610,6,0,P|466:85|442:28,1,110,6|8,0:0|0:0,0:0:0:0:
462,248,64850,1,2,0:0:0:0:
374,92,64970,1,8,0:0:0:0:
449,241,65090,1,2,0:0:0:0:
294,149,65210,1,8,0:0:0:0:
310,351,65330,6,0,P|242:346|174:353,1,137.5,6|8,0:0|0:0,0:0:0:0:
295,257,65570,1,2,0:0:0:0:
117,274,65690,1,8,0:0:0:0:
275,161,65810,1,2,0:0:0:0:
129,265,65930,1,8,0:0:0:0:
119,152,66050,6,0,P|95:101|43:64,1,110,2|8,0:0|0:0,0:0:0:0:
206,129,66290,2,0,L|205:11,1,110,2|8,0:0|0:0,0:0:0:0:
294,149,66530,2,0,P|318:98|370:61,1,110,2|8,0:0|0:0,0:0:0:0:
399,163,66770,5,2,0:0:0:0:
398,168,66830,1,2,0:0:0:0:
397,173,66890,1,2,0:0:0:0:
397,178,66950,1,2,0:0:0:0:
396,183,67010,1,12,0:0:0:0:
193,351,67130,1,12,0:0:0:0:
131,286,67250,5,2,0:0:0:0:
131,281,67310,1,2,0:0:0:0:
130,276,67370,1,2,0:0:0:0:
130,271,67430,1,2,0:0:0:0:
129,266,67490,5,12,0:0:0:0:
409,312,67610,1,6,0:0:0:0:
409,307,67670,1,2,0:0:0:0:
408,302,67730,5,8,0:0:0:0:
364,295,67790,1,8,0:0:0:0:
320,288,67850,1,8,0:0:0:0:
277,282,67910,1,8,0:0:0:0:
233,275,67970,5,2,0:0:0:0:
255,273,68030,1,2,0:0:0:0:
277,271,68090,1,2,0:0:0:0:
299,269,68150,1,2,0:0:0:0:
321,268,68210,6,0,B|312:211|312:211|321:155,1,110,6|2,0:0|0:0,0:0:0:0:
344,41,68450,1,2,0:0:0:0:
227,72,68570,2,2,L|207:209,1,110
107,115,68810,1,0,0:0:0:0:
128,234,68930,6,2,P|166:268|241:272,1,110,10|2,0:0|0:0,0:0:0:0:
330,114,69170,1,2,0:0:0:0:
314,222,69290,1,2,0:0:0:0:
426,177,69410,1,8,0:0:0:0:
433,220,69470,1,8,0:0:0:0:
439,264,69530,1,8,0:0:0:0:
445,307,69590,1,8,0:0:0:0:
452,351,69650,5,2,0:0:0:0:
433,339,69710,1,8,0:0:0:0:
412,331,69770,1,2,0:0:0:0:
391,327,69830,1,8,0:0:0:0:
369,327,69890,2,0,L|357:260,1,55,2|8,0:0|0:0,0:0:0:0:
283,257,70010,2,0,L|295:189,1,55,2|8,0:0|0:0,0:0:0:0:
368,186,70130,2,0,L|355:118,1,55,2|8,0:0|0:0,0:0:0:0:
286,102,70250,2,0,L|298:34,1,55,2|8,0:0|0:0,0:0:0:0:
215,152,70370,6,0,L|202:219,3,55,2|8|2|8,0:0|0:0|0:0|0:0,0:0:0:0:
196,63,70610,1,2,0:0:0:0:
175,69,70670,1,8,0:0:0:0:
156,80,70730,1,2,0:0:0:0:
140,96,70790,1,8,0:0:0:0:
129,114,70850,1,2,0:0:0:0:
123,135,70910,1,8,0:0:0:0:
122,157,70970,1,2,0:0:0:0:
126,179,71030,1,8,0:0:0:0:
136,199,71090,6,0,P|148:254|125:328,1,110,6|2,0:0|0:0,0:0:0:0:
215,152,71330,1,2,0:0:0:0:
57,254,71450,1,2,0:0:0:0:
231,141,71570,1,2,0:0:0:0:
146,318,71690,1,2,0:0:0:0:
390,233,71810,6,2,P|336:231|283:246,1,110,10|2,0:0|0:0,0:0:0:0:
236,353,72050,2,2,P|290:354|343:340,1,110
254,220,72290,1,8,0:0:0:0:
294,204,72350,1,8,0:0:0:0:
338,197,72410,1,8,0:0:0:0:
382,199,72470,1,8,0:0:0:0:
424,211,72530,6,2,P|448:218|492:213,3,55
458,125,72770,2,2,B|495:117|495:117|512:122,1,55
442,35,72890,2,2,B|405:43|405:43|388:38,1,55
354,122,73010,2,2,P|332:109|304:75,3,55,10|2|2|2,0:0|0:0|0:0|0:0,0:0:0:0:
191,65,73250,5,10,0:0:0:0:
193,60,73310,1,2,0:0:0:0:
196,55,73370,1,2,0:0:0:0:
198,50,73430,1,2,0:0:0:0:
201,45,73490,5,8,0:0:0:0:
203,89,73550,1,8,0:0:0:0:
206,133,73610,1,8,0:0:0:0:
208,177,73670,1,8,0:0:0:0:
210,221,73730,5,2,0:0:0:0:
191,209,73790,1,2,0:0:0:0:
170,201,73850,1,2,0:0:0:0:
149,197,73910,1,2,0:0:0:0:
127,197,73970,6,0,L|121:73,1,110,6|2,0:0|0:0,0:0:0:0:
67,275,74210,1,2,0:0:0:0:
27,126,74330,1,2,0:0:0:0:
72,288,74450,1,2,0:0:0:0:
131,106,74570,1,2,0:0:0:0:
210,221,74690,6,0,B|186:293|186:293|192:328,1,110,10|2,0:0|0:0,0:0:0:0:
298,316,74930,1,2,0:0:0:0:
239,134,75050,1,2,0:0:0:0:
388,56,75170,1,8,0:0:0:0:
374,97,75230,1,8,0:0:0:0:
360,139,75290,1,8,0:0:0:0:
347,181,75350,1,8,0:0:0:0:
333,223,75410,6,0,L|389:213,3,55,2|8|2|8,0:0|0:0|0:0|0:0,0:0:0:0:
466,174,75650,2,0,P|473:220|462:253,1,55,2|8,0:0|0:0,0:0:0:0:
417,299,75770,2,0,P|410:345|421:378,1,55,2|8,0:0|0:0,0:0:0:0:
298,316,75890,1,2,0:0:0:0:
277,309,75950,1,8,0:0:0:0:
255,306,76010,1,2,0:0:0:0:
233,307,76070,1,8,0:0:0:0:
212,312,76130,6,0,P|186:321|135:318,3,55,2|8|2|8,0:0|0:0|0:0|0:0,0:0:0:0:
65,349,76370,1,2,0:0:0:0:
66,327,76430,1,8,0:0:0:0:
68,305,76490,1,2,0:0:0:0:
70,283,76550,1,8,0:0:0:0:
72,261,76610,1,2,0:0:0:0:
73,239,76670,1,8,0:0:0:0:
75,217,76730,1,2,0:0:0:0:
77,195,76790,1,8,0:0:0:0:
78,173,76850,6,0,L|71:44,1,110,6|2,0:0|0:0,0:0:0:0:
158,236,77090,1,2,0:0:0:0:
170,82,77210,1,2,0:0:0:0:
293,173,77330,1,2,0:0:0:0:
281,19,77450,1,2,0:0:0:0:
489,213,77570,6,0,L|482:342,1,110,10|2,0:0|0:0,0:0:0:0:
314,267,77810,2,0,L|321:396,1,110,2|2,0:0|0:0,0:0:0:0:
154,324,78050,1,8,0:0:0:0:
156,280,78110,1,8,0:0:0:0:
158,236,78170,1,8,0:0:0:0:
160,192,78230,1,8,0:0:0:0:
162,148,78290,6,2,L|103:157,3,55
155,63,78530,2,2,L|95:56,3,55
258,103,78770,1,10,0:0:0:0:
257,98,78830,1,2,0:0:0:0:
256,93,78890,1,2,0:0:0:0:
255,88,78950,1,2,0:0:0:0:
254,83,79010,5,10,0:0:0:0:
291,60,79070,1,2,0:0:0:0:
334,54,79130,1,2,0:0:0:0:
376,67,79190,1,2,0:0:0:0:
408,96,79250,5,8,0:0:0:0:
424,137,79310,1,8,0:0:0:0:
422,180,79370,1,8,0:0:0:0:
401,219,79430,1,8,0:0:0:0:
375,253,79490,5,4,0:0:0:0:
378,296,79550,1,4,0:0:0:0:
409,326,79610,1,4,0:0:0:0:
451,327,79670,1,4,0:0:0:0:
485,300,79730,6,0,P|507:251|485:182,1,110,6|0,0:0|0:0,0:0:0:0:
306,192,79970,2,0,P|284:241|306:310,1,110
482,202,80210,1,0,0:0:0:0:
470,300,80330,1,0,0:0:0:0:
376,67,80450,5,8,0:0:0:0:
388,165,80570,1,0,0:0:0:0:
259,77,80690,1,0,0:0:0:0:
306,192,80810,1,0,0:0:0:0:
170,147,80930,1,0,0:0:0:0:
257,260,81050,1,0,0:0:0:0:
151,307,81170,6,0,B|63:314|63:314|46:328,1,110,6|0,0:0|0:0,0:0:0:0:
6,240,81410,1,0,0:0:0:0:
116,231,81530,1,2,0:0:0:0:
72,105,81650,1,0,0:0:0:0:
69,115,81710,1,2,0:0:0:0:
67,126,81770,1,2,0:0:0:0:
65,137,81830,1,2,0:0:0:0:
63,148,81890,5,8,0:0:0:0:
18,11,82010,1,2,0:0:0:0:
146,159,82130,1,0,0:0:0:0:
139,38,82250,1,0,0:0:0:0:
227,186,82370,1,6,0:0:0:0:
248,89,82490,1,6,0:0:0:0:
337,189,82610,6,0,L|313:296,1,110,6|0,0:0|0:0,0:0:0:0:
442,153,82850,2,0,L|465:45,1,110,0|2,0:0|0:0,0:0:0:0:
358,89,83090,1,0,0:0:0:0:
347,85,83150,1,2,0:0:0:0:
336,82,83210,1,2,0:0:0:0:
326,79,83270,1,2,0:0:0:0:
315,76,83330,5,8,0:0:0:0:
227,186,83450,1,2,0:0:0:0:
305,72,83570,1,0,0:0:0:0:
192,114,83690,1,0,0:0:0:0:
293,68,83810,1,6,0:0:0:0:
200,33,83930,1,6,0:0:0:0:
284,66,84050,6,0,L|396:104,1,110,6|0,0:0|0:0,0:0:0:0:
302,244,84290,2,0,P|241:279|175:266,1,110
386,196,84530,1,0,0:0:0:0:
227,186,84650,1,0,0:0:0:0:
284,66,84770,5,8,0:0:0:0:
302,244,84890,1,2,0:0:0:0:
305,233,84950,1,2,0:0:0:0:
308,222,85010,1,2,0:0:0:0:
222,343,85130,1,2,0:0:0:0:
313,209,85250,1,2,0:0:0:0:
308,356,85370,1,2,0:0:0:0:
318,196,85490,5,6,0:0:0:0:
301,210,85550,1,8,0:0:0:0:
280,216,85610,1,2,0:0:0:0:
258,214,85670,1,8,0:0:0:0:
239,204,85730,1,2,0:0:0:0:
226,187,85790,1,8,0:0:0:0:
220,166,85850,1,2,0:0:0:0:
223,144,85910,1,8,0:0:0:0:
230,123,85970,1,2,0:0:0:0:
230,101,86030,1,8,0:0:0:0:
223,80,86090,1,2,0:0:0:0:
210,62,86150,1,8,0:0:0:0:
193,49,86210,5,2,0:0:0:0:
172,42,86270,1,8,0:0:0:0:
150,42,86330,1,2,0:0:0:0:
129,48,86390,1,8,0:0:0:0:
111,61,86450,1,2,0:0:0:0:
98,78,86510,1,8,0:0:0:0:
90,99,86570,1,2,0:0:0:0:
89,120,86630,1,8,0:0:0:0:
98,141,86690,1,2,0:0:0:0:
110,159,86750,1,8,0:0:0:0:
128,170,86810,1,2,0:0:0:0:
149,173,86870,1,8,0:0:0:0:
170,170,86930,6,0,L|227:152,3,55,2|8|2|8,0:0|0:0|0:0|0:0,0:0:0:0:
201,250,87170,2,0,L|259:261,3,55,2|8|2|8,0:0|0:0|0:0|0:0,0:0:0:0:
183,357,87410,2,0,L|242:353,3,55,2|8|2|8,0:0|0:0|0:0|0:0,0:0:0:0:
317,318,87650,5,2,0:0:0:0:
334,305,87710,1,8,0:0:0:0:
348,288,87770,1,2,0:0:0:0:
357,268,87830,1,8,0:0:0:0:
360,246,87890,1,2,0:0:0:0:
357,224,87950,1,8,0:0:0:0:
348,204,88010,1,2,0:0:0:0:
334,187,88070,1,8,0:0:0:0:
319,170,88130,1,2,0:0:0:0:
314,149,88190,1,8,0:0:0:0:
319,128,88250,1,2,0:0:0:0:
334,111,88310,1,8,0:0:0:0:
354,104,88370,6,0,L|340:49,3,55,2|8|2|8,0:0|0:0|0:0|0:0,0:0:0:0:
434,112,88610,2,0,L|429:55,3,55,2|8|2|8,0:0|0:0|0:0|0:0,0:0:0:0:
507,140,88850,2,0,L|512:83,3,55,2|8|2|8,0:0|0:0|0:0|0:0,0:0:0:0:
451,226,89090,5,2,0:0:0:0:
433,214,89150,1,8,0:0:0:0:
413,205,89210,1,2,0:0:0:0:
391,200,89270,1,8,0:0:0:0:
369,200,89330,1,2,0:0:0:0:
348,204,89390,1,8,0:0:0:0:
327,211,89450,1,2,0:0:0:0:
308,223,89510,1,8,0:0:0:0:
290,235,89570,1,2,0:0:0:0:
269,242,89630,1,8,0:0:0:0:
248,243,89690,1,2,0:0:0:0:
226,238,89750,1,8,0:0:0:0:
207,228,89810,5,6,0:0:0:0:
207,233,89870,1,2,0:0:0:0:
208,238,89930,1,2,0:0:0:0:
208,244,89990,1,2,0:0:0:0:
209,249,90050,1,2,0:0:0:0:
209,255,90110,1,2,0:0:0:0:
210,260,90170,1,2,0:0:0:0:
211,266,90230,1,2,0:0:0:0:
211,271,90290,1,2,0:0:0:0:
212,277,90350,1,2,0:0:0:0:
212,282,90410,1,2,0:0:0:0:
213,288,90470,1,2,0:0:0:0:
214,293,90530,5,14,0:0:0:0:
193,286,90590,1,2,0:0:0:0:
171,282,90650,1,2,0:0:0:0:
149,283,90710,1,2,0:0:0:0:
128,287,90770,5,8,0:0:0:0:
85,290,90830,1,8,0:0:0:0:
52,263,90890,1,8,0:0:0:0:
47,220,90950,1,8,0:0:0:0:
74,186,91010,5,2,0:0:0:0:
76,197,91070,1,2,0:0:0:0:
78,208,91130,1,2,0:0:0:0:
80,219,91190,1,2,0:0:0:0:
82,230,91250,6,0,L|212:221,1,110,6|8,0:0|0:0,0:0:0:0:
281,178,91490,2,0,L|411:187,1,110,2|8,0:0|0:0,0:0:0:0:
271,274,91730,1,2,0:0:0:0:
197,131,91850,1,8,0:0:0:0:
355,102,91970,6,0,P|401:96|461:131,1,110,2|8,0:0|0:0,0:0:0:0:
411,285,92210,1,2,0:0:0:0:
281,178,92330,1,8,0:0:0:0:
235,357,92450,2,0,P|198:328|180:261,1,110,2|8,0:0|0:0,0:0:0:0:
162,46,92690,6,0,P|125:74|107:141,1,110,2|8,0:0|0:0,0:0:0:0:
82,230,92930,1,2,0:0:0:0:
35,73,93050,1,8,0:0:0:0:
197,131,93170,1,2,0:0:0:0:
76,246,93290,1,8,0:0:0:0:
162,46,93410,6,0,B|219:52|219:52|296:36,1,110,2|8,0:0|0:0,0:0:0:0:
366,20,93650,1,2,0:0:0:0:
272,141,93770,1,8,0:0:0:0:
379,12,93890,1,2,0:0:0:0:
373,163,94010,1,8,0:0:0:0:
391,6,94130,6,0,L|464:115,1,110,6|8,0:0|0:0,0:0:0:0:
434,254,94370,2,0,L|360:144,1,110,2|8,0:0|0:0,0:0:0:0:
290,56,94610,1,2,0:0:0:0:
272,213,94730,1,8,0:0:0:0:
171,129,94850,6,0,L|185:244,1,110,2|8,0:0|0:0,0:0:0:0:
60,205,95090,2,0,L|46:320,1,110,2|8,0:0|0:0,0:0:0:0:
200,228,95330,1,2,0:0:0:0:
61,120,95450,1,8,0:0:0:0:
272,141,95570,6,0,P|249:201|200:234,1,110,2|8,0:0|0:0,0:0:0:0:
58,106,95810,2,0,P|81:46|130:13,1,110,2|8,0:0|0:0,0:0:0:0:
262,127,96050,2,0,B|318:138|318:138|394:129,1,110,2|8,0:0|0:0,0:0:0:0:
512,196,96290,5,2,0:0:0:0:
490,199,96350,1,2,0:0:0:0:
469,203,96410,1,2,0:0:0:0:
447,206,96470,1,2,0:0:0:0:
425,209,96530,1,8,0:0:0:0:
474,105,96650,1,8,0:0:0:0:
450,297,96770,1,2,0:0:0:0:
453,319,96830,1,2,0:0:0:0:
457,340,96890,1,2,0:0:0:0:
460,362,96950,1,2,0:0:0:0:
463,384,97010,6,0,P|398:370|332:390,1,110,6|8,0:0|0:0,0:0:0:0:
268,329,97250,2,0,P|203:343|137:323,1,110,2|8,0:0|0:0,0:0:0:0:
51,286,97490,1,2,0:0:0:0:
211,225,97610,1,8,0:0:0:0:
111,146,97730,6,0,B|155:139|155:139|215:114,1,110,2|8,0:0|0:0,0:0:0:0:
317,73,97970,1,2,0:0:0:0:
131,37,98090,1,8,0:0:0:0:
211,225,98210,1,2,0:0:0:0:
310,88,98330,1,8,0:0:0:0:
111,146,98450,6,0,L|94:287,1,110,2|8,0:0|0:0,0:0:0:0:
197,334,98690,2,0,L|210:224,1,110,2|8,0:0|0:0,0:0:0:0:
330,182,98930,2,0,L|316:291,1,110,2|8,0:0|0:0,0:0:0:0:
481,177,99170,5,2,0:0:0:0:
438,278,99290,1,8,0:0:0:0:
492,173,99410,1,2,0:0:0:0:
390,213,99530,1,8,0:0:0:0:
502,168,99650,1,2,0:0:0:0:
401,124,99770,1,8,0:0:0:0:
512,164,99890,6,0,L|501:46,1,110,6|8,0:0|0:0,0:0:0:0:
390,213,100130,2,0,L|401:331,1,110,2|8,0:0|0:0,0:0:0:0:
274,169,100370,1,2,0:0:0:0:
263,59,100490,1,8,0:0:0:0:
139,134,100610,6,0,P|162:183|152:257,1,110,2|8,0:0|0:0,0:0:0:0:
39,310,100850,2,0,P|36:256|60:207,1,110,2|8,0:0|0:0,0:0:0:0:
131,341,101090,2,0,B|182:334|182:334|251:339,1,110,2|8,0:0|0:0,0:0:0:0:
231,238,101330,5,2,0:0:0:0:
209,236,101390,1,2,0:0:0:0:
187,234,101450,1,2,0:0:0:0:
165,233,101510,1,2,0:0:0:0:
143,231,101570,1,12,0:0:0:0:
390,213,101690,1,12,0:0:0:0:
313,133,101810,1,2,0:0:0:0:
330,120,101870,1,2,0:0:0:0:
350,110,101930,1,2,0:0:0:0:
371,105,101990,1,2,0:0:0:0:
393,103,102050,5,8,0:0:0:0:
415,106,102110,1,2,0:0:0:0:
436,113,102170,1,2,0:0:0:0:
455,124,102230,1,2,0:0:0:0:
471,139,102290,1,12,0:0:0:0:
394,330,102410,1,12,0:0:0:0:
340,246,102530,2,0,L|218:237,1,110,2|0,0:0|0:0,0:0:0:0:
23,284,102770,6,0,L|145:275,1,110,6|2,0:0|0:0,0:0:0:0:
86,183,103010,1,2,0:0:0:0:
79,373,103130,1,2,0:0:0:0:
226,266,103250,1,2,0:0:0:0:
72,360,103370,1,6,0:0:0:0:
78,169,103490,6,0,B|160:165|160:165|209:124,1,110,6|2,0:0|0:0,0:0:0:0:
255,89,103730,1,2,0:0:0:0:
226,266,103850,1,2,0:0:0:0:
258,71,103970,1,2,0:0:0:0:
328,230,104090,1,2,0:0:0:0:
262,53,104210,6,0,L|365:101,1,110,6|2,0:0|0:0,0:0:0:0:
401,228,104450,1,2,0:0:0:0:
270,166,104570,1,2,0:0:0:0:
460,128,104690,1,2,0:0:0:0:
460,128,104750,1,8,0:0:0:0:
460,128,104810,1,2,0:0:0:0:
460,128,104870,1,8,0:0:0:0:
460,128,104930,6,2,L|351:76,1,110,6|2,0:0|0:0,0:0:0:0:
328,230,105170,1,2,0:0:0:0:
467,297,105290,1,2,0:0:0:0:
460,128,105410,1,2,0:0:0:0:
460,128,105470,1,8,0:0:0:0:
460,128,105530,1,2,0:0:0:0:
460,128,105590,1,8,0:0:0:0:
460,128,105650,5,6,0:0:0:0:
467,297,105770,1,2,0:0:0:0:
328,230,105890,1,2,0:0:0:0:
294,362,106010,6,0,P|238:358|144:382,1,110,2|2,0:0|0:0,0:0:0:0:
90,384,106250,1,2,0:0:0:0:
0,283,106370,5,6,0:0:0:0:
151,254,106490,1,2,0:0:0:0:
49,137,106610,1,2,0:0:0:0:
10,271,106730,5,2,0:0:0:0:
161,242,106850,1,2,0:0:0:0:
59,125,106970,1,2,0:0:0:0:
102,297,107090,5,6,0:0:0:0:
233,271,107210,1,2,0:0:0:0:
144,170,107330,1,2,0:0:0:0:
213,350,107450,6,2,L|338:325,1,110
240,259,107690,1,2,0:0:0:0:
292,142,107810,5,6,0:0:0:0:
390,230,107930,1,2,0:0:0:0:
418,100,108050,1,2,0:0:0:0:
273,138,108170,5,2,0:0:0:0:
396,249,108290,1,2,0:0:0:0:
431,85,108410,1,2,0:0:0:0:
492,207,108530,6,2,L|465:328,1,110,6|2,0:0|0:0,0:0:0:0:
353,365,108770,1,2,0:0:0:0:
386,215,108890,1,2,0:0:0:0:
351,376,109010,1,2,0:0:0:0:
281,224,109130,1,2,0:0:0:0:
180,347,109250,6,2,L|90:267,1,110,6|2,0:0|0:0,0:0:0:0:
75,93,109490,1,2,0:0:0:0:
25,212,109610,1,2,0:0:0:0:
84,73,109730,1,2,0:0:0:0:
100,201,109850,1,2,0:0:0:0:
95,53,109970,6,2,L|163:146,1,110,6|2,0:0|0:0,0:0:0:0:
233,74,110210,1,2,0:0:0:0:
175,238,110330,1,2,0:0:0:0:
339,214,110450,1,2,0:0:0:0:
339,214,110510,1,8,0:0:0:0:
339,214,110570,1,2,0:0:0:0:
339,214,110630,1,8,0:0:0:0:
339,214,110690,6,2,L|377:104,1,110,6|2,0:0|0:0,0:0:0:0:
257,164,110930,1,2,0:0:0:0:
451,178,111050,1,2,0:0:0:0:
342,305,111170,1,2,0:0:0:0:
342,305,111230,1,8,0:0:0:0:
342,305,111290,1,2,0:0:0:0:
342,305,111350,1,8,0:0:0:0:
342,305,111410,5,12,0:0:0:0:
331,302,111470,1,2,0:0:0:0:
320,301,111530,1,2,0:0:0:0:
309,301,111590,1,2,0:0:0:0:
298,301,111650,1,2,0:0:0:0:
287,303,111710,1,2,0:0:0:0:
276,305,111770,1,2,0:0:0:0:
266,308,111830,1,2,0:0:0:0:
255,313,111890,2,0,L|181:318,3,55,10|2|2|2,0:0|0:0|0:0|0:0,0:0:0:0:
114,336,112130,5,10,0:0:0:0:
112,319,112190,1,2,0:0:0:0:
113,303,112250,1,2,0:0:0:0:
117,287,112310,1,2,0:0:0:0:
124,272,112370,5,2,0:0:0:0:
134,252,112430,1,2,0:0:0:0:
140,231,112490,1,2,0:0:0:0:
141,209,112550,1,2,0:0:0:0:
136,188,112610,5,2,0:0:0:0:
124,164,112670,1,2,0:0:0:0:
121,136,112730,1,2,0:0:0:0:
130,111,112790,1,2,0:0:0:0:
149,90,112850,5,10,0:0:0:0:
177,74,112910,1,2,0:0:0:0:
209,66,112970,1,10,0:0:0:0:
241,68,113030,1,2,0:0:0:0:
272,81,113090,5,10,0:0:0:0:
301,105,113150,1,2,0:0:0:0:
317,140,113210,1,10,0:0:0:0:
315,178,113270,1,2,0:0:0:0:
297,212,113330,5,10,0:0:0:0:
300,255,113390,1,2,0:0:0:0:
329,287,113450,1,10,0:0:0:0:
372,295,113510,1,2,0:0:0:0:
414,285,113570,5,8,0:0:0:0:
442,239,113630,1,8,0:0:0:0:
440,185,113690,1,8,0:0:0:0:
409,141,113750,1,8,0:0:0:0:
359,122,113810,5,4,0:0:0:0:
305,114,113870,1,4,0:0:0:0:
252,129,113930,1,4,0:0:0:0:
205,155,113990,1,4,0:0:0:0:
152,143,114050,5,8,0:0:0:0:
121,99,114110,1,8,0:0:0:0:
128,45,114170,1,8,0:0:0:0:
168,10,114230,1,8,0:0:0:0:
222,11,114290,6,0,B|275:33|275:33|335:24|335:24|398:76|502:48,1,275,6|0,0:0|0:0,0:0:0:0:
478,166,115010,5,8,0:0:0:0:
347,186,115250,1,0,0:0:0:0:
215,201,115490,1,0,0:0:0:0:
450,319,115730,5,2,0:0:0:0:
478,166,115850,1,2,0:0:0:0:
478,166,115910,1,2,0:0:0:0:
478,166,115970,1,2,0:0:0:0:
411,357,116090,2,0,L|431:249,1,110,8|0,0:0|0:0,0:0:0:0:
347,186,116450,5,2,0:0:0:0:
319,33,116570,1,2,0:0:0:0:
319,33,116630,1,2,0:0:0:0:
319,33,116690,1,2,0:0:0:0:
385,224,116810,2,0,L|366:116,1,110,8|0,0:0|0:0,0:0:0:0:
76,336,117170,5,6,0:0:0:0:
134,217,117410,1,0,0:0:0:0:
190,97,117650,1,0,0:0:0:0:
82,354,117890,5,8,0:0:0:0:
140,235,118130,1,0,0:0:0:0:
196,115,118370,1,0,0:0:0:0:
198,311,118610,5,2,0:0:0:0:
82,354,118730,1,2,0:0:0:0:
82,354,118790,1,2,0:0:0:0:
82,354,118850,1,2,0:0:0:0:
279,279,118970,2,0,P|241:321|235:381,1,110,8|0,0:0|0:0,0:0:0:0:
140,235,119330,5,2,0:0:0:0:
140,235,119390,1,2,0:0:0:0:
140,235,119450,1,2,0:0:0:0:
140,235,119510,1,2,0:0:0:0:
140,235,119570,1,8,0:0:0:0:
379,201,119690,1,8,0:0:0:0:
169,149,119810,1,2,0:0:0:0:
334,125,119930,1,2,0:0:0:0:
257,65,120050,6,0,B|225:102|237:167|258:185|258:185|272:200|272:200|254:222|254:222|305:288|254:350,1,302.5,6|0,0:0|0:0,0:0:0:0:
182,287,120770,5,8,0:0:0:0:
171,291,120830,1,0,0:0:0:0:
160,292,120890,1,0,0:0:0:0:
150,291,120950,1,0,0:0:0:0:
123,267,121010,5,0,0:0:0:0:
133,262,121070,1,0,0:0:0:0:
144,261,121130,1,0,0:0:0:0:
154,262,121190,1,0,0:0:0:0:
132,290,121250,5,0,0:0:0:0:
121,294,121310,1,0,0:0:0:0:
111,296,121370,1,0,0:0:0:0:
100,295,121430,1,0,0:0:0:0:
86,262,121490,5,2,0:0:0:0:
99,238,121550,1,0,0:0:0:0:
121,221,121610,1,2,0:0:0:0:
146,212,121670,1,2,0:0:0:0:
180,168,121730,5,2,0:0:0:0:
194,192,121790,1,0,0:0:0:0:
215,209,121850,1,8,0:0:0:0:
241,218,121910,1,0,0:0:0:0:
286,186,121970,5,0,0:0:0:0:
278,212,122030,1,0,0:0:0:0:
270,238,122090,1,0,0:0:0:0:
262,265,122150,1,0,0:0:0:0:
254,291,122210,6,0,B|321:280|321:280|347:241|405:242|405:242|432:202|470:206|470:206|447:243,1,275,6|0,0:0|0:0,0:0:0:0:
395,334,122930,5,6,0:0:0:0:
269,373,123170,1,0,0:0:0:0:
141,337,123410,1,0,0:0:0:0:
243,36,123650,5,8,0:0:0:0:
245,57,123710,1,0,0:0:0:0:
248,79,123770,1,0,0:0:0:0:
250,101,123830,1,0,0:0:0:0:
282,94,123890,5,0,0:0:0:0:
279,116,123950,1,0,0:0:0:0:
277,138,124010,1,0,0:0:0:0:
274,160,124070,1,0,0:0:0:0:
241,152,124130,5,0,0:0:0:0:
244,174,124190,1,0,0:0:0:0:
247,196,124250,1,0,0:0:0:0:
249,218,124310,1,0,0:0:0:0:
271,241,124370,6,2,L|268:282,1,27.5
337,283,124490,2,2,L|334:324,1,27.5
343,203,124610,5,2,0:0:0:0:
409,245,124730,1,2,0:0:0:0:
351,120,124850,5,6,0:0:0:0:
332,364,124970,1,8,0:0:0:0:
337,283,125090,5,6,0:0:0:0:
268,318,125210,1,2,0:0:0:0:
271,241,125330,5,2,0:0:0:0:
202,276,125450,1,2,0:0:0:0:
337,283,125570,5,6,0:0:0:0:
135,384,125690,1,10,0:0:0:0:
117,304,125810,6,0,L|105:266,2,36.6666666666667,2|0|0,0:0|0:0|0:0,0:0:0:0:
172,195,126050,6,0,L|167:137,2,55.0000020980836,2|0|0,0:0|0:0|0:0,0:0:0:0:
281,126,126290,6,0,L|286:48,2,73.3333333333333,2|0|0,0:0|0:0|0:0,0:0:0:0:
397,77,126530,5,10,0:0:0:0:
447,102,126610,1,0,0:0:0:0:
459,150,126690,1,0,0:0:0:0:
430,190,126770,5,2,0:0:0:0:
380,194,126850,1,0,0:0:0:0:
340,224,126930,1,0,0:0:0:0:
328,272,127010,5,2,0:0:0:0:
356,319,127090,1,0,0:0:0:0:
408,333,127170,1,0,0:0:0:0:
457,300,127250,5,2,0:0:0:0:
467,242,127330,1,0,0:0:0:0:
429,196,127410,1,0,0:0:0:0:
370,202,127490,5,2,0:0:0:0:
319,172,127570,1,0,0:0:0:0:
304,115,127650,1,0,0:0:0:0:
328,61,127730,5,2,0:0:0:0:
381,36,127810,1,0,0:0:0:0:
436,53,127890,1,0,0:0:0:0:
466,103,127970,6,0,L|497:67,3,27.5,2|0|2|0,0:0|0:0|0:0|0:0,0:0:0:0:
387,120,128210,5,2,0:0:0:0:
348,106,128270,1,0,0:0:0:0:
307,112,128330,1,10,0:0:0:0:
274,135,128390,1,8,0:0:0:0:
255,172,128450,5,8,0:0:0:0:
275,167,128510,1,8,0:0:0:0:
302,167,128570,1,8,0:0:0:0:
327,178,128630,1,8,0:0:0:0:
345,198,128690,6,0,B|409:207|409:207|451:191|451:191|521:201,1,165,6|2,0:0|0:0,0:0:0:0:
438,299,129170,5,2,0:0:0:0:
322,282,129290,1,2,0:0:0:0:
446,315,129410,5,8,0:0:0:0:
306,294,129530,1,2,0:0:0:0:
454,330,129650,6,2,L|316:308,1,110
231,346,129890,5,2,0:0:0:0:
339,196,130010,1,2,0:0:0:0:
232,322,130130,5,2,0:0:0:0:
318,202,130250,1,2,0:0:0:0:
232,295,130370,6,0,B|296:208|296:208|232:216,1,165,2|2,0:0|0:0,0:0:0:0:
199,133,130850,5,2,0:0:0:0:
215,134,130910,1,2,0:0:0:0:
231,134,130970,1,2,0:0:0:0:
248,131,131030,1,2,0:0:0:0:
296,119,131090,5,10,0:0:0:0:
312,117,131150,1,2,0:0:0:0:
328,117,131210,1,2,0:0:0:0:
345,120,131270,1,2,0:0:0:0:
393,131,131330,5,2,0:0:0:0:
410,132,131390,1,2,0:0:0:0:
426,132,131450,1,2,0:0:0:0:
442,129,131510,1,2,0:0:0:0:
488,112,131570,6,0,B|472:179|472:179|477:207|477:207|466:243|466:243|480:287|445:358|374:340,1,275,6|2,0:0|0:0,0:0:0:0:
392,265,132290,6,2,B|389:253|389:253|339:266,1,55,10|2,0:0|0:0,0:0:0:0:
272,245,132530,2,2,B|265:234|265:234|221:259,1,55
153,237,132770,2,2,B|144:228|144:228|107:264,1,55
61,155,133010,5,2,0:0:0:0:
34,82,133130,1,2,0:0:0:0:
110,92,133250,1,2,0:0:0:0:
54,153,133370,5,10,0:0:0:0:
38,77,133490,1,2,0:0:0:0:
112,97,133610,1,2,0:0:0:0:
48,151,133730,5,2,0:0:0:0:
42,73,133850,1,2,0:0:0:0:
113,104,133970,1,2,0:0:0:0:
42,148,134090,5,8,0:0:0:0:
40,180,134150,1,8,0:0:0:0:
38,213,134210,1,8,0:0:0:0:
37,246,134270,1,8,0:0:0:0:
35,279,134330,1,8,0:0:0:0:
34,312,134390,1,8,0:0:0:0:
32,345,134450,6,2,L|94:332,1,55
151,275,134690,2,2,L|212:288,1,55
288,255,134930,2,2,L|338:293,1,55
434,181,135170,6,0,B|436:207|436:207|429:245,1,55,8|0,0:0|0:0,0:0:0:0:
297,177,135410,2,2,P|263:180|230:202,1,55
128,203,135650,2,2,P|98:220|77:253,1,55
127,111,135890,6,0,L|117:63,2,36.6666666666667,10|0|0,0:0|0:0|0:0,0:0:0:0:
203,81,136130,6,0,L|207:26,2,45.4666648628744,4|0|0,0:0|0:0|0:0,0:0:0:0:
282,82,136370,6,0,L|302:25,2,55.0000020980836,2|0|0,0:0|0:0|0:0,0:0:0:0:
405,81,136610,5,2,0:0:0:0:
361,112,136690,1,0,0:0:0:0:
361,172,136770,1,0,0:0:0:0:
417,206,136850,5,0,0:0:0:0:
449,263,136930,1,0,0:0:0:0:
413,318,137010,1,0,0:0:0:0:
345,342,137090,5,0,0:0:0:0:
280,310,137170,1,0,0:0:0:0:
203,305,137250,1,0,0:0:0:0:
136,344,137330,5,6,0:0:0:0:
30,296,137450,1,8,0:0:0:0:
149,354,137570,5,2,0:0:0:0:
100,230,137690,1,8,0:0:0:0:
203,305,137810,5,2,0:0:0:0:
158,151,137930,1,8,0:0:0:0:
211,295,138050,5,2,0:0:0:0:
209,152,138170,1,8,0:0:0:0:
221,286,138290,5,2,0:0:0:0:
259,165,138410,1,8,0:0:0:0:
228,279,138530,5,2,0:0:0:0:
301,192,138650,1,8,0:0:0:0:
411,359,138770,5,2,0:0:0:0:
381,229,138890,1,8,0:0:0:0:
426,347,139010,5,2,0:0:0:0:
418,202,139130,1,8,0:0:0:0:
441,336,139250,5,2,0:0:0:0:
467,177,139370,1,8,0:0:0:0:
287,273,139490,6,0,L|302:179,1,82.5000031471254,2|8,0:0|0:0,0:0:0:0:
181,39,139730,2,0,L|196:133,1,82.5000031471254,2|8,0:0|0:0,0:0:0:0:
368,140,139970,5,2,0:0:0:0:
285,264,140090,1,8,0:0:0:0:
407,67,140210,5,6,0:0:0:0:
348,61,140290,1,0,0:0:0:0:
302,98,140370,1,0,0:0:0:0:
296,156,140450,5,2,0:0:0:0:
333,202,140530,1,0,0:0:0:0:
363,253,140610,1,0,0:0:0:0:
345,309,140690,5,2,0:0:0:0:
291,333,140770,1,0,0:0:0:0:
238,309,140850,1,0,0:0:0:0:
187,278,140930,5,6,0:0:0:0:
142,318,141010,1,0,0:0:0:0:
83,322,141090,1,0,0:0:0:0:
26,300,141170,5,2,0:0:0:0:
7,243,141250,1,0,0:0:0:0:
48,198,141330,1,0,0:0:0:0:
107,207,141410,5,2,0:0:0:0:
129,262,141490,1,0,0:0:0:0:
180,294,141570,1,0,0:0:0:0:
239,288,141650,5,6,0:0:0:0:
274,334,141730,1,0,0:0:0:0:
332,336,141810,1,0,0:0:0:0:
371,292,141890,5,2,0:0:0:0:
364,232,141970,1,0,0:0:0:0:
334,181,142050,1,0,0:0:0:0:
297,135,142130,5,2,0:0:0:0:
303,77,142210,1,0,0:0:0:0:
349,40,142290,1,0,0:0:0:0:
407,67,142370,6,0,B|426:126|426:126|419:200,1,110,6|8,0:0|0:0,0:0:0:0:
410,266,142610,1,2,0:0:0:0:
503,65,142730,1,8,0:0:0:0:
297,135,142850,2,0,L|285:250,1,110,2|8,0:0|0:0,0:0:0:0:
168,335,143090,5,2,0:0:0:0:
143,301,143150,1,0,0:0:0:0:
129,262,143210,1,8,0:0:0:0:
128,221,143270,1,0,0:0:0:0:
138,181,143330,5,2,0:0:0:0:
160,146,143390,1,2,0:0:0:0:
177,109,143450,1,8,0:0:0:0:
165,70,143510,1,0,0:0:0:0:
137,40,143570,6,0,B|109:50|109:50|83:48,3,55,2|2|8|0,0:0|0:0|0:0|0:0,0:0:0:0:
249,74,143810,5,2,0:0:0:0:
253,85,143870,1,2,0:0:0:0:
259,94,143930,1,8,0:0:0:0:
266,103,143990,1,0,0:0:0:0:
274,110,144050,5,2,0:0:0:0:
284,115,144110,1,2,0:0:0:0:
294,118,144170,1,8,0:0:0:0:
305,119,144230,1,2,0:0:0:0:
316,119,144290,5,2,0:0:0:0:
327,116,144350,1,2,0:0:0:0:
337,111,144410,1,8,0:0:0:0:
346,104,144470,1,2,0:0:0:0:
354,96,144530,5,2,0:0:0:0:
356,150,144590,1,0,0:0:0:0:
328,196,144650,1,8,0:0:0:0:
279,219,144710,1,0,0:0:0:0:
225,211,144770,5,2,0:0:0:0:
188,189,144830,1,2,0:0:0:0:
145,193,144890,1,8,0:0:0:0:
115,224,144950,1,0,0:0:0:0:
109,266,145010,6,0,B|104:302|104:302|78:327,3,55,2|2|8|0,0:0|0:0|0:0|0:0,0:0:0:0:
212,304,145250,5,2,0:0:0:0:
227,288,145310,1,2,0:0:0:0:
235,268,145370,1,8,0:0:0:0:
236,246,145430,1,0,0:0:0:0:
230,225,145490,5,2,0:0:0:0:
224,210,145550,1,2,0:0:0:0:
223,194,145610,1,8,0:0:0:0:
229,178,145670,1,2,0:0:0:0:
239,165,145730,5,2,0:0:0:0:
245,156,145790,1,2,0:0:0:0:
248,146,145850,1,8,0:0:0:0:
250,135,145910,1,2,0:0:0:0:
249,124,145970,5,8,0:0:0:0:
253,157,146030,1,2,0:0:0:0:
256,190,146090,1,2,0:0:0:0:
259,222,146150,1,2,0:0:0:0:
262,255,146210,5,8,0:0:0:0:
294,235,146270,1,2,0:0:0:0:
332,228,146330,1,2,0:0:0:0:
370,236,146390,1,2,0:0:0:0:
402,256,146450,6,0,P|419:268|444:304,3,55,8|2|2|2,0:0|0:0|0:0|0:0,0:0:0:0:
480,181,146690,5,8,0:0:0:0:
435,159,146750,1,2,0:0:0:0:
380,167,146810,1,2,0:0:0:0:
338,211,146870,1,2,0:0:0:0:
322,269,146930,5,2,0:0:0:0:
278,310,146990,1,2,0:0:0:0:
220,324,147050,1,2,0:0:0:0:
162,308,147110,1,2,0:0:0:0:
120,266,147170,5,2,0:0:0:0:
105,208,147230,1,2,0:0:0:0:
119,150,147290,1,2,0:0:0:0:
161,107,147350,1,2,0:0:0:0:
218,90,147410,5,12,0:0:0:0:
146,355,147530,1,12,0:0:0:0:
230,78,147650,5,12,0:0:0:0:
230,353,147770,1,12,0:0:0:0:
243,69,147890,5,12,0:0:0:0:
314,334,148010,1,12,0:0:0:0:
256,62,148130,6,8,L|252:175,2,73.3333333333333
354,53,148370,6,4,L|359:165,2,73.3333333333333
446,99,148610,6,4,L|461:210,2,73.3333333333333
407,250,148850,5,6,0:0:0:0:
371,240,148930,1,2,0:0:0:0:
335,246,149010,1,2,0:0:0:0:
304,265,149090,1,2,0:0:0:0:
274,284,149170,1,2,0:0:0:0:
238,279,149250,1,2,0:0:0:0:
214,252,149330,5,14,0:0:0:0:
192,280,149410,1,2,0:0:0:0:
156,286,149490,1,2,0:0:0:0:
125,268,149570,1,10,0:0:0:0:
113,235,149650,1,2,0:0:0:0:
126,201,149730,1,2,0:0:0:0:
158,184,149810,5,14,0:0:0:0:
147,218,149890,1,2,0:0:0:0:
117,238,149970,1,2,0:0:0:0:
82,232,150050,1,10,0:0:0:0:
59,205,150130,1,2,0:0:0:0:
60,169,150210,1,2,0:0:0:0:
84,142,150290,6,2,L|70:88,2,36.6666666666667,14|2|2,0:0|0:0|0:0,0:0:0:0:
151,94,150530,2,2,L|151:37,2,36.6666666666667,10|2|2,0:0|0:0|0:0,0:0:0:0:
230,73,150770,2,2,L|244:18,2,36.6666666666667,10|2|2,0:0|0:0|0:0,0:0:0:0:
291,167,151010,6,2,L|276:221,2,36.6666666666667,10|2|2,0:0|0:0|0:0,0:0:0:0:
373,140,151250,2,2,L|372:196,2,36.6666666666667,10|2|2,0:0|0:0|0:0,0:0:0:0:
443,96,151490,2,2,L|457:150,2,36.6666666666667,10|2|2,0:0|0:0|0:0,0:0:0:0:
461,228,151730,6,2,L|412:240,2,36.6666666666667,10|2|2,0:0|0:0|0:0,0:0:0:0:
354,293,151970,2,2,L|303:291,2,36.6666666666667,10|2|2,0:0|0:0|0:0,0:0:0:0:
236,331,152210,2,2,L|187:316,2,36.6666666666667,10|2|2,0:0|0:0|0:0,0:0:0:0:
156,234,152450,5,8,0:0:0:0:
102,326,152570,1,0,0:0:0:0:
165,220,152690,5,10,0:0:0:0:
89,294,152810,1,0,0:0:0:0:
175,207,152930,5,2,0:0:0:0:
82,258,153050,1,0,0:0:0:0:
181,193,153170,5,2,0:0:0:0:
285,218,153290,1,0,0:0:0:0:
171,180,153410,5,2,0:0:0:0:
278,177,153530,1,0,0:0:0:0:
162,166,153650,5,10,0:0:0:0:
265,135,153770,1,0,0:0:0:0:
154,153,153890,6,2,L|177:121,2,36.6666666666667,10|2|2,0:0|0:0|0:0,0:0:0:0:
265,135,154130,1,10,0:0:0:0:
261,98,154210,1,2,0:0:0:0:
276,66,154290,1,2,0:0:0:0:
307,48,154370,1,2,0:0:0:0:
344,48,154450,1,2,0:0:0:0:
373,69,154530,1,2,0:0:0:0:
388,102,154610,6,2,L|415:67,2,36.6666666666667,14|2|2,0:0|0:0|0:0,0:0:0:0:
452,192,154850,2,2,L|477:155,2,36.6666666666667,14|2|2,0:0|0:0|0:0,0:0:0:0:
482,298,155090,2,2,L|516:269,2,36.6666666666667,14|2|2,0:0|0:0|0:0,0:0:0:0:
384,309,155330,5,14,0:0:0:0:
349,297,155410,1,2,0:0:0:0:
312,297,155490,1,2,0:0:0:0:
278,309,155570,2,2,L|267:273,2,36.6666666666667,14|2|2,0:0|0:0|0:0,0:0:0:0:
198,353,155810,1,6,0:0:0:0:
188,317,155890,1,2,0:0:0:0:
178,282,155970,1,2,0:0:0:0:
168,247,156050,6,2,L|182:196,2,36.6666666666667,14|2|2,0:0|0:0|0:0,0:0:0:0:
102,195,156290,2,2,L|102:142,2,36.6666666666667,6|2|2,0:0|0:0|0:0,0:0:0:0:
21,207,156530,2,2,L|7:155,2,36.6666666666667,14|2|2,0:0|0:0|0:0,0:0:0:0:
72,71,156770,5,14,0:0:0:0:
106,83,156850,1,2,0:0:0:0:
142,84,156930,1,2,0:0:0:0:
177,72,157010,2,10,P|197:68|224:70,2,36.6666666666667,14|10|10,0:0|0:0|0:0,0:0:0:0:
257,145,157250,2,2,P|237:149|210:147,2,36.6666666666667,6|2|2,0:0|0:0|0:0,0:0:0:0:
369,71,157490,5,14,0:0:0:0:
362,107,157570,1,2,0:0:0:0:
356,143,157650,1,2,0:0:0:0:
350,179,157730,2,2,L|358:225,2,36.6666666666667,14|2|2,0:0|0:0|0:0,0:0:0:0:
276,228,157970,2,2,L|268:274,2,36.6666666666667,14|2|2,0:0|0:0|0:0,0:0:0:0:
177,285,158210,5,14,0:0:0:0:
191,318,158290,1,2,0:0:0:0:
217,344,158370,1,2,0:0:0:0:
250,357,158450,1,14,0:0:0:0:
287,357,158530,1,2,0:0:0:0:
320,342,158610,1,2,0:0:0:0:
345,316,158690,2,2,L|401:313,2,36.6666666666667,6|2|2,0:0|0:0|0:0,0:0:0:0:
444,217,158930,6,2,L|413:235,5,36.6666666666667,14|2|2|10|2|2,0:0|0:0|0:0|0:0|0:0|0:0,0:0:0:0:
369,71,159410,1,10,0:0:0:0:
350,179,159530,1,0,0:0:0:0:
257,42,159650,6,2,L|262:78,2,36.6666666666667,14|2|2,0:0|0:0|0:0,0:0:0:0:
170,82,159890,1,10,0:0:0:0:
137,98,159970,1,2,0:0:0:0:
118,128,160050,1,2,0:0:0:0:
118,164,160130,1,2,0:0:0:0:
138,195,160210,1,2,0:0:0:0:
153,227,160290,1,2,0:0:0:0:
144,262,160370,6,2,P|130:280|94:298,2,36.6666666666667,14|2|2,0:0|0:0|0:0,0:0:0:0:
227,270,160610,2,2,P|220:291|195:323,2,36.6666666666667,14|2|2,0:0|0:0|0:0,0:0:0:0:
306,242,160850,2,2,P|309:264|300:303,2,36.6666666666667,14|2|2,0:0|0:0|0:0,0:0:0:0:
422,300,161090,5,14,0:0:0:0:
407,266,161170,1,2,0:0:0:0:
411,230,161250,1,2,0:0:0:0:
432,201,161330,1,10,0:0:0:0:
450,169,161410,1,2,0:0:0:0:
451,133,161490,1,2,0:0:0:0:
435,100,161570,1,10,0:0:0:0:
405,79,161650,1,2,0:0:0:0:
369,75,161730,1,2,0:0:0:0:
335,88,161810,6,2,P|313:98|304:125,2,36.6666666666667,10|2|2,0:0|0:0|0:0,0:0:0:0:
242,56,162050,2,2,P|225:74|228:102,2,36.6666666666667,10|2|2,0:0|0:0|0:0,0:0:0:0:
142,60,162290,2,2,P|134:83|149:107,2,36.6666666666667,10|2|2,0:0|0:0|0:0,0:0:0:0:
75,251,162530,5,10,0:0:0:0:
44,150,162650,1,0,0:0:0:0:
89,265,162770,5,10,0:0:0:0:
85,159,162890,1,0,0:0:0:0:
105,281,163010,5,10,0:0:0:0:
128,177,163130,1,0,0:0:0:0:
117,295,163250,6,2,L|142:326,5,36.6666666666667,14|2|2|10|2|2,0:0|0:0|0:0|0:0|0:0|0:0,0:0:0:0:
241,301,163730,2,2,L|212:280,2,36.6666666666667,14|2|2,0:0|0:0|0:0,0:0:0:0:
336,146,163970,5,14,0:0:0:0:
331,189,164050,1,6,0:0:0:0:
327,233,164130,1,6,0:0:0:0:
323,277,164210,2,2,L|327:326,2,36.6666666666667,6|2|2,0:0|0:0|0:0,0:0:0:0:
424,250,164450,2,2,L|419:299,2,36.6666666666667,10|2|2,0:0|0:0|0:0,0:0:0:0:
336,146,164690,5,10,0:0:0:0:
229,172,164810,1,0,0:0:0:0:
352,141,164930,5,2,0:0:0:0:
241,138,165050,1,0,0:0:0:0:
366,137,165170,5,10,0:0:0:0:
259,105,165290,1,0,0:0:0:0:
377,134,165410,5,10,0:0:0:0:
351,27,165530,1,0,0:0:0:0:
381,150,165650,5,2,0:0:0:0:
385,39,165770,1,0,0:0:0:0:
386,164,165890,5,2,0:0:0:0:
418,57,166010,1,0,0:0:0:0:
390,180,166130,6,2,L|398:225,2,36.6666666666667,14|2|2,0:0|0:0|0:0,0:0:0:0:
320,240,166370,2,2,L|316:285,2,36.6666666666667,10|2|2,0:0|0:0|0:0,0:0:0:0:
242,271,166610,2,2,L|226:313,2,36.6666666666667,10|2|2,0:0|0:0|0:0,0:0:0:0:
143,269,166850,5,14,0:0:0:0:
108,280,166930,1,2,0:0:0:0:
75,266,167010,1,2,0:0:0:0:
58,235,167090,1,10,0:0:0:0:
59,198,167170,1,2,0:0:0:0:
81,170,167250,1,10,0:0:0:0:
115,158,167330,1,10,0:0:0:0:
138,132,167410,1,2,0:0:0:0:
129,98,167490,1,2,0:0:0:0:
96,86,167570,5,14,0:0:0:0:
116,116,167650,1,2,0:0:0:0:
148,134,167730,1,2,0:0:0:0:
184,134,167810,1,10,0:0:0:0:
216,117,167890,1,2,0:0:0:0:
236,86,167970,1,0,0:0:0:0:
237,50,168050,2,2,P|233:29|221:9,2,36.6666666666667,10|2|2,0:0|0:0|0:0,0:0:0:0:
319,115,168290,6,2,L|304:170,2,36.6666666666667,14|2|2,0:0|0:0|0:0,0:0:0:0:
387,159,168530,2,2,L|386:216,2,36.6666666666667,10|2|2,0:0|0:0|0:0,0:0:0:0:
461,182,168770,2,2,L|475:237,2,36.6666666666667
372,272,169010,5,2,0:0:0:0:
458,340,169130,1,0,0:0:0:0:
359,276,169250,5,10,0:0:0:0:
424,363,169370,1,0,0:0:0:0:
280,216,169490,5,2,0:0:0:0:
227,312,169610,1,0,0:0:0:0:
293,214,169730,5,8,0:0:0:0:
267,320,169850,1,0,0:0:0:0:
162,132,169970,5,10,0:0:0:0:
197,235,170090,1,0,0:0:0:0:
148,128,170210,5,10,0:0:0:0:
156,236,170330,1,0,0:0:0:0:
148,128,170450,6,0,L|202:117,2,55,6|0|0,0:0|0:0|0:0,0:0:0:0:
58,52,170690,5,8,0:0:0:0:
36,90,170750,1,8,0:0:0:0:
31,133,170810,1,8,0:0:0:0:
43,175,170870,1,8,0:0:0:0:
71,209,170930,5,2,0:0:0:0:
50,214,170990,1,2,0:0:0:0:
29,220,171050,1,2,0:0:0:0:
176,281,171170,5,2,0:0:0:0:
51,312,171290,1,2,0:0:0:0:
267,320,171410,5,2,0:0:0:0:
273,298,171470,1,2,0:0:0:0:
274,277,171530,1,2,0:0:0:0:
270,255,171590,1,2,0:0:0:0:
262,235,171650,5,2,0:0:0:0:
253,215,171710,1,2,0:0:0:0:
251,193,171770,1,2,0:0:0:0:
257,172,171830,1,2,0:0:0:0:
271,155,171890,6,2,P|296:99|250:35,1,110,6|2,0:0|0:0,0:0:0:0:
279,56,172281,5,2,0:0:0:0:
373,112,172411,1,2,0:0:0:0:
402,218,172542,1,2,0:0:0:0:
360,319,172672,6,2,L|375:379,3,55,6|2|2|2,0:0|0:0|0:0|0:0,0:0:0:0:
270,255,172933,2,2,L|241:140,1,110,6|2,0:0|0:0,0:0:0:0:
125,333,173194,2,2,L|154:218,1,110,6|2,0:0|0:0,0:0:0:0:
51,196,173455,5,2,0:0:0:0:
60,176,173520,1,2,0:0:0:0:
73,158,173585,1,2,0:0:0:0:
90,144,173650,1,2,0:0:0:0:
109,133,173715,1,2,0:0:0:0:
130,127,173781,1,2,0:0:0:0:
152,124,173846,1,2,0:0:0:0:
174,127,173911,1,2,0:0:0:0:
195,125,173976,1,2,0:0:0:0:
215,115,174041,1,2,0:0:0:0:
229,98,174106,1,2,0:0:0:0:
236,77,174171,1,2,0:0:0:0:
234,56,174237,5,10,0:0:0:0:
331,130,174368,1,2,0:0:0:0:
330,108,174433,1,2,0:0:0:0:
327,86,174498,1,4,0:0:0:0:
254,233,174629,1,2,0:0:0:0:
255,211,174694,1,2,0:0:0:0:
258,189,174759,1,4,0:0:0:0:
338,271,174890,1,4,0:0:0:0:
453,104,175020,6,0,B|445:190|445:190|450:204|450:204|438:335,1,220,6|2,0:0|0:0,0:0:0:0:
338,271,175411,1,0,0:0:0:0:
338,271,175672,5,2,0:0:0:0:
254,233,175803,1,12,0:0:0:0:
252,238,175868,1,2,0:0:0:0:
251,243,175933,1,2,0:0:0:0:
250,249,175998,1,2,0:0:0:0:
249,254,176063,1,12,0:0:0:0:
239,61,176324,1,6,0:0:0:0:
73,278,176585,5,2,0:0:0:0:
71,256,176650,1,2,0:0:0:0:
74,234,176715,1,2,0:0:0:0:
83,214,176780,1,2,0:0:0:0:
98,198,176846,2,2,L|93:130,1,55
169,112,176976,1,2,0:0:0:0:
183,128,177041,1,2,0:0:0:0:
202,139,177106,1,2,0:0:0:0:
223,146,177171,1,2,0:0:0:0:
245,147,177236,1,2,0:0:0:0:
266,142,177302,1,2,0:0:0:0:
286,132,177367,5,8,0:0:0:0:
239,61,177498,1,2,0:0:0:0:
152,258,177759,1,2,0:0:0:0:
413,50,178020,1,2,0:0:0:0:
413,50,178150,5,6,0:0:0:0:
411,71,178215,1,2,0:0:0:0:
404,92,178280,1,2,0:0:0:0:
392,111,178345,1,2,0:0:0:0:
376,126,178410,1,2,0:0:0:0:
357,136,178476,1,2,0:0:0:0:
335,141,178541,1,2,0:0:0:0:
314,141,178606,1,2,0:0:0:0:
292,136,178671,1,2,0:0:0:0:
273,125,178736,1,2,0:0:0:0:
257,110,178802,1,2,0:0:0:0:
246,91,178867,1,2,0:0:0:0:
239,70,178933,6,2,L|206:128,3,55,14|2|2|2,0:0|0:0|0:0|0:0,0:0:0:0:
150,73,179194,2,2,L|112:130,3,55,14|2|2|2,0:0|0:0|0:0|0:0,0:0:0:0:
75,40,179455,2,2,L|35:88,3,55,14|2|2|2,0:0|0:0|0:0|0:0,0:0:0:0:
36,157,179716,5,2,0:0:0:0:
35,178,179781,1,2,0:0:0:0:
42,199,179846,1,2,0:0:0:0:
55,217,179911,1,2,0:0:0:0:
73,229,179976,1,2,0:0:0:0:
94,235,180042,1,2,0:0:0:0:
116,234,180107,1,10,0:0:0:0:
136,227,180172,1,2,0:0:0:0:
157,221,180237,1,2,0:0:0:0:
179,225,180302,1,2,0:0:0:0:
197,238,180367,1,2,0:0:0:0:
208,257,180432,1,2,0:0:0:0:
211,278,180498,5,10,0:0:0:0:
190,271,180563,1,2,0:0:0:0:
173,257,180628,1,2,0:0:0:0:
160,240,180693,1,2,0:0:0:0:
154,219,180758,1,2,0:0:0:0:
154,197,180824,1,2,0:0:0:0:
160,176,180889,1,2,0:0:0:0:
173,158,180954,1,2,0:0:0:0:
189,144,181020,1,2,0:0:0:0:
199,124,181085,1,2,0:0:0:0:
199,102,181150,1,2,0:0:0:0:
191,82,181215,1,2,0:0:0:0:
175,67,181281,5,6,0:0:0:0:
241,107,181411,1,0,0:0:0:0:
307,146,181541,1,0,0:0:0:0:
307,68,181672,5,6,0:0:0:0:
374,107,181802,1,0,0:0:0:0:
440,146,181932,1,0,0:0:0:0:
441,68,182063,5,6,0:0:0:0:
374,107,182193,1,0,0:0:0:0:
308,146,182323,1,0,0:0:0:0:
440,146,182455,5,6,0:0:0:0:
373,185,182585,1,2,0:0:0:0:
307,224,182715,1,2,0:0:0:0:
374,107,182846,5,10,0:0:0:0:
373,185,182976,1,2,0:0:0:0:
371,262,183107,1,2,0:0:0:0:
369,338,183237,1,2,0:0:0:0:
191,272,183368,1,6,0:0:0:0:
191,272,183759,5,2,0:0:0:0:
21,248,183890,2,0,L|40:322,1,55,8|4,0:0|0:0,0:0:0:0:
121,314,184020,2,0,L|102:388,1,55,8|4,0:0|0:0,0:0:0:0:
107,137,184150,5,2,0:0:0:0:
104,158,184215,1,2,0:0:0:0:
101,180,184281,2,0,B|63:157|63:157|46:162,1,55,8|2,0:0|0:0,0:0:0:0:
207,112,184410,5,6,0:0:0:0:
238,122,184476,1,2,0:0:0:0:
271,121,184541,1,2,0:0:0:0:
301,109,184606,1,2,0:0:0:0:
326,88,184672,5,10,0:0:0:0:
339,118,184737,1,2,0:0:0:0:
341,151,184802,1,2,0:0:0:0:
330,182,184867,1,2,0:0:0:0:
310,207,184932,5,10,0:0:0:0:
342,213,184998,1,2,0:0:0:0:
368,233,185063,1,2,0:0:0:0:
381,263,185128,1,2,0:0:0:0:
379,296,185193,5,10,0:0:0:0:
395,267,185259,1,2,0:0:0:0:
412,239,185324,1,2,0:0:0:0:
429,210,185389,1,2,0:0:0:0:
445,182,185455,5,10,0:0:0:0:
415,170,185520,1,2,0:0:0:0:
397,143,185585,1,2,0:0:0:0:
396,110,185650,1,2,0:0:0:0:
414,83,185715,5,10,0:0:0:0:
382,89,185781,1,2,0:0:0:0:
349,86,185846,1,2,0:0:0:0:
319,73,185911,1,2,0:0:0:0:
293,53,185976,5,10,0:0:0:0:
297,85,186041,1,2,0:0:0:0:
300,118,186106,1,2,0:0:0:0:
304,151,186172,1,2,0:0:0:0:
332,168,186237,5,10,0:0:0:0:
336,201,186302,1,2,0:0:0:0:
340,234,186367,1,2,0:0:0:0:
343,266,186432,1,2,0:0:0:0:
318,288,186498,6,2,L|324:352,1,55,10|2,0:0|0:0,0:0:0:0:
288,279,186629,2,2,L|294:343,1,55
260,270,186759,2,2,L|266:334,1,55
124,222,186889,6,2,L|118:286,1,55,10|2,0:0|0:0,0:0:0:0:
154,213,187020,2,2,L|148:277,1,55
182,204,187150,2,2,L|176:268,1,55
103,134,187280,6,0,L|37:128,1,55,10|2,0:0|0:0,0:0:0:0:
304,151,187411,2,0,L|370:145,1,55,10|2,0:0|0:0,0:0:0:0:
229,116,187542,6,2,L|236:60,1,55,10|2,0:0|0:0,0:0:0:0:
213,85,187672,2,2,L|220:29,1,55
199,57,187803,2,2,L|206:1,1,55
103,134,187932,6,2,L|96:190,1,55,10|2,0:0|0:0,0:0:0:0:
119,165,188062,2,2,L|112:221,1,55
133,193,188193,2,2,L|126:249,1,55
229,116,188324,5,8,0:0:0:0:
235,159,188389,1,8,0:0:0:0:
242,203,188454,1,4,0:0:0:0:
248,246,188519,1,4,0:0:0:0:
255,290,188585,5,6,0:0:0:0:
283,272,188650,1,2,0:0:0:0:
314,262,188715,1,2,0:0:0:0:
347,260,188780,1,2,0:0:0:0:
379,265,188846,5,10,0:0:0:0:
359,239,188911,1,2,0:0:0:0:
331,221,188976,1,2,0:0:0:0:
299,213,189041,1,2,0:0:0:0:
267,216,189107,5,10,0:0:0:0:
294,198,189172,1,2,0:0:0:0:
326,188,189237,1,2,0:0:0:0:
359,186,189302,1,2,0:0:0:0:
391,191,189368,5,10,0:0:0:0:
370,164,189433,1,2,0:0:0:0:
343,147,189498,1,2,0:0:0:0:
311,139,189563,1,2,0:0:0:0:
278,141,189629,5,14,0:0:0:0:
258,114,189694,1,2,0:0:0:0:
231,96,189759,1,2,0:0:0:0:
199,87,189824,1,2,0:0:0:0:
166,89,189889,5,10,0:0:0:0:
194,106,189954,1,2,0:0:0:0:
215,131,190019,1,2,0:0:0:0:
227,162,190084,1,2,0:0:0:0:
228,195,190150,5,10,0:0:0:0:
208,168,190215,1,2,0:0:0:0:
181,150,190280,1,2,0:0:0:0:
149,141,190345,1,2,0:0:0:0:
116,143,190411,5,10,0:0:0:0:
144,159,190476,1,2,0:0:0:0:
165,185,190541,1,2,0:0:0:0:
176,216,190606,1,2,0:0:0:0:
177,248,190672,6,2,L|242:227,1,55,10|2,0:0|0:0,0:0:0:0:
173,276,190803,2,2,L|238:255,1,55
168,301,190933,2,2,L|233:280,1,55
355,296,191063,6,2,L|290:275,1,55,10|2,0:0|0:0,0:0:0:0:
359,324,191194,2,2,L|294:303,1,55
364,349,191324,2,2,L|299:328,1,55
228,195,191454,6,0,B|195:179|195:179|173:178,1,55,10|2,0:0|0:0,0:0:0:0:
383,218,191584,2,0,B|416:202|416:202|438:201,1,55,10|2,0:0|0:0,0:0:0:0:
305,143,191716,6,2,L|285:85,1,55,10|2,0:0|0:0,0:0:0:0:
308,108,191846,2,2,L|304:46,1,55
323,73,191976,2,2,L|335:12,1,55
205,54,192106,6,2,L|225:112,1,55,10|2,0:0|0:0,0:0:0:0:
202,89,192236,2,2,L|206:151,1,55,10|2,0:0|0:0,0:0:0:0:
187,124,192366,2,2,L|175:185,1,55
196,278,192498,5,8,0:0:0:0:
165,247,192563,1,8,0:0:0:0:
123,235,192628,1,4,0:0:0:0:
81,247,192693,1,4,0:0:0:0:
51,279,192758,5,6,0:0:0:0:
37,249,192824,1,2,0:0:0:0:
35,217,192889,1,2,0:0:0:0:
47,186,192954,1,2,0:0:0:0:
70,163,193019,5,10,0:0:0:0:
98,180,193085,1,2,0:0:0:0:
131,183,193150,1,2,0:0:0:0:
161,170,193215,1,2,0:0:0:0:
182,145,193280,5,10,0:0:0:0:
168,115,193346,1,2,0:0:0:0:
171,83,193411,1,2,0:0:0:0:
190,56,193476,1,2,0:0:0:0:
220,43,193541,5,10,0:0:0:0:
201,70,193607,1,2,0:0:0:0:
172,85,193672,1,2,0:0:0:0:
140,87,193737,1,2,0:0:0:0:
109,74,193802,5,10,0:0:0:0:
114,106,193868,1,2,0:0:0:0:
119,139,193933,1,2,0:0:0:0:
124,171,193998,1,2,0:0:0:0:
161,170,194063,5,10,0:0:0:0:
155,202,194129,1,2,0:0:0:0:
150,235,194194,1,2,0:0:0:0:
145,267,194259,1,2,0:0:0:0:
114,280,194324,5,10,0:0:0:0:
140,260,194389,1,2,0:0:0:0:
171,249,194454,1,2,0:0:0:0:
204,247,194519,1,2,0:0:0:0:
236,256,194584,5,10,0:0:0:0:
262,236,194650,1,2,0:0:0:0:
293,225,194715,1,2,0:0:0:0:
326,222,194780,1,2,0:0:0:0:
358,228,194846,6,2,P|386:233|431:220,1,55,10|2,0:0|0:0,0:0:0:0:
379,250,194976,2,2,P|407:255|452:242,1,55
402,273,195106,2,2,P|430:278|475:265,1,55
479,162,195237,6,2,P|451:157|406:170,1,55,10|2,0:0|0:0,0:0:0:0:
458,140,195367,2,2,P|430:135|385:148,1,55
435,117,195497,2,2,P|407:112|362:125,1,55
402,273,195628,6,0,L|418:343,1,55,10|2,0:0|0:0,0:0:0:0:
305,128,195758,2,0,L|289:58,1,55,10|2,0:0|0:0,0:0:0:0:
262,236,195889,6,2,B|217:249|217:249|195:228,1,55,10|2,0:0|0:0,0:0:0:0:
257,265,196020,2,2,B|222:296|222:296|193:287,1,55
264,293,196150,2,2,B|246:336|246:336|215:340,1,55
254,135,196280,6,2,B|299:122|299:122|321:143,1,55,10|2,0:0|0:0,0:0:0:0:
259,106,196411,2,2,B|294:75|294:75|323:84,1,55
252,78,196541,2,2,B|270:35|270:35|301:31,1,55
402,131,196672,5,8,0:0:0:0:
397,174,196737,1,8,0:0:0:0:
392,218,196802,1,4,0:0:0:0:
388,262,196867,1,4,0:0:0:0:
383,306,196933,5,14,0:0:0:0:
356,286,196998,1,2,0:0:0:0:
324,277,197063,1,2,0:0:0:0:
292,279,197128,1,2,0:0:0:0:
261,292,197193,5,10,0:0:0:0:
252,260,197259,1,2,0:0:0:0:
233,233,197324,1,2,0:0:0:0:
207,214,197389,1,2,0:0:0:0:
175,204,197454,5,10,0:0:0:0:
194,231,197520,1,2,0:0:0:0:
223,245,197585,1,2,0:0:0:0:
256,242,197650,1,2,0:0:0:0:
283,224,197715,5,10,0:0:0:0:
272,255,197781,1,2,0:0:0:0:
261,286,197846,1,2,0:0:0:0:
251,317,197911,1,2,0:0:0:0:
240,349,197976,5,14,0:0:0:0:
268,332,198041,1,2,0:0:0:0:
300,322,198106,1,2,0:0:0:0:
333,320,198171,1,2,0:0:0:0:
365,326,198237,5,10,0:0:0:0:
367,294,198302,1,2,0:0:0:0:
381,264,198367,1,2,0:0:0:0:
407,244,198432,1,2,0:0:0:0:
438,235,198498,5,10,0:0:0:0:
407,226,198563,1,2,0:0:0:0:
375,218,198628,1,2,0:0:0:0:
343,209,198693,1,2,0:0:0:0:
311,200,198758,5,10,0:0:0:0:
467,145,198889,1,0,0:0:0:0:
256,192,198955,12,0,201042,0:0:0:0:
436,91,201107,5,2,0:0:0:0:
429,99,201172,1,2,0:0:0:0:
423,108,201237,1,2,0:0:0:0:
418,118,201302,1,2,0:0:0:0:
414,129,201367,1,2,0:0:0:0:
412,139,201433,1,2,0:0:0:0:
443,128,201498,5,10,0:0:0:0:
444,138,201563,1,2,0:0:0:0:
446,149,201628,1,2,0:0:0:0:
448,160,201693,1,2,0:0:0:0:
449,171,201758,1,2,0:0:0:0:
451,182,201824,1,2,0:0:0:0:
418,181,201889,6,2,L|408:243,7,55,6|2|2|2|2|2|2|2,0:0|0:0|0:0|0:0|0:0|0:0|0:0|0:0,0:0:0:0:
330,186,202411,5,8,0:0:0:0:
330,230,202476,1,8,0:0:0:0:
332,274,202541,1,2,0:0:0:0:
314,287,202606,1,2,0:0:0:0:
262,265,202672,5,6,0:0:0:0:
256,192,202736,12,0,204693,0:0:0:0:
88,76,204759,5,6,0:0:0:0:
163,279,204889,1,6,0:0:0:0:
191,25,205020,1,6,0:0:0:0:
212,22,205085,1,2,0:0:0:0:
234,27,205150,1,2,0:0:0:0:
252,39,205215,1,2,0:0:0:0:
265,56,205280,1,2,0:0:0:0:
272,77,205346,1,2,0:0:0:0:
271,99,205411,1,2,0:0:0:0:
263,119,205476,1,2,0:0:0:0:
257,140,205541,1,2,0:0:0:0:
260,161,205606,1,2,0:0:0:0:
272,179,205671,1,2,0:0:0:0:
291,190,205736,1,2,0:0:0:0:
313,191,205801,5,10,0:0:0:0:
303,172,205866,1,2,0:0:0:0:
289,155,205932,1,2,0:0:0:0:
271,143,205997,1,2,0:0:0:0:
250,136,206063,1,2,0:0:0:0:
228,135,206127,1,2,0:0:0:0:
207,139,206192,1,2,0:0:0:0:
187,149,206258,1,2,0:0:0:0:
169,161,206323,1,2,0:0:0:0:
147,165,206388,1,2,0:0:0:0:
126,160,206453,1,2,0:0:0:0:
108,148,206519,1,2,0:0:0:0:
97,129,206585,5,2,0:0:0:0:
94,107,206650,1,2,0:0:0:0:
100,86,206715,1,2,0:0:0:0:
113,69,206780,1,2,0:0:0:0:
132,59,206845,1,2,0:0:0:0:
154,57,206911,1,2,0:0:0:0:
174,66,206976,1,2,0:0:0:0:
191,80,207041,1,2,0:0:0:0:
204,98,207106,1,2,0:0:0:0:
212,119,207171,1,2,0:0:0:0:
214,141,207237,1,2,0:0:0:0:
210,162,207302,1,2,0:0:0:0:
202,182,207367,5,10,0:0:0:0:
191,163,207433,1,2,0:0:0:0:
187,142,207498,1,2,0:0:0:0:
189,120,207563,1,2,0:0:0:0:
198,100,207628,1,2,0:0:0:0:
213,83,207692,1,2,0:0:0:0:
232,72,207758,1,2,0:0:0:0:
253,67,207823,1,2,0:0:0:0:
275,68,207889,6,2,B|310:49|310:49|338:51,1,55,14|2,0:0|0:0,0:0:0:0:
466,138,208020,2,2,B|431:157|431:157|403:155,1,55,6|2,0:0|0:0,0:0:0:0:
272,144,208150,2,0,B|302:208|255:269|196:274|158:248|158:248|117:279|117:279|79:278|79:278|56:326|-6:327,1,385,6|2,0:0|0:0,0:0:0:0:
127,362,208672,6,2,L|171:328,1,55,6|2,0:0|0:0,0:0:0:0:
137,174,208801,2,2,L|93:208,1,55,6|2,0:0|0:0,0:0:0:0:
246,247,208932,1,14,0:0:0:0:
262,232,208997,1,2,0:0:0:0:
273,213,209062,1,2,0:0:0:0:
279,192,209127,1,2,0:0:0:0:
279,170,209192,1,2,0:0:0:0:
273,149,209258,1,2,0:0:0:0:
262,130,209323,1,2,0:0:0:0:
245,116,209388,1,2,0:0:0:0:
231,99,209454,5,2,0:0:0:0:
225,78,209519,1,2,0:0:0:0:
227,56,209584,1,2,0:0:0:0:
237,37,209649,1,2,0:0:0:0:
254,23,209715,1,2,0:0:0:0:
275,16,209780,1,2,0:0:0:0:
297,18,209845,1,2,0:0:0:0:
316,28,209910,1,2,0:0:0:0:
330,45,209975,5,2,0:0:0:0:
337,66,210041,1,2,0:0:0:0:
344,86,210106,1,2,0:0:0:0:
357,104,210172,1,2,0:0:0:0:
374,118,210237,1,2,0:0:0:0:
394,126,210301,1,2,0:0:0:0:
416,129,210366,1,2,0:0:0:0:
438,125,210433,1,2,0:0:0:0:
457,116,210497,5,10,0:0:0:0:
427,103,210563,1,2,0:0:0:0:
394,99,210627,1,2,0:0:0:0:
362,105,210692,1,2,0:0:0:0:
333,121,210758,1,2,0:0:0:0:
303,134,210824,1,2,0:0:0:0:
270,138,210889,1,2,0:0:0:0:
238,132,210954,1,2,0:0:0:0:
210,113,211019,6,2,L|212:48,3,55
136,128,211279,5,10,0:0:0:0:
134,133,211346,1,4,0:0:0:0:
133,138,211411,1,4,0:0:0:0:
132,144,211476,1,4,0:0:0:0:
131,149,211541,1,4,0:0:0:0:
130,154,211606,1,4,0:0:0:0:
129,160,211672,1,4,0:0:0:0:
128,165,211737,1,4,0:0:0:0:
127,171,211802,1,4,0:0:0:0:
125,176,211867,1,4,0:0:0:0:
124,181,211933,1,4,0:0:0:0:
123,187,211998,1,4,0:0:0:0:
122,192,212063,6,2,L|59:208,3,55,6|2|2|2,0:0|0:0|0:0|0:0,0:0:0:0:
169,263,212324,2,2,L|111:294,3,55,0|2|2|2,0:0|0:0|0:0|0:0,0:0:0:0:
233,315,212585,2,2,L|185:360,3,55,0|2|2|2,0:0|0:0|0:0|0:0,0:0:0:0:
382,273,212846,5,8,0:0:0:0:
339,263,212911,1,8,0:0:0:0:
296,253,212976,2,0,L|293:183,1,55,8|2,0:0|0:0,0:0:0:0:
226,105,213106,5,8,0:0:0:0:
269,95,213172,1,8,0:0:0:0:
312,85,213237,2,0,L|315:15,1,55,8|2,0:0|0:0,0:0:0:0:
433,117,213366,5,6,0:0:0:0:
413,106,213431,1,2,0:0:0:0:
392,102,213496,1,2,0:0:0:0:
370,104,213561,1,2,0:0:0:0:
350,113,213626,1,2,0:0:0:0:
334,128,213692,1,2,0:0:0:0:
324,147,213757,5,10,0:0:0:0:
324,125,213822,1,2,0:0:0:0:
325,103,213887,1,2,0:0:0:0:
326,81,213952,1,2,0:0:0:0:
327,59,214018,1,2,0:0:0:0:
327,37,214083,1,2,0:0:0:0:
328,15,214148,5,2,0:0:0:0:
310,27,214213,1,2,0:0:0:0:
291,37,214279,1,2,0:0:0:0:
270,44,214344,1,2,0:0:0:0:
248,47,214409,1,2,0:0:0:0:
226,46,214474,1,2,0:0:0:0:
204,42,214539,5,2,0:0:0:0:
207,64,214605,1,2,0:0:0:0:
209,85,214670,2,0,L|218:151,3,55,8|0|0|0,0:0|0:0|0:0|0:0,0:0:0:0:
132,102,214931,5,2,0:0:0:0:
135,124,214996,1,2,0:0:0:0:
137,146,215061,1,2,0:0:0:0:
140,168,215126,1,2,0:0:0:0:
143,190,215192,1,2,0:0:0:0:
145,212,215257,1,2,0:0:0:0:
148,233,215322,5,10,0:0:0:0:
169,229,215387,1,2,0:0:0:0:
191,230,215452,1,2,0:0:0:0:
211,238,215518,1,2,0:0:0:0:
233,239,215583,1,2,0:0:0:0:
254,234,215648,1,2,0:0:0:0:
275,228,215713,5,2,0:0:0:0:
253,223,215779,1,2,0:0:0:0:
231,225,215844,1,2,0:0:0:0:
210,232,215909,1,2,0:0:0:0:
193,245,215974,1,2,0:0:0:0:
179,262,216039,1,2,0:0:0:0:
170,282,216105,5,2,0:0:0:0:
148,278,216170,1,2,0:0:0:0:
127,274,216235,1,10,0:0:0:0:
45,342,216496,5,2,0:0:0:0:
66,345,216561,1,2,0:0:0:0:
88,349,216626,1,2,0:0:0:0:
110,352,216692,1,2,0:0:0:0:
131,356,216757,1,2,0:0:0:0:
153,359,216822,1,2,0:0:0:0:
175,363,216887,5,2,0:0:0:0:
173,341,216952,1,2,0:0:0:0:
177,319,217018,1,10,0:0:0:0:
187,300,217083,1,2,0:0:0:0:
203,285,217148,1,2,0:0:0:0:
222,274,217213,1,2,0:0:0:0:
244,270,217279,5,2,0:0:0:0:
231,288,217344,1,2,0:0:0:0:
214,301,217409,1,2,0:0:0:0:
193,308,217474,1,2,0:0:0:0:
171,308,217539,1,2,0:0:0:0:
151,301,217605,1,2,0:0:0:0:
133,288,217670,5,2,0:0:0:0:
134,310,217735,1,2,0:0:0:0:
135,332,217800,1,10,0:0:0:0:
131,155,217931,1,8,0:0:0:0:
224,345,218061,5,10,0:0:0:0:
224,339,218126,1,4,0:0:0:0:
225,334,218192,1,4,0:0:0:0:
226,328,218257,1,4,0:0:0:0:
227,323,218322,1,4,0:0:0:0:
228,317,218387,1,4,0:0:0:0:
229,312,218452,5,2,0:0:0:0:
229,306,218518,1,8,0:0:0:0:
230,301,218583,1,4,0:0:0:0:
231,296,218648,1,4,0:0:0:0:
232,290,218713,1,4,0:0:0:0:
233,285,218779,1,4,0:0:0:0:
234,280,218844,6,0,L|224:209,1,55,8|2,0:0|0:0,0:0:0:0:
131,155,218974,2,0,L|141:84,1,55,8|2,0:0|0:0,0:0:0:0:
69,249,219105,5,2,0:0:0:0:
67,254,219170,1,2,0:0:0:0:
66,259,219235,1,2,0:0:0:0:
65,265,219300,1,2,0:0:0:0:
64,270,219366,5,4,0:0:0:0:
106,257,219431,1,4,0:0:0:0:
150,255,219496,1,4,0:0:0:0:
193,262,219561,1,4,0:0:0:0:
234,280,219626,6,0,B|270:291|270:291|286:288|286:288|340:297,1,82.5000031471254,4|0,0:0|0:0,0:0:0:0:
386,241,219886,2,0,L|398:297,2,55.0000020980836
454,193,220147,2,0,L|480:309,1,82.5000031471254
391,124,220408,6,0,P|343:137|286:132,1,82.5000031471254,8|0,0:0|0:0,0:0:0:0:
233,101,220669,2,0,B|217:130|225:153|225:153|231:160|231:160|216:176|216:176|239:279|122:310,1,247.500009441376
126,208,221191,6,0,B|120:152|120:152|128:95|128:95|125:38,1,165.000006294251,2|0,0:0|0:0,0:0:0:0:
259,66,221582,2,0,L|249:170,1,82.5000031471254,2|0,0:0|0:0,0:0:0:0:
336,121,221778,1,2,0:0:0:0:
337,145,221843,1,2,0:0:0:0:
339,170,221908,1,2,0:0:0:0:
340,195,221973,6,0,L|329:309,1,82.5000031471254,8|2,0:0|0:0,0:0:0:0:
91,331,222495,5,2,0:0:0:0:
100,317,222626,1,2,0:0:0:0:
110,304,222756,6,0,L|218:296,1,82.5000031471254,6|0,0:0|0:0,0:0:0:0:
263,345,223017,2,0,L|317:340,2,55.0000020980836
268,251,223278,2,0,P|249:215|270:142,1,82.5000031471254
340,195,223539,6,0,B|385:158|385:158|334:149|334:149|313:95|262:75|217:94,1,247.500009441376,8|0,0:0|0:0,0:0:0:0:
136,37,224060,2,0,L|148:134,1,82.5000031471254
45,80,224321,5,2,0:0:0:0:
340,195,224712,2,0,L|328:292,1,82.5000031471254,2|0,0:0|0:0,0:0:0:0:
245,246,224908,1,2,0:0:0:0:
250,270,224973,1,2,0:0:0:0:
254,294,225039,1,2,0:0:0:0:
258,319,225104,5,8,0:0:0:0:
408,121,225626,5,2,0:0:0:0:
403,105,225756,1,2,0:0:0:0:
398,89,225886,6,0,L|384:200,1,82.5000031471254,6|0,0:0|0:0,0:0:0:0:
310,226,226147,2,0,L|301:164,2,55.0000020980836
391,252,226408,2,0,P|366:292|303:311,1,82.5000031471254,0|2,0:0|0:0,0:0:0:0:
245,282,226669,6,0,L|259:393,1,82.5000031471254,8|0,0:0|0:0,0:0:0:0:
171,319,226930,2,0,B|160:228|160:228|187:196|178:156|178:156|220:128|209:59,1,247.500009441376
101,174,227452,6,0,B|81:213|81:213|98:353,1,165.000006294251,2|0,0:0|0:0,0:0:0:0:
12,322,227843,2,0,L|-4:213,1,82.5000031471254,2|0,0:0|0:0,0:0:0:0:
88,262,228039,1,2,0:0:0:0:
85,237,228104,1,2,0:0:0:0:
82,212,228169,1,2,0:0:0:0:
80,188,228234,6,0,L|104:76,1,82.5000031471254,8|2,0:0|0:0,0:0:0:0:
380,253,228626,5,2,0:0:0:0:
376,236,228756,1,2,0:0:0:0:
373,219,228886,1,2,0:0:0:0:
370,202,229017,6,0,L|393:106,1,82.5000031471254,6|0,0:0|0:0,0:0:0:0:
462,73,229278,2,0,P|475:102|471:141,2,55.0000020980836
382,36,229539,2,0,P|336:46|280:38,1,82.5000031471254
297,125,229799,6,0,B|284:207|284:207|271:231|271:231|273:264|257:289|257:289|246:323|258:367,1,247.500009441376,8|0,0:0|0:0,0:0:0:0:
176,323,230321,2,0,P|178:285|208:227,1,82.5000031471254
70,301,230582,5,2,0:0:0:0:
73,8,230973,2,0,L|86:93,1,82.5000031471254,2|0,0:0|0:0,0:0:0:0:
175,77,231169,1,2,0:0:0:0:
171,101,231234,1,2,0:0:0:0:
168,126,231299,1,2,0:0:0:0:
164,150,231365,5,8,0:0:0:0:
245,137,231495,1,2,0:0:0:0:
89,161,231626,5,4,0:0:0:0:
319,125,231756,1,4,0:0:0:0:
164,150,231886,5,2,0:0:0:0:
245,137,232017,1,2,0:0:0:0:
215,220,232147,6,0,B|297:208|297:208|268:259|268:259|176:272|176:272|162:300|162:300|178:327|166:373,1,330.000012588501,6|0,0:0|0:0,0:0:0:0:
92,337,232799,1,0,0:0:0:0:
50,234,232930,5,8,0:0:0:0:
89,161,233060,1,0,0:0:0:0:
42,92,233191,1,0,0:0:0:0:
81,19,233321,1,0,0:0:0:0:
125,88,233452,2,0,L|219:82,1,82.5000031471254
294,32,233712,6,0,L|309:138,1,82.5000031471254,2|0,0:0|0:0,0:0:0:0:
395,73,233973,2,0,L|382:179,1,82.5000031471254
482,135,234234,2,0,L|441:234,1,82.5000031471254
326,332,234495,6,0,P|369:310|422:316,1,82.5000031471254,8|0,0:0|0:0,0:0:0:0:
265,275,234756,2,0,P|300:242|353:234,1,82.5000031471254
192,234,235017,2,0,P|218:193|267:172,1,82.5000031471254
22,240,235278,6,0,L|35:350,1,82.5000031471254,2|0,0:0|0:0,0:0:0:0:
103,262,235539,2,0,B|91:166|91:166|109:142|110:116|110:116|98:86|112:55|112:55|134:55|155:43|155:43|153:78|128:132,1,330.000012588501,0|8,0:0|0:0,0:0:0:0:
319,106,236712,5,2,0:0:0:0:
327,120,236843,2,0,L|318:221,1,82.5000031471254,2|0,0:0|0:0,0:0:0:0:
399,182,237234,1,2,0:0:0:0:
478,161,237495,1,2,0:0:0:0:
473,145,237625,1,8,0:0:0:0:
134,328,238147,5,6,0:0:0:0:
129,312,238278,1,6,0:0:0:0:
122,296,238408,2,0,B|181:314|228:316|269:287|269:287|303:297|303:297|328:287|328:287|391:277|435:332,1,330.000012588501,6|0,0:0|0:0,0:0:0:0:
350,380,239060,1,0,0:0:0:0:
270,288,239191,5,8,0:0:0:0:
257,207,239321,1,0,0:0:0:0:
319,152,239452,1,0,0:0:0:0:
306,71,239582,1,0,0:0:0:0:
242,124,239712,2,0,L|150:131,1,82.5000031471254,0|2,0:0|0:0,0:0:0:0:
39,75,239973,6,0,P|50:118|47:178,1,82.5000031471254,2|0,0:0|0:0,0:0:0:0:
133,215,240234,2,0,P|122:258|125:318,1,82.5000031471254,0|2,0:0|0:0,0:0:0:0:
30,65,240495,2,0,P|41:108|38:168,1,82.5000031471254,0|2,0:0|0:0,0:0:0:0:
138,228,240756,6,0,P|127:271|130:331,1,82.5000031471254,8|0,0:0|0:0,0:0:0:0:
242,125,241017,1,0,0:0:0:0:
248,207,241147,1,0,0:0:0:0:
254,289,241278,1,0,0:0:0:0:
410,189,241408,5,2,0:0:0:0:
253,111,241539,1,2,0:0:0:0:
259,193,241669,1,0,0:0:0:0:
265,274,241799,6,0,B|316:268|333:221|333:221|349:264|397:286|448:265|448:265|429:333|356:311,1,330.000012588501,0|8,0:0|0:0,0:0:0:0:
31,303,242843,5,0,0:0:0:0:
26,287,242973,1,0,0:0:0:0:
20,271,243104,2,0,B|73:267|73:267|118:276|118:276|150:266|187:281|187:281|278:272,1,247.500009441376,2|2,0:0|0:0,0:0:0:0:
149,192,243756,1,2,0:0:0:0:
151,351,243886,1,8,0:0:0:0:
391,87,244408,5,6,0:0:0:0:
393,103,244539,1,6,0:0:0:0:
395,119,244669,2,0,B|348:139|348:139|326:128|326:128|327:177|327:177|308:226|343:265|343:265|318:291|318:291|329:305|329:305|314:327|325:375,1,330.000012588501,6|0,0:0|0:0,0:0:0:0:
400,210,245321,1,2,0:0:0:0:
238,232,245452,5,8,0:0:0:0:
251,150,245582,1,0,0:0:0:0:
316,201,245712,1,0,0:0:0:0:
329,119,245843,1,0,0:0:0:0:
262,71,245973,2,0,L|153:87,1,82.5000031471254,0|2,0:0|0:0,0:0:0:0:
79,35,246234,6,0,B|91:101|91:101|86:139,1,82.5000031471254,2|0,0:0|0:0,0:0:0:0:
154,166,246495,2,0,B|142:232|142:232|147:270,1,82.5000031471254
74,292,246756,2,0,B|86:358|86:358|81:396,1,82.5000031471254,0|2,0:0|0:0,0:0:0:0:
305,295,247017,6,0,L|205:313,1,82.5000031471254,8|0,0:0|0:0,0:0:0:0:
341,193,247278,2,0,L|241:211,1,82.5000031471254
347,83,247539,2,0,L|247:101,1,82.5000031471254
449,107,247799,6,0,L|459:8,1,82.5000031471254,2|0,0:0|0:0,0:0:0:0:
490,212,248060,2,0,B|481:304|481:304|395:330|395:330|405:242,1,247.500009441376,0|2,0:0|0:0,0:0:0:0:
410,182,248582,1,8,0:0:0:0:
96,60,249104,6,0,L|108:174,1,82.5000031471254
199,103,249365,2,0,B|188:209|188:209|190:249|190:249|183:275|176:343,1,206.250007867813,2|0,0:0|0:0,0:0:0:0:
189,330,249756,2,2,B|204:251|204:251|202:205|202:205|207:159,1,165.000006294251
300,164,250147,5,8,0:0:0:0:
311,246,250278,1,0,0:0:0:0:
339,129,250408,5,8,0:0:0:0:
320,266,250539,1,8,0:0:0:0:
401,118,250669,5,2,0:0:0:0:
329,285,250799,1,0,0:0:0:0:
262,82,250930,6,0,B|215:102|215:102|184:94|184:94|150:113|113:111|113:111|71:99|33:141|33:141|77:136|118:161,1,330.000012588501,6|0,0:0|0:0,0:0:0:0:
53,234,251582,1,2,0:0:0:0:
234,220,251712,5,8,0:0:0:0:
311,246,251843,1,0,0:0:0:0:
307,163,251973,1,0,0:0:0:0:
384,189,252104,1,0,0:0:0:0:
389,271,252234,2,0,L|395:376,1,82.5000031471254,0|2,0:0|0:0,0:0:0:0:
475,266,252495,6,0,L|469:161,1,82.5000031471254,2|0,0:0|0:0,0:0:0:0:
388,30,252756,2,0,L|394:135,1,82.5000031471254
486,278,253017,2,0,L|480:173,1,82.5000031471254,0|2,0:0|0:0,0:0:0:0:
377,17,253278,6,0,L|383:122,1,82.5000031471254,8|0,0:0|0:0,0:0:0:0:
270,246,253539,1,0,0:0:0:0:
274,163,253669,1,0,0:0:0:0:
279,81,253799,1,0,0:0:0:0:
109,181,253930,5,2,0:0:0:0:
258,257,254060,1,2,0:0:0:0:
262,174,254191,1,0,0:0:0:0:
267,92,254321,6,0,B|211:69|211:69|180:86|180:86|158:76|158:76|98:121|11:63,1,247.500009441376,0|2,0:0|0:0,0:0:0:0:
109,181,254843,1,8,0:0:0:0:
188,289,255625,6,8,L|184:353,2,55.0000020980836
272,316,255886,6,4,L|274:374,2,55.0000020980836
354,311,256147,6,2,L|365:368,2,55.0000020980836
429,277,256408,5,2,3:1:0:0:
425,244,256669,5,2,3:1:0:0:
421,211,256930,5,2,3:1:0:0:
416,178,257191,6,0,L|429:87,1,82.5000031471254,6|2,0:0|0:0,0:0:0:0:
324,55,257386,1,2,0:0:0:0:
324,55,257452,2,0,L|337:146,1,82.5000031471254,8|2,0:0|0:0,0:0:0:0:
264,179,257712,1,2,0:0:0:0:
191,139,257843,1,2,0:0:0:0:
123,185,257973,6,0,P|136:259|131:298,1,82.5000031471254,10|2,0:0|0:0,0:0:0:0:
71,367,258234,2,0,P|58:293|63:254,1,82.5000031471254,10|2,0:0|0:0,0:0:0:0:
28,208,258495,1,2,0:0:0:0:
28,208,258625,1,2,0:0:0:0:
107,105,258756,5,10,0:0:0:0:
111,125,258821,1,2,0:0:0:0:
115,145,258886,1,2,0:0:0:0:
119,165,258952,1,2,0:0:0:0:
123,185,259017,2,0,L|117:286,1,82.5000031471254,10|0,0:0|0:0,0:0:0:0:
198,245,259278,1,2,0:0:0:0:
198,245,259408,1,2,0:0:0:0:
274,154,259539,6,2,B|288:217|288:217|280:270,1,82.5000031471254,10|2,0:0|0:0,0:0:0:0:
374,93,259799,2,2,B|360:156|360:156|368:209,1,82.5000031471254,10|2,0:0|0:0,0:0:0:0:
422,230,260060,1,2,0:0:0:0:
422,230,260191,1,2,0:0:0:0:
356,328,260321,5,10,0:0:0:0:
335,329,260386,1,2,0:0:0:0:
314,331,260452,1,2,0:0:0:0:
294,333,260517,1,2,0:0:0:0:
273,335,260582,2,2,L|176:330,1,82.5000031471254,10|2,0:0|0:0,0:0:0:0:
118,291,260843,1,2,0:0:0:0:
118,291,260973,1,2,0:0:0:0:
88,125,261104,6,2,L|99:214,1,82.5000031471254,10|2,0:0|0:0,0:0:0:0:
198,68,261365,2,2,L|187:157,1,82.5000031471254,10|2,0:0|0:0,0:0:0:0:
179,232,261625,1,2,0:0:0:0:
179,232,261756,1,2,0:0:0:0:
283,209,261886,5,10,0:0:0:0:
285,188,261952,1,2,0:0:0:0:
288,168,262017,1,2,0:0:0:0:
290,147,262082,1,2,0:0:0:0:
293,127,262147,1,0,0:0:0:0:
368,90,262278,5,10,0:0:0:0:
368,90,262408,1,2,0:0:0:0:
368,90,262539,1,2,0:0:0:0:
298,41,262669,5,2,0:0:0:0:
448,41,262799,1,10,0:0:0:0:
370,170,262930,1,10,0:0:0:0:
370,10,263060,5,2,0:0:0:0:
444,139,263191,1,2,0:0:0:0:
293,136,263321,1,10,0:0:0:0:
444,222,263452,5,10,0:0:0:0:
428,235,263517,1,2,0:0:0:0:
410,245,263582,1,2,0:0:0:0:
390,251,263647,1,2,0:0:0:0:
370,252,263712,2,2,L|383:344,1,82.5000031471254,10|2,0:0|0:0,0:0:0:0:
301,314,263973,1,2,0:0:0:0:
301,314,264104,1,2,0:0:0:0:
235,264,264234,6,2,P|198:266|116:283,1,82.5000031471254,10|2,0:0|0:0,0:0:0:0:
110,344,264495,2,2,P|73:342|-9:325,1,82.5000031471254,10|2,0:0|0:0,0:0:0:0:
70,263,264756,1,2,0:0:0:0:
70,263,264886,1,2,0:0:0:0:
49,157,265017,5,10,0:0:0:0:
68,151,265082,1,2,0:0:0:0:
89,151,265147,1,2,0:0:0:0:
108,158,265212,1,2,0:0:0:0:
125,169,265278,2,2,L|129:63,1,82.5000031471254,10|2,0:0|0:0,0:0:0:0:
73,24,265539,1,2,0:0:0:0:
73,24,265669,1,2,0:0:0:0:
212,126,265799,6,2,B|253:127|253:127|297:140,1,82.5000031471254,10|2,0:0|0:0,0:0:0:0:
226,227,266060,2,2,B|265:238|265:238|306:239,1,82.5000031471254,10|2,0:0|0:0,0:0:0:0:
373,163,266321,1,2,0:0:0:0:
373,163,266452,1,2,0:0:0:0:
466,97,266582,5,10,0:0:0:0:
464,117,266647,1,2,0:0:0:0:
462,138,266712,1,2,0:0:0:0:
460,158,266778,1,2,0:0:0:0:
459,179,266843,2,0,L|465:292,1,82.5000031471254,10|0,0:0|0:0,0:0:0:0:
469,344,267104,1,2,0:0:0:0:
469,344,267234,1,2,0:0:0:0:
336,330,267365,6,2,L|225:348,1,82.5000031471254,10|2,0:0|0:0,0:0:0:0:
175,368,267625,2,2,L|64:350,1,82.5000031471254,10|2,0:0|0:0,0:0:0:0:
13,338,267886,1,2,0:0:0:0:
13,338,268017,1,2,0:0:0:0:
138,194,268147,5,4,0:0:0:0:
142,205,268212,1,4,0:0:0:0:
146,216,268278,2,8,L|192:205,1,41.2500015735627
338,129,268408,5,4,0:0:0:0:
336,141,268473,1,4,0:0:0:0:
335,153,268539,1,2,0:0:0:0:
334,165,268604,1,2,0:0:0:0:
333,178,268669,2,8,L|280:164,1,41.2500015735627
282,311,268799,5,2,0:0:0:0:
293,307,268865,1,2,0:0:0:0:
304,303,268930,2,8,L|293:257,1,41.2500015735627
434,308,269060,5,2,0:0:0:0:
434,308,269125,1,2,0:0:0:0:
434,308,269191,5,4,0:0:0:0:
424,268,269256,1,4,0:0:0:0:
423,226,269321,1,4,0:0:0:0:
432,186,269386,1,4,0:0:0:0:
450,149,269452,6,0,P|461:100|443:58,1,82.5,6|0,0:0|0:0,0:0:0:0:
468,56,269712,6,0,P|485:107|472:159,1,110,6|8,0:0|0:0,0:0:0:0:
336,141,269973,2,0,P|318:192|331:244,1,110,2|8,0:0|0:0,0:0:0:0:
444,266,270234,1,2,0:0:0:0:
426,376,270365,1,8,0:0:0:0:
312,354,270495,6,0,L|198:360,1,110,2|8,0:0|0:0,0:0:0:0:
26,279,270756,2,0,L|140:285,1,110,2|8,0:0|0:0,0:0:0:0:
326,213,271017,2,0,L|212:219,1,110,2|8,0:0|0:0,0:0:0:0:
73,85,271278,6,0,P|91:150|82:201,1,110,2|8,0:0|0:0,0:0:0:0:
179,48,271539,2,0,L|170:165,1,110,2|8,0:0|0:0,0:0:0:0:
289,27,271799,2,0,P|271:92|280:143,1,110,2|8,0:0|0:0,0:0:0:0:
472,169,272060,5,2,0:0:0:0:
379,91,272191,1,8,0:0:0:0:
483,160,272321,1,2,0:0:0:0:
362,176,272452,1,8,0:0:0:0:
493,151,272582,1,2,0:0:0:0:
414,243,272712,1,8,0:0:0:0:
503,145,272843,6,0,L|498:262,1,110,6|8,0:0|0:0,0:0:0:0:
423,332,273104,2,8,P|356:355|290:332,1,110,2|8,0:0|0:0,0:0:0:0:
242,265,273365,2,8,P|309:242|375:265,1,110,2|8,0:0|0:0,0:0:0:0:
142,214,273625,5,2,0:0:0:0:
164,321,273756,1,8,0:0:0:0:
69,123,273886,1,2,0:0:0:0:
47,230,274017,1,8,0:0:0:0:
147,34,274147,1,2,0:0:0:0:
169,141,274278,1,8,0:0:0:0:
282,62,274408,6,0,L|258:181,1,110,2|8,0:0|0:0,0:0:0:0:
357,126,274669,2,0,L|364:247,1,110,2|8,0:0|0:0,0:0:0:0:
450,159,274930,2,0,L|488:274,1,110,2|8,0:0|0:0,0:0:0:0:
407,331,275191,6,0,B|374:327|374:327|279:338,1,110,2|8,0:0|0:0,0:0:0:0:
100,303,275452,2,0,B|133:307|133:307|228:296,1,110,2|8,0:0|0:0,0:0:0:0:
293,144,275712,2,0,L|276:268,1,110,2|8,0:0|0:0,0:0:0:0:
189,208,275973,5,2,0:0:0:0:
84,220,276104,1,8,0:0:0:0:
130,120,276234,1,2,0:0:0:0:
184,216,276365,1,8,0:0:0:0:
79,228,276495,1,2,0:0:0:0:
125,128,276625,1,8,0:0:0:0:
179,225,276756,6,0,L|302:234,1,110,2|8,0:0|0:0,0:0:0:0:
387,204,277017,2,0,P|395:258|388:320,1,110,2|8,0:0|0:0,0:0:0:0:
475,72,277278,2,0,P|467:126|474:188,1,110,2|8,0:0|0:0,0:0:0:0:
373,45,277539,5,2,0:0:0:0:
265,65,277669,1,8,0:0:0:0:
346,139,277799,1,2,0:0:0:0:
238,159,277930,1,8,0:0:0:0:
163,78,278060,2,0,L|129:199,1,110,2|8,0:0|0:0,0:0:0:0:
20,191,278321,6,0,L|54:312,1,110,2|8,0:0|0:0,0:0:0:0:
155,322,278582,2,0,P|211:311|283:319,1,110,2|8,0:0|0:0,0:0:0:0:
369,345,278843,2,0,P|425:356|497:348,1,110,2|8,0:0|0:0,0:0:0:0:
471,140,279104,6,0,L|480:265,1,110,6|8,0:0|0:0,0:0:0:0:
399,87,279365,2,0,L|375:210,1,110,2|8,0:0|0:0,0:0:0:0:
341,23,279625,2,0,L|286:135,1,110,2|8,0:0|0:0,0:0:0:0:
186,90,279886,5,2,0:0:0:0:
203,199,280017,1,8,0:0:0:0:
188,76,280147,1,2,0:0:0:0:
117,158,280278,1,8,0:0:0:0:
190,59,280408,1,2,0:0:0:0:
80,75,280539,1,8,0:0:0:0:
192,44,280669,6,0,L|286:150,1,110,2|8,0:0|0:0,0:0:0:0:
331,69,280930,2,0,L|394:195,1,110,2|8,0:0|0:0,0:0:0:0:
467,147,281191,2,0,L|495:285,1,110,2|8,0:0|0:0,0:0:0:0:
376,363,281452,5,6,0:0:0:0:
355,312,281517,1,8,0:0:0:0:
305,289,281582,1,8,0:0:0:0:
251,302,281647,1,8,0:0:0:0:
202,327,281712,1,8,0:0:0:0:
148,312,281778,1,8,0:0:0:0:
128,259,281843,5,4,0:0:0:0:
117,234,281908,1,4,0:0:0:0:
90,228,281973,1,4,0:0:0:0:
68,245,282039,1,4,0:0:0:0:
68,272,282104,1,4,0:0:0:0:
90,290,282169,1,4,0:0:0:0:
117,284,282234,6,0,L|238:279,1,110,6|8,0:0|0:0,0:0:0:0:
391,205,282495,2,0,L|270:200,1,110,2|8,0:0|0:0,0:0:0:0:
112,125,282756,2,0,L|233:130,1,110,2|8,0:0|0:0,0:0:0:0:
340,40,283017,6,0,L|461:45,1,110,2|8,0:0|0:0,0:0:0:0:
351,157,283278,2,0,L|466:193,1,110,2|8,0:0|0:0,0:0:0:0:
337,270,283539,2,0,L|439:334,1,110,2|8,0:0|0:0,0:0:0:0:
50,327,283799,6,0,P|106:324|158:285,1,110,6|8,0:0|0:0,0:0:0:0:
174,201,284060,2,0,P|118:204|66:243,1,110,2|8,0:0|0:0,0:0:0:0:
239,265,284321,2,0,P|262:214|252:149,1,110,2|8,0:0|0:0,0:0:0:0:
175,107,284582,6,0,L|54:101,1,110,6|8,0:0|0:0,0:0:0:0:
232,38,284843,1,2,0:0:0:0:
342,32,284973,1,8,0:0:0:0:
218,31,285104,1,2,0:0:0:0:
300,104,285234,1,8,0:0:0:0:
206,24,285365,6,0,L|224:151,1,110,6|8,0:0|0:0,0:0:0:0:
135,108,285625,2,0,L|119:235,1,110,2|8,0:0|0:0,0:0:0:0:
47,181,285886,2,0,L|0:299,1,110,2|8,0:0|0:0,0:0:0:0:
212,306,286147,5,2,0:0:0:0:
131,231,286278,1,8,0:0:0:0:
107,338,286408,1,2,0:0:0:0:
219,309,286539,1,8,0:0:0:0:
138,234,286669,1,2,0:0:0:0:
114,341,286799,1,8,0:0:0:0:
228,312,286930,6,8,L|333:281,1,110,2|8,0:0|0:0,0:0:0:0:
265,200,287191,2,8,L|374:197,1,110,2|8,0:0|0:0,0:0:0:0:
346,112,287452,2,8,L|452:137,1,110,2|8,0:0|0:0,0:0:0:0:
243,6,287712,5,2,0:0:0:0:
261,114,287843,1,8,0:0:0:0:
168,54,287973,1,2,0:0:0:0:
150,162,288104,1,8,0:0:0:0:
58,100,288234,2,0,L|79:229,1,110,2|8,0:0|0:0,0:0:0:0:
175,255,288495,6,0,L|154:384,1,110,6|8,0:0|0:0,0:0:0:0:
255,216,288756,2,0,L|268:346,1,110,2|8,0:0|0:0,0:0:0:0:
333,170,289017,2,0,L|379:292,1,110,2|8,0:0|0:0,0:0:0:0:
172,229,289278,6,0,L|139:355,1,110,6|8,0:0|0:0,0:0:0:0:
252,190,289539,2,0,L|265:320,1,110,2|8,0:0|0:0,0:0:0:0:
330,144,289799,2,0,L|386:261,1,110,2|8,0:0|0:0,0:0:0:0:
430,153,290060,5,6,0:0:0:0:
459,46,290191,1,8,0:0:0:0:
330,144,290321,1,2,0:0:0:0:
330,33,290452,1,8,0:0:0:0:
235,160,290582,1,2,0:0:0:0:
206,52,290712,1,8,0:0:0:0:
131,168,290843,6,0,P|136:228|122:283,1,110,6|8,0:0|0:0,0:0:0:0:
235,257,291104,2,0,P|230:317|244:372,1,110,2|8,0:0|0:0,0:0:0:0:
336,252,291365,2,0,P|341:192|327:137,1,110,2|8,0:0|0:0,0:0:0:0:
330,33,291625,5,2,0:0:0:0:
430,153,291756,1,2,0:0:0:0:
235,160,291886,2,0,L|86:168,1,123.750004720688,8|0,0:0|0:0,0:0:0:0:
40,226,292147,2,0,P|94:257|175:232,1,123.750004720688,4|0,0:0|0:0,0:0:0:0:
181,339,292408,6,0,P|250:328|391:358,1,165,6|0,0:0|0:0,0:0:0:0:
471,338,292669,5,2,0:0:0:0:
444,304,292734,1,2,0:0:0:0:
444,261,292799,1,2,0:0:0:0:
472,228,292864,1,2,0:0:0:0:
505,184,292929,5,4,0:0:0:0:
510,130,292995,1,4,0:0:0:0:
486,81,293060,1,4,0:0:0:0:
440,51,293125,1,4,0:0:0:0:
387,34,293191,6,0,B|324:21|277:34|277:34|223:20|141:42,1,220,6|2,0:0|0:0,0:0:0:0:
170,113,293712,2,0,B|226:94|281:112|281:112|293:171,1,165,2|0,0:0|0:0,0:0:0:0:
273,229,293973,5,8,0:0:0:0:
292,337,294104,1,2,0:0:0:0:
198,197,294234,5,2,0:0:0:0:
179,305,294365,1,2,0:0:0:0:
120,177,294495,6,0,L|64:277,1,110,2|0,0:0|0:0,0:0:0:0:
76,98,294756,6,8,L|40:164,1,55
72,78,294886,2,4,L|36:144,1,55
207,216,295017,6,4,L|173:278,1,41.2500015735627
198,197,295147,2,8,L|163:260,1,41.2500015735627
300,351,295278,6,4,L|280:389,1,27.5
292,337,295408,2,2,L|270:380,1,27.5
447,281,295539,5,6,0:0:0:0:
429,259,295604,1,8,0:0:0:0:
417,234,295669,1,2,0:0:0:0:
412,208,295734,1,8,0:0:0:0:
414,180,295799,1,2,0:0:0:0:
422,154,295865,1,8,0:0:0:0:
436,131,295930,1,2,0:0:0:0:
453,109,295995,1,8,0:0:0:0:
459,83,296060,1,2,0:0:0:0:
452,56,296125,1,8,0:0:0:0:
434,35,296191,1,2,0:0:0:0:
409,24,296256,1,8,0:0:0:0:
382,26,296321,5,2,0:0:0:0:
385,53,296386,1,8,0:0:0:0:
387,81,296452,1,2,0:0:0:0:
389,108,296517,1,8,0:0:0:0:
392,135,296582,1,2,0:0:0:0:
394,163,296647,1,8,0:0:0:0:
397,190,296712,1,2,0:0:0:0:
399,218,296778,1,8,0:0:0:0:
401,245,296843,1,2,0:0:0:0:
404,272,296908,1,8,0:0:0:0:
406,300,296973,1,2,0:0:0:0:
409,327,297039,1,8,0:0:0:0:
411,355,297104,6,8,L|486:345,1,55
433,368,297234,2,4,L|507:357,1,55
273,262,297365,6,4,L|339:253,1,41.2500015735627
293,276,297495,2,8,L|337:270,1,41.2500015735627
147,347,297625,6,4,L|191:342,1,27.5
163,360,297756,2,2,L|208:355,1,27.5
29,347,297886,5,6,0:0:0:0:
14,323,297951,1,2,0:0:0:0:
11,296,298016,1,2,0:0:0:0:
18,270,298081,1,2,0:0:0:0:
36,249,298146,1,2,0:0:0:0:
60,237,298212,1,2,0:0:0:0:
87,236,298277,1,2,0:0:0:0:
114,238,298343,1,2,0:0:0:0:
140,229,298408,1,2,0:0:0:0:
160,210,298473,1,2,0:0:0:0:
170,185,298538,1,2,0:0:0:0:
170,158,298604,1,2,0:0:0:0:
158,133,298669,5,10,0:0:0:0:
133,145,298734,1,2,0:0:0:0:
111,161,298799,1,2,0:0:0:0:
100,186,298865,1,2,0:0:0:0:
102,213,298930,1,2,0:0:0:0:
117,236,298995,1,2,0:0:0:0:
140,249,299060,1,2,0:0:0:0:
168,250,299125,1,2,0:0:0:0:
192,237,299191,1,2,0:0:0:0:
217,227,299256,1,2,0:0:0:0:
244,229,299321,1,2,0:0:0:0:
268,242,299386,1,2,0:0:0:0:
284,264,299452,6,8,L|279:346,1,55
308,292,299582,2,4,L|302:373,1,55
314,107,299712,6,4,L|309:179,1,41.2500015735627
336,131,299843,2,8,L|332:185,1,41.2500015735627
158,133,299973,6,2,L|161:176,1,27.5
180,156,300104,2,4,L|184:196,1,27.5
125,29,300234,5,8,0:0:0:0:
72,43,300299,1,8,0:0:0:0:
34,81,300365,1,8,0:0:0:0:
19,134,300430,1,8,0:0:0:0:
32,187,300495,5,2,0:0:0:0:
44,229,300560,1,2,0:0:0:0:
44,273,300625,1,2,0:0:0:0:
32,315,300691,1,0,2:0:0:0:
3,346,301017,5,2,0:0:0:0:
43,328,301082,1,8,0:0:0:0:
86,319,301147,1,2,0:0:0:0:
130,318,301212,1,8,0:0:0:0:
172,328,301278,1,2,0:0:0:0:
216,321,301343,1,8,0:0:0:0:
253,298,301408,1,2,0:0:0:0:
279,263,301473,1,8,0:0:0:0:
290,221,301539,1,2,0:0:0:0:
285,177,301604,5,8,0:0:0:0:
296,190,301669,1,2,0:0:0:0:
307,202,301734,1,8,0:0:0:0:
317,215,301799,5,2,0:0:0:0:
274,209,301865,1,8,0:0:0:0:
230,215,301930,1,2,0:0:0:0:
190,233,301995,1,8,0:0:0:0:
153,254,302060,1,2,0:0:0:0:
109,250,302125,1,8,0:0:0:0:
77,221,302191,1,2,0:0:0:0:
68,179,302256,1,8,0:0:0:0:
85,139,302321,1,2,0:0:0:0:
122,116,302386,1,8,0:0:0:0:
165,119,302452,1,2,0:0:0:0:
196,148,302517,1,8,0:0:0:0:
204,190,302582,5,8,0:0:0:0:
220,243,302647,1,8,0:0:0:0:
260,279,302712,1,8,0:0:0:0:
313,289,302778,1,8,0:0:0:0:
364,270,302843,5,2,0:0:0:0:
407,261,302908,1,2,0:0:0:0:
447,277,302973,1,2,0:0:0:0:
473,312,303039,1,0,2:0:0:0:
408,103,303365,5,10,0:0:0:0:
407,108,303430,1,2,0:0:0:0:
406,113,303495,1,2,0:0:0:0:
405,118,303560,1,2,0:0:0:0:
404,123,303625,1,2,0:0:0:0:
303,188,303756,1,2,0:0:0:0:
196,148,303886,2,2,L|60:157,1,110,10|2,0:0|0:0,0:0:0:0:
66,299,304147,6,2,L|206:291,1,137.5,10|2,0:0|0:0,0:0:0:0:
209,128,304408,1,2,0:0:0:0:
108,221,304539,1,2,0:0:0:0:
11,121,304669,5,8,0:0:0:0:
56,283,304799,1,2,0:0:0:0:
56,283,304865,1,2,0:0:0:0:
56,283,304930,5,8,0:0:0:0:
196,148,305060,1,2,0:0:0:0:
129,354,305191,5,2,0:0:0:0:
205,132,305321,1,2,0:0:0:0:
219,371,305452,5,8,0:0:0:0:
214,117,305582,1,2,0:0:0:0:
290,334,305712,6,8,P|266:309|231:293,1,55
303,316,305843,2,8,P|279:291|244:275,1,55
421,281,305973,6,4,P|438:263|464:251,1,41.2500015735627
415,263,306104,2,4,P|432:244|458:232,1,41.2500015735627
409,146,306234,6,8,P|420:138|429:127,1,27.5
414,167,306365,2,8,P|425:159|434:148,1,27.5
336,198,306495,5,4,0:0:0:0:
323,173,306560,1,2,0:0:0:0:
320,146,306625,1,2,0:0:0:0:
325,119,306691,1,2,0:0:0:0:
338,95,306756,6,2,L|333:38,3,55,6|2|2|2,0:0|0:0|0:0|0:0,0:0:0:0:
409,146,307017,6,2,L|414:88,3,55,6|2|2|2,0:0|0:0|0:0|0:0,0:0:0:0:
336,198,307278,5,14,0:0:0:0:
309,189,307343,1,2,0:0:0:0:
282,187,307408,1,2,0:0:0:0:
255,191,307473,1,2,0:0:0:0:
230,201,307539,6,2,P|206:210|151:210,3,55,6|2|2|2,0:0|0:0|0:0|0:0,0:0:0:0:
286,286,307799,6,2,P|274:308|236:347,3,55,6|2|2|2,0:0|0:0|0:0|0:0,0:0:0:0:
387,357,308060,6,8,B|380:335|380:335|381:273,2,73.3333333333333
473,312,308321,6,4,B|480:290|480:290|479:228,2,73.3333333333333
399,206,308582,6,4,B|392:184|392:184|393:122,2,73.3333333333333
372,41,308843,5,4,0:0:0:0:
318,64,308930,1,4,0:0:0:0:
260,69,309017,1,4,0:0:0:0:
203,56,309104,5,4,0:0:0:0:
146,42,309191,1,4,0:0:0:0:
89,52,309278,1,4,0:0:0:0:
41,85,309365,5,6,0:0:0:0:
8,132,309625,6,2,L|2:211,3,55,6|2|2|2,0:0|0:0|0:0|0:0,0:0:0:0:
118,149,309886,6,2,L|132:226,3,55,6|2|2|2,0:0|0:0|0:0|0:0,0:0:0:0:
42,278,310147,6,2,L|36:357,3,55,14|2|2|2,0:0|0:0|0:0|0:0,0:0:0:0:
133,327,310408,5,6,0:0:0:0:
156,313,310473,1,2,0:0:0:0:
182,305,310539,1,2,0:0:0:0:
210,303,310604,1,2,0:0:0:0:
237,308,310669,5,6,0:0:0:0:
262,319,310734,1,2,0:0:0:0:
289,323,310799,1,2,0:0:0:0:
316,319,310865,1,2,0:0:0:0:
342,309,310930,5,14,0:0:0:0:
361,290,310995,1,2,0:0:0:0:
373,265,311060,1,2,0:0:0:0:
374,238,311125,1,2,0:0:0:0:
366,212,311191,5,6,0:0:0:0:
348,191,311256,1,2,0:0:0:0:
324,179,311321,1,2,0:0:0:0:
296,176,311386,1,2,0:0:0:0:
270,183,311452,5,6,0:0:0:0:
248,199,311517,1,2,0:0:0:0:
221,203,311582,1,2,0:0:0:0:
196,193,311647,1,2,0:0:0:0:
178,172,311712,5,14,0:0:0:0:
172,146,311778,1,2,0:0:0:0:
180,120,311843,1,2,0:0:0:0:
199,101,311908,1,2,0:0:0:0:
225,93,311973,6,2,L|212:35,3,55,6|2|2|2,0:0|0:0|0:0|0:0,0:0:0:0:
307,65,312234,6,2,L|308:5,3,55,6|2|2|2,0:0|0:0|0:0|0:0,0:0:0:0:
404,62,312495,5,12,0:0:0:0:
402,116,312560,1,8,0:0:0:0:
401,171,312625,1,8,0:0:0:0:
400,226,312691,1,8,0:0:0:0:
399,281,312756,5,6,0:0:0:0:
375,266,312821,1,2,0:0:0:0:
349,257,312886,1,2,0:0:0:0:
322,255,312952,1,2,0:0:0:0:
295,259,313017,5,6,0:0:0:0:
269,270,313082,1,2,0:0:0:0:
247,286,313147,1,2,0:0:0:0:
224,300,313212,1,2,0:0:0:0:
197,306,313278,5,14,0:0:0:0:
170,302,313343,1,2,0:0:0:0:
145,290,313408,1,2,0:0:0:0:
126,270,313473,1,2,0:0:0:0:
115,245,313539,5,6,0:0:0:0:
113,218,313604,1,2,0:0:0:0:
120,192,313669,1,2,0:0:0:0:
136,169,313734,1,2,0:0:0:0:
145,144,313799,5,6,0:0:0:0:
146,116,313865,1,2,0:0:0:0:
139,90,313930,1,2,0:0:0:0:
125,66,313995,1,2,0:0:0:0:
104,48,314060,5,14,0:0:0:0:
79,37,314125,1,2,0:0:0:0:
52,33,314191,1,2,0:0:0:0:
25,37,314256,1,2,0:0:0:0:
0,48,314321,6,2,L|13:141,3,55
136,169,314582,6,2,L|124:243,1,55
157,184,314712,2,2,L|169:258,1,55
186,104,314843,5,8,0:0:0:0:
192,89,314908,1,2,0:0:0:0:
196,74,314973,2,2,L|184:0,1,55
285,53,315104,6,2,L|274:134,1,55
297,66,315234,2,2,L|290:121,1,55
363,168,315365,6,2,L|374:87,1,55
375,182,315495,2,2,L|382:127,1,55
431,53,315625,6,8,P|450:78|466:121,1,55
429,71,315756,2,8,P|448:96|464:139,1,55
464,202,315886,6,4,P|451:227|435:249,1,55
465,222,316017,2,4,P|452:247|436:269,1,55
350,311,316147,6,4,P|323:317|295:318,1,55
335,322,316278,2,4,P|308:328|280:329,1,55
375,182,316408,5,6,0:0:0:0:
375,182,316476,1,2,0:0:0:0:
375,182,316541,1,2,0:0:0:0:
375,182,316606,1,2,0:0:0:0:
375,182,316671,6,2,L|346:237,3,55,6|2|2|2,0:0|0:0|0:0|0:0,0:0:0:0:
286,104,316932,6,2,L|243:59,3,55,14|2|2|2,0:0|0:0|0:0|0:0,0:0:0:0:
116,80,317193,5,6,0:0:0:0:
142,87,317258,1,2,0:0:0:0:
161,106,317323,1,2,0:0:0:0:
168,133,317388,1,2,0:0:0:0:
162,159,317453,5,6,0:0:0:0:
144,179,317519,1,2,0:0:0:0:
118,188,317584,1,2,0:0:0:0:
92,196,317649,1,2,0:0:0:0:
71,214,317714,5,14,0:0:0:0:
59,238,317779,1,2,0:0:0:0:
59,266,317844,1,2,0:0:0:0:
72,290,317910,1,2,0:0:0:0:
93,307,317975,5,6,0:0:0:0:
120,312,318040,1,2,0:0:0:0:
146,305,318106,1,2,0:0:0:0:
173,298,318171,1,2,0:0:0:0:
200,295,318236,5,6,0:0:0:0:
228,296,318301,1,2,0:0:0:0:
255,300,318366,1,2,0:0:0:0:
281,308,318432,1,2,0:0:0:0:
306,319,318497,5,14,0:0:0:0:
332,328,318562,1,2,0:0:0:0:
360,330,318627,1,2,0:0:0:0:
387,325,318692,1,2,0:0:0:0:
411,313,318758,6,2,P|439:306|486:306,3,55,6|2|2|2,0:0|0:0|0:0|0:0,0:0:0:0:
354,230,319019,6,2,P|378:215|423:203,3,55,6|2|2|2,0:0|0:0|0:0|0:0,0:0:0:0:
246,169,319280,5,12,0:0:0:0:
289,135,319345,1,8,0:0:0:0:
339,112,319410,1,8,0:0:0:0:
393,101,319475,1,8,0:0:0:0:
448,102,319541,5,6,0:0:0:0:
423,115,319606,1,2,0:0:0:0:
397,122,319671,1,2,0:0:0:0:
369,123,319736,1,2,0:0:0:0:
342,118,319801,5,6,0:0:0:0:
317,107,319867,1,2,0:0:0:0:
294,91,319932,1,2,0:0:0:0:
268,83,319997,1,2,0:0:0:0:
241,79,320062,5,14,0:0:0:0:
214,80,320127,1,2,0:0:0:0:
187,85,320192,1,2,0:0:0:0:
161,95,320258,1,2,0:0:0:0:
138,109,320324,5,6,0:0:0:0:
114,122,320389,1,2,0:0:0:0:
87,123,320454,1,2,0:0:0:0:
62,112,320519,1,2,0:0:0:0:
44,91,320584,5,6,0:0:0:0:
38,65,320650,1,2,0:0:0:0:
45,38,320715,1,2,0:0:0:0:
63,18,320780,1,2,0:0:0:0:
89,8,320845,5,14,0:0:0:0:
116,10,320910,1,2,0:0:0:0:
139,25,320975,1,2,0:0:0:0:
154,48,321041,1,2,0:0:0:0:
157,75,321106,5,6,0:0:0:0:
256,359,321367,5,6,0:0:0:0:
354,75,321628,5,14,0:0:0:0:
45,320,321889,6,0,P|60:250|18:119,1,165,6|0,0:0|0:0,0:0:0:0:
101,183,322150,5,4,0:0:0:0:
101,188,322215,1,4,0:0:0:0:
102,193,322280,1,4,0:0:0:0:
103,199,322345,1,4,0:0:0:0:
104,204,322410,5,2,0:0:0:0:
105,210,322476,1,2,0:0:0:0:
106,215,322541,1,2,0:0:0:0:
106,221,322606,1,2,0:0:0:0:
143,202,322671,5,6,0:0:0:0:
147,199,322736,1,2,0:0:0:0:
152,196,322801,1,2,0:0:0:0:
157,194,322866,1,2,0:0:0:0:
162,191,322931,5,4,0:0:0:0:
167,189,322997,1,4,0:0:0:0:
172,188,323062,1,4,0:0:0:0:
178,186,323127,1,4,0:0:0:0:
183,185,323192,5,4,0:0:0:0:
189,184,323257,1,4,0:0:0:0:
194,184,323323,1,4,0:0:0:0:
199,184,323388,1,4,0:0:0:0:
205,184,323455,6,0,L|224:109,3,55,6|8|2|8,0:0|0:0|0:0|0:0,0:0:0:0:
269,233,323695,2,0,L|306:165,3,55,2|8|2|8,0:0|0:0|0:0|0:0,0:0:0:0:
319,297,323935,2,0,L|372:241,3,55,2|8|2|8,0:0|0:0|0:0|0:0,0:0:0:0:
429,312,324175,5,2,0:0:0:0:
442,287,324235,1,8,0:0:0:0:
447,261,324295,1,2,0:0:0:0:
444,233,324355,1,8,0:0:0:0:
434,208,324415,1,2,0:0:0:0:
417,187,324475,1,8,0:0:0:0:
394,172,324535,1,2,0:0:0:0:
370,160,324595,1,8,0:0:0:0:
355,137,324655,1,2,0:0:0:0:
355,109,324715,1,8,0:0:0:0:
369,86,324775,1,2,0:0:0:0:
392,73,324835,1,8,0:0:0:0:
420,75,324895,5,6,0:0:0:0:
443,88,324955,1,8,0:0:0:0:
457,111,325015,1,2,0:0:0:0:
457,138,325075,1,8,0:0:0:0:
442,161,325135,1,2,0:0:0:0:
418,173,325195,1,8,0:0:0:0:
391,171,325255,1,2,0:0:0:0:
366,159,325315,1,8,0:0:0:0:
339,154,325375,1,2,0:0:0:0:
311,156,325435,1,8,0:0:0:0:
285,165,325495,1,2,0:0:0:0:
262,179,325555,1,8,0:0:0:0:
243,199,325615,5,2,0:0:0:0:
223,218,325675,1,8,0:0:0:0:
198,228,325735,1,2,0:0:0:0:
170,226,325795,1,8,0:0:0:0:
146,215,325855,1,2,0:0:0:0:
128,194,325915,1,8,0:0:0:0:
119,168,325975,1,2,0:0:0:0:
121,141,326035,1,8,0:0:0:0:
134,117,326095,1,2,0:0:0:0:
155,100,326155,1,8,0:0:0:0:
181,92,326215,1,2,0:0:0:0:
208,94,326275,1,8,0:0:0:0:
233,104,326335,6,0,L|258:36,3,55,6|8|2|8,0:0|0:0|0:0|0:0,0:0:0:0:
262,179,326575,2,0,P|230:187|193:178,3,55,2|8|2|8,0:0|0:0|0:0|0:0,0:0:0:0:
298,257,326815,2,0,P|330:249|367:258,3,55,2|8|2|8,0:0|0:0|0:0|0:0,0:0:0:0:
462,237,327055,5,2,0:0:0:0:
435,229,327115,1,8,0:0:0:0:
411,215,327175,1,2,0:0:0:0:
392,195,327235,1,8,0:0:0:0:
380,171,327295,1,2,0:0:0:0:
375,144,327355,1,8,0:0:0:0:
377,117,327415,1,2,0:0:0:0:
376,90,327475,1,8,0:0:0:0:
363,66,327535,1,2,0:0:0:0:
341,51,327595,1,8,0:0:0:0:
314,48,327655,1,2,0:0:0:0:
288,58,327715,1,8,0:0:0:0:
271,79,327775,5,6,0:0:0:0:
267,116,327835,1,8,0:0:0:0:
282,151,327895,1,2,0:0:0:0:
312,175,327955,1,8,0:0:0:0:
349,181,328015,1,2,0:0:0:0:
385,169,328075,1,8,0:0:0:0:
410,140,328135,1,2,0:0:0:0:
419,103,328195,1,8,0:0:0:0:
406,67,328255,1,2,0:0:0:0:
381,38,328315,1,8,0:0:0:0:
348,19,328375,1,2,0:0:0:0:
311,12,328435,1,8,0:0:0:0:
273,18,328495,5,2,0:0:0:0:
237,32,328555,1,8,0:0:0:0:
209,57,328615,1,2,0:0:0:0:
192,92,328675,1,8,0:0:0:0:
189,130,328735,1,2,0:0:0:0:
195,168,328795,1,8,0:0:0:0:
211,203,328855,1,2,0:0:0:0:
225,238,328915,1,8,0:0:0:0:
218,276,328975,1,2,0:0:0:0:
194,304,329035,1,8,0:0:0:0:
158,317,329095,1,2,0:0:0:0:
120,308,329155,1,8,0:0:0:0:
93,282,329215,6,0,L|55:322,3,55,6|8|2|8,0:0|0:0|0:0|0:0,0:0:0:0:
27,211,329455,1,2,0:0:0:0:
59,190,329515,1,8,0:0:0:0:
76,157,329575,1,2,0:0:0:0:
75,119,329635,1,8,0:0:0:0:
55,87,329695,2,0,L|121:61,3,55,2|8|2|8,0:0|0:0|0:0|0:0,0:0:0:0:
189,130,329935,6,0,L|185:67,3,55,2|8|2|8,0:0|0:0|0:0|0:0,0:0:0:0:
274,150,330175,2,0,L|278:87,3,55,2|8|2|8,0:0|0:0|0:0|0:0,0:0:0:0:
211,203,330415,2,0,L|207:257,3,55,2|8|2|8,0:0|0:0|0:0|0:0,0:0:0:0:
272,309,330655,5,6,0:0:0:0:
291,289,330715,1,8,0:0:0:0:
314,275,330775,1,2,0:0:0:0:
341,268,330835,1,8,0:0:0:0:
368,268,330895,1,2,0:0:0:0:
395,275,330955,1,8,0:0:0:0:
419,288,331015,1,2,0:0:0:0:
444,299,331075,1,8,0:0:0:0:
471,298,331135,1,2,0:0:0:0:
494,284,331195,1,8,0:0:0:0:
509,261,331255,1,2,0:0:0:0:
512,234,331315,1,8,0:0:0:0:
502,209,331375,5,2,0:0:0:0:
489,185,331435,1,8,0:0:0:0:
469,165,331495,1,2,0:0:0:0:
445,153,331555,1,8,0:0:0:0:
418,147,331615,1,2,0:0:0:0:
391,150,331675,1,8,0:0:0:0:
366,161,331735,1,2,0:0:0:0:
341,173,331795,1,8,0:0:0:0:
314,178,331855,1,2,0:0:0:0:
287,175,331915,1,8,0:0:0:0:
262,164,331975,1,2,0:0:0:0:
240,147,332035,1,8,0:0:0:0:
224,125,332095,5,6,0:0:0:0:
262,118,332155,1,8,0:0:0:0:
299,129,332215,1,2,0:0:0:0:
326,156,332275,1,8,0:0:0:0:
339,192,332335,1,2,0:0:0:0:
334,230,332395,1,8,0:0:0:0:
312,261,332455,1,2,0:0:0:0:
279,279,332515,1,8,0:0:0:0:
249,302,332575,1,2,0:0:0:0:
242,339,332635,1,8,0:0:0:0:
261,372,332695,1,2,0:0:0:0:
296,384,332755,1,8,0:0:0:0:
332,371,332815,6,0,L|398:364,3,55,2|8|2|8,0:0|0:0|0:0|0:0,0:0:0:0:
404,289,333055,2,0,L|465:265,3,55,2|8|2|8,0:0|0:0|0:0|0:0,0:0:0:0:
445,194,333295,2,0,L|498:154,3,55,2|8|2|8,0:0|0:0|0:0|0:0,0:0:0:0:
399,73,333535,5,6,0:0:0:0:
367,94,333595,1,8,0:0:0:0:
331,109,333655,1,2,0:0:0:0:
293,114,333715,1,8,0:0:0:0:
255,111,333775,1,2,0:0:0:0:
218,99,333835,1,8,0:0:0:0:
185,81,333895,1,2,0:0:0:0:
147,78,333955,1,8,0:0:0:0:
111,92,334015,1,2,0:0:0:0:
84,118,334075,1,8,0:0:0:0:
70,154,334135,1,2,0:0:0:0:
68,192,334195,1,8,0:0:0:0:
83,227,334255,5,2,0:0:0:0:
111,253,334315,1,8,0:0:0:0:
147,264,334375,1,2,0:0:0:0:
185,258,334435,1,8,0:0:0:0:
220,242,334495,1,2,0:0:0:0:
258,236,334555,1,8,0:0:0:0:
296,241,334615,1,2,0:0:0:0:
331,257,334675,1,8,0:0:0:0:
359,283,334735,1,2,0:0:0:0:
396,287,334795,1,8,0:0:0:0:
429,267,334855,1,2,0:0:0:0:
442,232,334915,1,8,0:0:0:0:
432,195,334975,6,0,L|446:131,3,55,6|8|2|8,0:0|0:0|0:0|0:0,0:0:0:0:
336,116,335215,1,2,0:0:0:0:
301,131,335275,1,8,0:0:0:0:
263,125,335335,1,2,0:0:0:0:
235,99,335395,1,8,0:0:0:0:
225,63,335455,2,0,L|207:130,3,55,2|8|2|8,0:0|0:0|0:0|0:0,0:0:0:0:
70,98,335695,5,2,0:0:0:0:
100,121,335755,1,8,0:0:0:0:
118,154,335815,1,2,0:0:0:0:
119,193,335875,1,8,0:0:0:0:
104,228,335935,2,0,P|91:290|97:306,3,55,2|8|2|8,0:0|0:0|0:0|0:0,0:0:0:0:
189,280,336175,2,0,P|202:342|196:358,3,55,2|8|2|8,0:0|0:0|0:0|0:0,0:0:0:0:
281,325,336415,5,6,0:0:0:0:
298,304,336475,1,8,0:0:0:0:
320,287,336535,1,2,0:0:0:0:
346,276,336595,1,8,0:0:0:0:
373,272,336655,1,2,0:0:0:0:
400,273,336715,1,8,0:0:0:0:
426,280,336775,1,2,0:0:0:0:
452,276,336835,1,8,0:0:0:0:
474,259,336895,1,2,0:0:0:0:
486,234,336955,1,8,0:0:0:0:
485,207,337015,1,2,0:0:0:0:
471,184,337075,1,8,0:0:0:0:
449,168,337135,5,2,0:0:0:0:
422,166,337195,1,8,0:0:0:0:
394,166,337255,1,2,0:0:0:0:
368,158,337315,1,8,0:0:0:0:
346,142,337375,1,2,0:0:0:0:
330,120,337435,1,8,0:0:0:0:
317,95,337495,1,2,0:0:0:0:
297,77,337555,1,8,0:0:0:0:
272,67,337615,1,2,0:0:0:0:
245,67,337675,1,8,0:0:0:0:
219,77,337735,1,2,0:0:0:0:
199,96,337795,1,8,0:0:0:0:
187,121,337855,5,6,0:0:0:0:
194,158,337915,1,8,0:0:0:0:
220,186,337975,1,2,0:0:0:0:
256,197,338035,1,8,0:0:0:0:
293,188,338095,1,2,0:0:0:0:
321,162,338155,1,8,0:0:0:0:
331,125,338215,1,2,0:0:0:0:
330,86,338275,1,8,0:0:0:0:
348,53,338335,1,2,0:0:0:0:
381,34,338395,1,8,0:0:0:0:
419,35,338455,1,2,0:0:0:0:
451,55,338515,1,8,0:0:0:0:
468,90,338575,5,2,0:0:0:0:
464,127,338635,1,8,0:0:0:0:
442,158,338695,1,2,0:0:0:0:
410,179,338755,1,8,0:0:0:0:
388,211,338815,1,2,0:0:0:0:
379,248,338875,1,8,0:0:0:0:
383,286,338935,1,2,0:0:0:0:
401,320,338995,1,8,0:0:0:0:
431,342,339055,1,2,0:0:0:0:
469,341,339115,1,8,0:0:0:0:
498,316,339175,1,2,0:0:0:0:
505,279,339235,1,8,0:0:0:0:
488,245,339295,6,0,L|513:181,3,55,6|8|2|8,0:0|0:0|0:0|0:0,0:0:0:0:
410,179,339535,2,0,L|417:110,3,55,2|8|2|8,0:0|0:0|0:0|0:0,0:0:0:0:
312,178,339775,2,0,L|301:110,3,55,2|8|2|8,0:0|0:0|0:0|0:0,0:0:0:0:
207,298,340015,6,0,B|219:332|219:332|219:358,3,55,2|8|2|8,0:0|0:0|0:0|0:0,0:0:0:0:
119,257,340255,2,0,B|107:291|107:291|107:317,3,55,2|8|2|8,0:0|0:0|0:0|0:0,0:0:0:0:
195,211,340495,2,0,L|216:139,3,55,2|8|2|8,0:0|0:0|0:0|0:0,0:0:0:0:
316,203,340735,5,6,0:0:0:0:
327,166,340795,1,8,0:0:0:0:
323,128,340855,1,2,0:0:0:0:
305,95,340915,1,8,0:0:0:0:
275,71,340975,1,2,0:0:0:0:
237,62,341035,1,8,0:0:0:0:
200,68,341095,1,2,0:0:0:0:
161,67,341155,1,8,0:0:0:0:
142,34,341215,1,2,0:0:0:0:
161,1,341275,1,8,0:0:0:0:
200,1,341335,1,2,0:0:0:0:
219,34,341395,1,8,0:0:0:0:
244,62,341455,5,2,0:0:0:0:
277,81,341515,1,8,0:0:0:0:
315,90,341575,1,2,0:0:0:0:
353,86,341635,1,8,0:0:0:0:
388,72,341695,1,2,0:0:0:0:
426,68,341755,1,8,0:0:0:0:
460,84,341815,1,2,0:0:0:0:
480,117,341875,1,8,0:0:0:0:
479,155,341935,1,2,0:0:0:0:
458,186,341995,1,8,0:0:0:0:
424,205,342055,1,2,0:0:0:0:
387,213,342115,1,8,0:0:0:0:
349,211,342175,5,6,0:0:0:0:
313,198,342235,1,8,0:0:0:0:
275,189,342295,1,2,0:0:0:0:
237,187,342355,1,8,0:0:0:0:
199,194,342415,1,2,0:0:0:0:
163,208,342475,1,8,0:0:0:0:
132,230,342535,1,2,0:0:0:0:
109,261,342595,1,8,0:0:0:0:
98,297,342655,2,0,P|99:329|112:355,3,55,2|8|2|8,0:0|0:0|0:0|0:0,0:0:0:0:
228,356,342895,5,2,0:0:0:0:
268,340,342955,1,8,0:0:0:0:
298,308,343015,1,2,0:0:0:0:
310,266,343075,1,8,0:0:0:0:
301,223,343135,1,2,0:0:0:0:
275,189,343195,1,8,0:0:0:0:
235,170,343255,1,2,0:0:0:0:
202,141,343315,1,8,0:0:0:0:
191,99,343375,1,2,0:0:0:0:
206,58,343435,1,8,0:0:0:0:
241,33,343495,1,2,0:0:0:0:
284,32,343555,1,8,0:0:0:0:
320,56,343615,5,6,0:0:0:0:
294,48,343675,1,8,0:0:0:0:
267,53,343735,1,2,0:0:0:0:
246,69,343795,1,8,0:0:0:0:
233,93,343855,1,2,0:0:0:0:
233,121,343915,1,8,0:0:0:0:
245,145,343975,1,2,0:0:0:0:
267,161,344035,1,8,0:0:0:0:
293,172,344095,1,2,0:0:0:0:
316,185,344155,1,8,0:0:0:0:
330,209,344215,1,2,0:0:0:0:
338,235,344275,1,8,0:0:0:0:
339,262,344335,6,0,P|337:292|326:320,3,55,2|8|2|8,0:0|0:0|0:0|0:0,0:0:0:0:
244,307,344575,2,0,P|246:337|257:365,3,55,2|8|2|8,0:0|0:0|0:0|0:0,0:0:0:0:
244,220,344815,2,0,P|214:221|186:232,3,55,2|8|2|8,0:0|0:0|0:0|0:0,0:0:0:0:
116,263,345055,5,2,0:0:0:0:
115,268,345115,1,2,0:0:0:0:
114,273,345175,1,2,0:0:0:0:
114,278,345235,1,2,0:0:0:0:
114,284,345295,1,2,0:0:0:0:
114,289,345355,1,2,0:0:0:0:
114,295,345415,1,2,0:0:0:0:
114,300,345475,1,2,0:0:0:0:
113,306,345535,6,8,L|51:315,1,55
226,254,345655,2,8,L|288:262,1,55
110,208,345775,6,4,L|-7:224,1,110
219,125,346015,6,2,L|336:109,1,110
226,254,346255,6,0,L|246:385,1,110,8|0,0:0|0:0,0:0:0:0:
94,100,346495,5,8,0:0:0:0:
110,208,346615,1,2,0:0:0:0:
138,86,346735,5,8,0:0:0:0:
125,194,346855,1,2,0:0:0:0:
217,80,346975,5,8,0:0:0:0:
199,221,347095,1,2,0:0:0:0:
296,80,347215,5,8,0:0:0:0:
274,250,347335,1,2,0:0:0:0:
346,101,347455,5,8,0:0:0:0:
280,259,347575,1,2,0:0:0:0:
391,133,347695,5,8,0:0:0:0:
286,268,347815,1,2,0:0:0:0:
486,204,347935,5,8,0:0:0:0:
469,305,348055,1,2,0:0:0:0:
444,184,348175,5,8,0:0:0:0:
453,285,348295,1,2,0:0:0:0:
366,169,348415,5,8,0:0:0:0:
378,314,348535,1,2,0:0:0:0:
290,161,348655,5,8,0:0:0:0:
304,335,348775,1,2,0:0:0:0:
238,163,348895,5,8,0:0:0:0:
296,327,349015,1,2,0:0:0:0:
192,181,349135,6,0,L|261:283,1,110,8|2,0:0|0:0,0:0:0:0:
352,101,349375,5,8,0:0:0:0:
304,335,349495,1,8,0:0:0:0:
364,117,349615,5,8,0:0:0:0:
316,351,349735,1,8,0:0:0:0:
376,134,349855,6,0,L|352:253,1,110,8|2,0:0|0:0,0:0:0:0:
249,25,350095,5,8,0:0:0:0:
316,351,350215,1,8,0:0:0:0:
231,47,350335,5,8,0:0:0:0:
298,373,350455,1,8,0:0:0:0:
214,70,350575,6,0,L|241:211,1,110,8|8,0:0|0:0,0:0:0:0:
461,131,350815,5,8,0:0:0:0:
49,139,350935,1,8,0:0:0:0:
437,156,351055,5,8,0:0:0:0:
28,166,351175,1,8,0:0:0:0:
412,182,351295,6,0,L|263:186,1,110,8|2,0:0|0:0,0:0:0:0:
63,359,351535,5,8,0:0:0:0:
106,326,351595,1,8,0:0:0:0:
159,310,351655,1,8,0:0:0:0:
214,314,351715,1,8,0:0:0:0:
256,349,351775,5,4,0:0:0:0:
282,340,351835,1,4,0:0:0:0:
282,313,351895,1,4,0:0:0:0:
256,304,351955,1,4,0:0:0:0:
240,327,352015,5,6,0:0:0:0:
402,332,352255,5,2,0:0:0:0:
387,308,352315,1,8,0:0:0:0:
379,282,352375,1,2,0:0:0:0:
378,254,352435,1,8,0:0:0:0:
383,227,352495,5,2,0:0:0:0:
394,202,352555,1,8,0:0:0:0:
411,181,352615,1,2,0:0:0:0:
428,160,352675,1,8,0:0:0:0:
438,134,352735,5,2,0:0:0:0:
437,104,352795,1,8,0:0:0:0:
421,79,352855,1,2,0:0:0:0:
394,66,352915,1,8,0:0:0:0:
364,68,352975,5,2,0:0:0:0:
336,85,353035,1,8,0:0:0:0:
320,114,353095,1,2,0:0:0:0:
321,147,353155,1,8,0:0:0:0:
337,175,353215,5,2,0:0:0:0:
356,205,353275,1,8,0:0:0:0:
360,240,353335,1,2,0:0:0:0:
347,273,353395,1,8,0:0:0:0:
320,296,353455,5,2,0:0:0:0:
283,307,353515,1,8,0:0:0:0:
247,297,353575,1,2,0:0:0:0:
220,270,353635,1,8,0:0:0:0:
211,233,353695,6,0,L|141:249,1,55,2|8,0:0|0:0,0:0:0:0:
86,173,353815,2,0,L|156:157,1,55,2|8,0:0|0:0,0:0:0:0:
216,112,353935,5,2,0:0:0:0:
240,86,353995,1,8,0:0:0:0:
276,74,354055,1,2,0:0:0:0:
313,75,354115,1,8,0:0:0:0:
345,90,354175,5,2,0:0:0:0:
368,122,354235,1,8,0:0:0:0:
402,141,354295,1,2,0:0:0:0:
443,139,354355,1,8,0:0:0:0:
477,118,354415,5,2,0:0:0:0:
486,76,354475,1,8,0:0:0:0:
468,37,354535,1,2,0:0:0:0:
434,13,354595,1,8,0:0:0:0:
389,15,354655,5,2,0:0:0:0:
358,50,354715,1,8,0:0:0:0:
353,96,354775,1,2,0:0:0:0:
381,133,354835,1,8,0:0:0:0:
422,153,354895,6,0,L|413:229,3,55,2|8|2|8,0:0|0:0|0:0|0:0,0:0:0:0:
512,212,355135,5,2,0:0:0:0:
493,263,355195,1,8,0:0:0:0:
452,298,355255,1,2,0:0:0:0:
399,310,355315,1,8,0:0:0:0:
347,294,355375,5,2,0:0:0:0:
289,276,355435,1,8,0:0:0:0:
229,278,355495,1,2,0:0:0:0:
173,299,355555,1,8,0:0:0:0:
127,338,355615,6,0,L|69:350,3,55,2|8|2|8,0:0|0:0|0:0|0:0,0:0:0:0:
17,211,355855,5,2,0:0:0:0:
72,231,355915,1,8,0:0:0:0:
126,206,355975,1,2,0:0:0:0:
147,151,356035,1,8,0:0:0:0:
123,97,356095,5,2,0:0:0:0:
146,38,356155,1,8,0:0:0:0:
208,22,356215,1,2,0:0:0:0:
257,62,356275,1,8,0:0:0:0:
255,125,356335,6,0,L|218:193,3,55,2|8|2|8,0:0|0:0|0:0|0:0,0:0:0:0:
126,206,356575,6,8,L|101:116,2,73.3333333333333
193,342,356815,6,4,L|238:261,2,73.3333333333333
320,304,357055,5,4,0:0:0:0:
357,229,357135,1,4,0:0:0:0:
394,156,357215,1,4,0:0:0:0:
431,82,357295,6,4,L|378:-10,2,73.3333333333333
512,210,357535,5,4,0:0:0:0:
437,243,357615,1,4,0:0:0:0:
357,229,357695,1,4,0:0:0:0:
298,172,357775,5,4,0:0:0:0:
218,162,357855,1,4,0:0:0:0:
155,212,357935,1,4,0:0:0:0:
146,292,358015,5,6,0:0:0:0:
