osu file format v11

[General]
AudioFilename: Infected mushroom - saeed.MP3
AudioLeadIn: 0
PreviewTime: 26624
Countdown: 1
SampleSet: Soft
StackLeniency: 0.7
Mode: 0
LetterboxInBreaks: 1

[Editor]
DistanceSpacing: 0.8
BeatDivisor: 4
GridSize: 8

[Metadata]
Title:Saeed
TitleUnicode:Saeed
Artist:Infected mushroom
ArtistUnicode:Infected mushroom
Creator:Destructia
Version:Hard
Source:
Tags:
BeatmapID:206949
BeatmapSetID:72407

[Difficulty]
HPDrainRate:6
CircleSize:4
OverallDifficulty:6
ApproachRate:7
SliderMultiplier:1.4
SliderTickRate:1

[Events]
//Background and Video events
0,0,"zombies.jpg"
//Break Periods
2,78753,85308
2,104615,105170
2,138958,143237
2,185715,197029
//Storyboard Layer 0 (Background)
//Storyboard Layer 1 (Fail)
//Storyboard Layer 2 (Pass)
//Storyboard Layer 3 (Foreground)
//Storyboard Sound Samples
//Background Colour Transformations
3,100,0,0,0

[TimingPoints]
27452.3244022916,413.778985107557,4,2,1,100,1,0
38207,-200,4,2,1,100,0,0
39862,-100,4,2,1,100,0,0
52273,-58.8235294117647,4,2,1,100,0,0
144523,-200,4,2,1,100,0,0
165621,-58.8235294117647,4,2,1,100,0,0
198715,-100,4,2,1,100,0,0
228500,-58.8235294117647,4,2,1,100,0,0
288121,-200,4,2,1,100,0,0
297842,-100,4,2,1,100,0,0

[Colours]
Combo1 : 228,124,207
Combo2 : 69,159,207
Combo3 : 92,188,186
Combo4 : 132,234,130
Combo5 : 146,112,207
Combo6 : 243,232,90

[HitObjects]
40,40,26624,1,4,0:0:0
40,40,26935,2,0,P|112:120,1,105
464,48,28279,1,4,0:0:0
464,48,28486,2,0,P|368:152,1,140
56,320,29934,5,4,0:0:0
56,320,30245,2,0,P|136:240,1,105
464,192,31590,1,4,0:0:0
464,192,31797,2,0,P|320:192,1,140
256,336,33245,5,2,0:0:0
192,272,33452,1,2,0:0:0
272,240,33659,1,2,0:0:0
208,176,33865,1,2,0:0:0
288,152,34072,1,2,0:0:0
208,176,34279,1,2,0:0:0
272,240,34486,1,2,0:0:0
192,272,34693,1,2,0:0:0
256,336,34900,1,2,0:0:0
272,240,35107,6,0,P|176:240,1,70
80,64,36555,1,4,0:0:0
80,64,36865,2,0,P|144:168,1,105
256,192,38210,2,0,P|256:264|256:264|320:304|320:304|360:304,1,175
347,304,39451,1,2,0:0:0
400,232,39658,1,2,0:0:0
416,144,39865,5,4,0:0:0
296,80,40176,1,2,0:0:0
184,264,40486,1,2,0:0:0
320,192,40900,2,2,P|280:192,2,35
320,192,41313,1,8,0:0:0
400,192,41520,6,4,P|400:120|400:120|424:88,2,105
400,192,42348,1,2,0:0:0
320,192,42555,1,2,0:0:0
256,296,42762,1,2,0:0:0
176,192,42969,1,2,0:0:0
80,192,43175,2,4,P|80:264|80:264|96:296,2,105
176,192,44003,5,2,0:0:0
256,296,44210,1,2,0:0:0
328,192,44417,1,2,0:0:0
256,104,44624,1,2,0:0:0
176,192,44831,2,4,P|88:192|88:192|72:168,2,105
176,192,45658,5,2,0:0:0
256,288,45865,1,2,0:0:0
256,288,46072,1,2,0:0:0
352,200,46279,1,8,0:0:0
304,88,46486,6,2,P|384:88,1,70
232,88,46899,2,2,P|312:88,1,70
160,88,47313,2,2,P|232:88,1,70
96,88,47727,2,0,P|168:88,4,70
160,272,49175,5,8,0:0:0
232,208,49382,1,0,0:0:0
304,144,49589,1,4,0:0:0
400,136,49796,2,2,P|400:56,1,70
176,96,50830,5,8,0:0:0
240,168,51037,1,0,0:0:0
304,240,51244,1,4,0:0:0
312,336,51451,2,2,P|392:336,1,70
72,72,52279,5,0,0:0:0
96,96,52485,1,0,0:0:0
120,120,52692,1,0,0:0:0
144,144,52899,1,2,0:0:0
256,336,53106,2,0,P|256:240|256:240|312:176,2,178.500003404617
440,312,53934,5,0,0:0:0
416,288,54141,1,0,0:0:0
392,264,54347,1,0,0:0:0
368,240,54554,1,2,0:0:0
256,48,54761,2,0,P|256:144|256:144|200:208,2,178.500003404617
72,72,55589,5,0,0:0:0
96,96,55796,1,0,0:0:0
120,120,56003,1,0,0:0:0
144,144,56209,1,2,0:0:0
256,336,56416,2,0,P|256:240|256:240|312:176,2,178.500003404617
440,312,57244,5,0,0:0:0
416,288,57451,1,0,0:0:0
392,264,57658,1,0,0:0:0
368,240,57865,1,2,0:0:0
256,48,58071,2,0,P|256:144|256:144|200:208,2,178.500003404617
160,80,58899,5,2,0:0:0
136,104,59106,1,2,0:0:0
112,128,59313,1,2,0:0:0
88,152,59520,2,2,P|40:200|40:200|232:344|232:344|440:344|440:344|440:344|440:344|472:280,2,535.500010213852
88,152,61692,5,4,0:0:0
256,184,62002,1,0,0:0:0
256,152,62106,1,0,0:0:0
256,120,62209,1,2,0:0:0
336,160,62416,5,0,0:0:0
256,272,62623,1,0,0:0:0
176,176,62830,1,0,0:0:0
176,176,63037,2,0,P|48:40,2,178.500003404617
256,192,64692,12,0,65519,0:0:0
256,328,65726,5,2,0:0:0
256,208,65933,1,2,0:0:0
168,256,66140,2,0,P|88:192|88:192|88:56,1,238.00000453949
88,56,66657,1,2,0:0:0
256,48,67175,5,4,0:0:0
320,112,67381,1,2,0:0:0
256,176,67588,1,0,0:0:0
288,272,67795,1,4,0:0:0
288,272,68002,2,0,P|360:272|360:272|416:184,1,119.000002269745
384,232,68312,1,2,0:0:0
256,176,68830,5,0,0:0:0
168,120,69037,1,0,0:0:0
72,120,69244,1,0,0:0:0
256,176,69450,1,0,0:0:0
256,176,69657,2,4,P|256:96|256:96|336:32,2,178.500003404617
256,176,70485,5,0,0:0:0
256,272,70692,1,0,0:0:0
328,336,70899,1,0,0:0:0
256,176,71106,1,0,0:0:0
256,176,71312,2,4,P|256:296|256:296|208:328,2,178.500003404617
256,176,72140,5,4,0:0:0
256,272,72347,1,2,0:0:0
368,320,72554,1,0,0:0:0
464,176,72968,2,2,P|432:112|392:72|344:48|280:40|232:40|176:56|144:80|128:96|104:128|64:200,1,476.00000907898
464,176,74623,2,2,P|432:112|392:72|344:48|280:40|232:40|176:56|144:80|128:96|104:128|64:200,1,476.00000907898
80,256,75657,5,0,0:0:0
256,264,75864,1,4,0:0:0
320,152,76071,1,4,0:0:0
400,152,76278,2,8,P|400:248|400:248|464:320,2,178.500003404617
128,256,77933,2,8,P|128:128|128:128|80:80,2,178.500003404617
256,192,86208,12,2,87657,0:0:0
256,192,87864,12,2,89312,0:0:0
256,192,89415,12,4,92829,0:0:0
440,184,93243,5,8,0:0:0
256,88,93656,1,0,0:0:0
192,320,94070,2,2,P|96:224,1,119.000002269745
88,200,94381,1,2,0:0:0
56,160,94484,2,2,P|144:88|144:88|208:120,1,178.500003404617
264,320,95105,1,6,0:0:0
320,64,95725,6,2,P|416:160,1,119.000002269745
424,184,96036,1,2,0:0:0
456,224,96139,2,2,P|368:296|368:296|304:264,1,178.500003404617
248,64,96760,1,6,0:0:0
248,64,96967,5,0,0:0:0
192,320,97380,2,2,P|96:224,1,119.000002269745
88,200,97691,1,2,0:0:0
56,160,97794,2,2,P|144:88|144:88|208:120,1,178.500003404617
264,320,98415,1,6,0:0:0
256,48,99036,5,8,0:0:0
264,320,99449,1,12,0:0:0
440,56,99863,1,8,0:0:0
64,40,100277,1,0,0:0:0
64,328,100691,2,8,P|288:176|272:176,1,238.00000453949,8|4,0:0|0:0,0:0:0
456,336,101518,5,8,0:0:0
456,48,101932,1,0,0:0:0
64,40,102346,2,8,P|264:208,1,238.00000453949,8|4,0:0|0:0,0:0:0
256,336,103173,1,8,0:0:0
456,40,103587,1,4,0:0:0
48,40,104001,1,4,0:0:0
256,40,104415,1,4,0:0:0
80,320,106070,6,4,P|152:224|152:224|224:224,2,178.500003404617
80,320,106897,1,2,0:0:0
232,288,107311,2,4,P|376:288|376:288|400:232,2,178.500003404617
232,288,108139,1,2,0:0:0
392,184,108553,1,0,0:0:0
224,64,108966,1,4,0:0:0
232,184,109380,6,4,P|112:184|112:184|56:216,2,178.500003404617
232,184,110208,1,2,0:0:0
296,288,110621,2,4,P|424:288|424:288|464:256,2,178.500003404617
264,288,111449,1,2,0:0:0
216,288,111656,6,4,P|104:288|104:288|80:200,2,178.500003404617
184,176,112483,1,2,0:0:0
304,64,112690,2,4,P|368:160|368:160|448:160,2,178.500003404617
400,336,113932,2,4,P|288:168,2,178.500003404617
80,320,114966,2,0,P|192:224|192:224|184:160,2,178.500003404617
192,320,116001,6,2,P|96:224,1,119.000002269745
88,200,116311,1,2,0:0:0
56,160,116414,2,2,P|144:88|144:88|248:160,1,238.00000453949,2|4,0:0|0:0,0:0:0
408,192,117242,5,4,0:0:0
408,192,117656,1,4,0:0:0
256,192,117863,12,4,119311,0:0:0
256,320,119518,5,8,0:0:0
168,280,119725,1,0,0:0:0
216,208,119931,1,8,0:0:0
136,160,120138,1,0,0:0:0
200,96,120345,1,2,0:0:0
320,96,120552,1,2,0:0:0
200,96,120759,1,2,0:0:0
256,320,120966,5,8,0:0:0
344,280,121173,1,0,0:0:0
296,208,121380,1,8,0:0:0
376,160,121587,1,0,0:0:0
312,96,121793,1,2,0:0:0
192,96,122000,1,2,0:0:0
312,96,122207,1,2,0:0:0
64,184,122621,6,0,P|192:184,1,119.000002269745
400,272,123035,2,0,P|240:272,1,119.000002269745
240,272,123345,1,0,0:0:0
192,272,123449,2,0,P|48:176,1,119.000002269745
304,160,123862,2,0,P|192:72,1,119.000002269745
256,344,124276,6,4,P|256:56,2,238.00000453949
256,64,125931,5,8,0:0:0
168,104,126138,1,0,0:0:0
216,176,126345,1,8,0:0:0
136,224,126552,1,0,0:0:0
200,288,126759,1,2,0:0:0
320,288,126966,1,2,0:0:0
200,288,127173,1,2,0:0:0
256,320,127586,5,8,0:0:0
168,280,127793,1,0,0:0:0
216,208,128000,1,8,0:0:0
136,160,128207,1,0,0:0:0
200,96,128414,1,2,0:0:0
320,96,128621,1,2,0:0:0
200,96,128828,1,2,0:0:0
256,192,129241,12,2,130690,0:0:0
248,184,130897,6,0,P|184:136,1,59.5000011348725
136,200,131103,2,0,P|192:248,1,59.5000011348725
264,288,131310,2,2,P|312:248,1,59.5000011348725
384,216,131517,2,2,P|336:160,1,59.5000011348725
296,96,131724,2,0,P|224:96,1,59.5000011348725
152,96,131931,2,0,P|88:96,1,59.5000011348725
136,200,132138,2,2,P|56:200,1,59.5000011348725
80,272,132345,2,2,P|152:272,1,59.5000011348725
139,272,132552,6,4,P|176:336|232:344|288:344|336:320|360:304|368:280|376:248|384:208|368:176,1,357.000006809235
368,160,133276,1,2,0:0:0
360,136,133379,2,2,P|304:80|272:64|240:56|192:64|160:72|136:88|104:112|96:128|96:160|72:208,1,357.000006809235
139,272,134207,6,4,P|176:336|232:344|288:344|336:320|360:304|368:280|376:248|384:208|368:176,1,357.000006809235
368,160,134931,1,2,0:0:0
360,136,135034,2,2,P|304:80|272:64|240:56|192:64|160:72|136:88|104:112|96:128|96:160|72:208,1,357.000006809235
139,272,135862,6,4,P|176:336|232:344|288:344|336:320|360:304|368:280|376:248|384:208|368:176,2,357.000006809235
372,112,137517,6,4,P|336:48|280:40|224:40|176:64|152:80|144:104|136:136|128:176|144:208,2,357.000006809235
256,336,144137,5,0,0:0:0
256,296,144344,1,0,0:0:0
256,256,144551,2,0,P|256:184,1,70,0|2,0:0|0:0,0:0:0
256,136,145172,2,0,P|224:120,1,35
136,136,145586,1,0,0:0:0
128,256,145793,1,2,0:0:0
128,256,146206,1,2,0:0:0
272,256,146413,1,2,0:0:0
272,256,146620,6,2,P|288:208,1,35
320,136,147034,1,2,0:0:0
320,136,147241,1,2,0:0:0
256,64,148275,2,2,P|208:64,2,35
128,64,148896,2,2,P|128:136,1,70
120,280,149724,5,2,0:0:0
200,248,149930,1,2,0:0:0
272,288,150137,1,2,0:0:0
272,288,150344,1,2,0:0:0
368,296,150551,2,2,P|464:296,1,96.25
376,144,151586,5,6,0:0:0
296,88,151792,1,2,0:0:0
240,160,151999,1,2,0:0:0
184,232,152206,2,2,P|136:288|112:288|88:288|80:280|64:264|56:248|40:232|48:224|56:208|64:192|80:176|152:128,1,315
352,184,154482,5,0,0:0:0
256,336,154896,1,0,0:0:0
184,296,155103,1,0,0:0:0
112,248,155310,1,2,0:0:0
48,176,155516,6,2,P|64:144|64:144|104:160|104:160|128:128|128:128|168:144|168:144|192:112|192:112|208:120,1,210
199,115,156861,1,0,0:0:0
424,312,158206,5,4,0:0:0
336,280,158413,1,2,0:0:0
384,192,158620,1,2,0:0:0
280,176,158827,1,2,0:0:0
192,176,159034,6,0,P|192:256,1,70
424,312,159861,5,4,0:0:0
336,280,160068,1,2,0:0:0
384,192,160275,1,2,0:0:0
280,176,160482,1,2,0:0:0
192,176,160689,6,0,P|192:256,1,70
80,80,161516,1,4,0:0:0
80,160,161723,1,4,0:0:0
80,160,161930,1,4,0:0:0
80,160,162137,1,4,0:0:0
256,176,162344,2,2,P|184:176,1,70
440,336,163171,5,4,0:0:0
440,248,163378,1,4,0:0:0
440,248,163585,1,4,0:0:0
440,248,163792,1,4,0:0:0
256,176,163999,2,2,P|336:176,1,70
256,336,164826,5,2,0:0:0
256,40,165240,1,2,0:0:0
72,104,165654,2,0,P|104:184|144:216|248:232|296:224|352:216|408:168|424:144|432:128|448:56,2,476.00000907898
88,312,168137,2,0,P|216:312,1,119.000002269745
328,312,168550,1,0,0:0:0
304,72,168964,1,0,0:0:0
88,184,169378,1,8,0:0:0
328,312,169792,1,8,0:0:0
88,184,170206,5,2,0:0:0
88,184,170619,1,4,0:0:0
256,192,170826,12,4,172274,0:0:0
128,192,172688,6,0,P|128:256,3,59.5000011348725
128,296,173102,2,0,P|280:296,1,119.000002269745
247,296,173516,2,0,P|384:240,1,119.000002269745
440,200,173930,1,4,0:0:0
256,56,174343,5,8,0:0:0
144,152,174757,1,0,0:0:0
144,152,174964,1,0,0:0:0
256,272,175171,1,8,0:0:0
256,56,175585,1,0,0:0:0
144,112,175998,6,0,P|144:176,3,59.5000011348725
144,216,176412,2,0,P|296:216,1,119.000002269745
263,216,176826,2,0,P|400:160,1,119.000002269745
456,120,177240,1,4,0:0:0
256,328,177654,5,8,0:0:0
176,288,177860,1,0,0:0:0
88,240,178067,1,0,0:0:0
88,240,178274,1,0,0:0:0
88,240,178481,2,0,P|248:56,1,238.00000453949
192,176,179722,1,0,0:0:0
280,120,179929,1,0,0:0:0
344,192,180136,2,0,P|480:192,2,119.000002269745
256,312,181584,6,0,P|96:312,2,119.000002269745
352,224,182205,1,0,0:0:0
192,128,182619,1,0,0:0:0
256,312,183033,1,0,0:0:0
304,120,183447,1,0,0:0:0
160,232,183860,1,4,0:0:0
256,48,185515,5,4,0:0:0
96,64,197929,5,0,0:0:0
128,96,198136,1,0,0:0:0
112,136,198343,1,0,0:0:0
160,160,198549,1,0,0:0:0
256,320,198756,5,2,0:0:0
256,320,199170,2,0,P|256:240,1,70
256,144,199584,2,2,P|256:88|256:88|240:80,3,70
312,56,201239,5,0,0:0:0
320,96,201446,1,0,0:0:0
352,128,201653,1,0,0:0:0
392,144,201860,1,2,0:0:0
176,320,202894,5,0,0:0:0
152,280,203101,1,0,0:0:0
112,256,203308,1,0,0:0:0
72,248,203515,1,2,0:0:0
432,312,204549,5,2,0:0:0
392,312,204756,1,2,0:0:0
352,312,204963,1,2,0:0:0
248,312,205170,2,2,P|240:272|248:248|256:224|272:208|280:200|320:176|344:168|368:176,1,210
440,176,206204,2,2,P|448:136|440:128|432:104|408:88|392:80|352:88,1,140
160,64,207032,2,2,P|128:88|120:104|112:112|96:136|104:160|96:208,1,140
256,328,207859,5,2,0:0:0
296,312,208066,1,0,0:0:0
320,280,208273,1,0,0:0:0
320,232,208480,1,0,0:0:0
96,192,211583,6,0,P|248:192,1,140
236,192,212204,1,8,0:0:0
304,256,212411,1,8,0:0:0
384,304,212618,5,0,0:0:0
448,248,212825,1,2,0:0:0
376,176,213032,1,0,0:0:0
376,176,213239,2,0,P|280:88,1,122.5
168,80,213859,6,8,P|112:128,1,70
80,208,214273,1,0,0:0:0
168,216,214480,1,0,0:0:0
144,304,214687,1,0,0:0:0
240,288,214894,1,0,0:0:0
320,272,215101,1,0,0:0:0
320,272,215928,5,0,0:0:0
240,288,216135,1,0,0:0:0
152,312,216342,1,0,0:0:0
168,216,216549,1,0,0:0:0
80,208,216756,1,0,0:0:0
256,48,217376,6,8,P|432:144|432:144|432:256,1,280
256,192,218618,12,8,220687,0:0:0
256,80,221100,5,2,0:0:0
200,160,221307,1,2,0:0:0
312,160,221514,1,2,0:0:0
256,80,221721,1,2,0:0:0
256,192,223583,12,4,225238,0:0:0
256,328,225652,5,8,0:0:0
112,184,226066,2,0,P|192:184,1,70
248,112,226480,1,8,0:0:0
344,56,226686,6,0,P|392:136,2,70
248,112,227307,1,0,0:0:0
384,280,227721,1,0,0:0:0
216,128,228135,1,0,0:0:0
384,280,228548,6,0,P|128:280,1,238.00000453949
136,240,229169,2,0,P|376:240,1,238.00000453949
256,56,229997,1,0,0:0:0
256,56,230204,2,0,P|176:144,1,119.000002269745
176,312,230617,2,0,P|304:312,2,119.000002269745
264,184,231445,1,0,0:0:0
344,328,231859,6,0,P|432:288|440:208|432:168|376:88,1,238.00000453949
352,128,232479,2,0,P|304:192|312:216|312:240|328:288|368:344,1,238.00000453949
184,256,233307,1,0,0:0:0
112,208,233514,1,0,0:0:0
112,208,233721,1,0,0:0:0
112,208,233928,2,0,P|112:88,2,119.000002269745
184,264,234755,5,0,0:0:0
272,264,234962,1,0,0:0:0
368,264,235169,2,0,P|368:80,2,178.500003404617
272,264,235997,2,0,P|272:72,2,178.500003404617
368,272,236825,2,0,P|368:80,1,178.500003404617
272,80,237445,2,0,P|272:208,1,119.000002269745
160,272,238066,1,0,0:0:0
256,192,238273,12,8,239721,0:0:0
256,72,239928,5,0,0:0:0
240,112,240135,1,0,0:0:0
208,136,240342,1,0,0:0:0
168,144,240549,1,0,0:0:0
80,320,240962,1,0,0:0:0
312,168,241376,1,0,0:0:0
200,320,241790,6,2,P|264:328|312:320|352:296|392:264|408:232|408:192,1,238.00000453949
400,192,242411,2,2,P|320:184|288:200|272:224|264:248|240:280|232:352,1,238.00000453949
144,200,243238,2,0,P|40:264,2,119.000002269745
144,112,243859,2,0,P|16:112,2,119.000002269745
256,192,244686,1,0,0:0:0
432,320,245100,6,0,P|304:96,1,238.00000453949
280,144,245721,2,0,P|408:352,1,238.00000453949
176,304,246755,5,0,0:0:0
96,224,246962,1,0,0:0:0
104,96,247169,2,0,P|224:128,1,119.000002269745
104,96,247583,1,0,0:0:0
296,304,247997,5,0,0:0:0
360,232,248203,1,0,0:0:0
264,176,248410,2,0,P|280:112|296:104|312:88|328:80|352:80|408:80,2,178.500003404617
264,216,249238,2,0,P|240:280|224:296|192:304|160:304|128:296|104:272,2,178.500003404617
240,160,250065,6,0,P|176:152|160:144|144:120|144:96|144:72|152:56|168:32,2,178.500003404617
240,160,250893,1,2,0:0:0
400,304,251307,1,2,0:0:0
80,304,251721,1,2,0:0:0
256,192,251927,12,2,253376,0:0:0
96,48,253789,6,0,P|80:104|88:128|96:144|112:160|168:184,1,119.000002269745
168,192,254203,2,0,P|208:240|208:248|208:264|216:312,1,119.000002269745
304,304,254617,2,0,P|304:240|320:208|336:192|352:168|368:160|408:144|448:136,1,238.00000453949,0|4,0:0|0:0,0:0:0
336,56,255445,2,0,P|288:128|256:144|216:144|160:152|96:128,1,238.00000453949
128,40,256272,2,0,P|200:56|216:80|232:104|240:128|264:224,1,238.00000453949
216,312,257100,6,0,P|152:304|136:288|120:240,1,119.000002269745
320,96,257513,2,0,P|368:144|368:160|360:224,1,119.000002269745
160,168,257927,2,0,P|128:112|136:88|160:72|192:56|208:48,1,119.000002269745
336,272,258341,2,0,P|312:336|280:352|248:352|216:352|176:336|136:304|112:272|112:256,1,238.00000453949
160,168,259169,2,0,P|192:88|216:80|240:72|264:72|288:80|320:88|376:128,1,238.00000453949
336,272,259996,2,0,P|312:336|280:352|248:352|216:352|176:336|136:304|112:272|112:256,1,238.00000453949
160,168,260824,2,0,P|192:88|216:80|240:72|264:72|288:80|320:88|376:128,2,238.00000453949,0|0|2,0:0|0:0|0:0,0:0:0
104,264,262065,1,0,0:0:0
104,264,262479,1,0,0:0:0
104,264,262893,1,0,0:0:0
256,176,263306,5,0,0:0:0
400,64,264134,1,0,0:0:0
232,296,264962,6,2,P|168:288|152:280|144:264|128:224,1,119.000002269745
304,48,265375,2,2,P|368:64|376:88|384:112|384:168,1,119.000002269745
80,184,265789,2,2,P|80:112|136:80,1,119.000002269745
352,256,266203,2,2,P|352:320|336:336|320:344|272:344,1,119.000002269745
256,88,266617,2,2,P|208:48|192:56|168:64|128:96,1,119.000002269745
136,256,267030,2,2,P|184:304|208:304|256:288,1,119.000002269745
320,88,267444,6,2,P|352:144|352:160|352:176|320:216,1,119.000002269745
120,192,267858,2,2,P|88:120|96:104|144:64,1,119.000002269745
360,240,268272,2,2,P|344:304|288:320,1,119.000002269745
240,56,268686,2,2,P|160:88|152:144,1,119.000002269745
176,264,269099,2,2,P|232:288|256:288|296:256,1,119.000002269745
368,136,269513,2,2,P|344:72|328:56|264:40,1,119.000002269745
120,184,269927,2,2,P|128:256|136:256|208:288,1,119.000002269745
320,80,270341,2,2,P|272:40|256:40|192:64,1,119.000002269745
232,296,270754,6,2,P|312:304|360:272,3,119.000002269745
400,160,271582,2,2,P|392:88|368:72|304:72,1,119.000002269745
104,128,271996,2,2,P|80:192|88:216|88:232|112:256,1,119.000002269745
336,264,272410,2,2,P|400:248|424:216|392:136,1,119.000002269745
256,48,272823,2,2,P|184:40|168:48|152:64|120:112,1,119.000002269745
184,280,273237,2,2,P|272:304|320:280|336:264,1,119.000002269745
352,136,273651,2,2,P|352:72|320:56|240:48,1,119.000002269745
256,184,274065,5,8,0:0:0
192,112,274272,1,2,0:0:0
304,104,274478,1,2,0:0:0
344,192,274685,1,2,0:0:0
256,184,274892,1,4,0:0:0
272,280,275099,5,2,0:0:0
176,248,275306,1,2,0:0:0
160,160,275513,1,2,0:0:0
344,192,275927,2,8,P|480:192,1,119.000002269745,8|4,0:0|0:0,0:0:0
224,192,276547,2,0,P|360:192,1,119.000002269745,0|4,0:0|0:0,0:0:0
296,312,277168,5,0,0:0:0
256,296,277375,1,0,0:0:0
216,304,277582,1,0,0:0:0
176,320,277789,1,0,0:0:0
136,320,277996,1,0,0:0:0
104,288,278202,1,0,0:0:0
104,72,279030,5,2,0:0:0
176,128,279237,1,2,0:0:0
88,176,279444,1,2,0:0:0
88,176,279651,1,2,0:0:0
320,304,280685,1,2,0:0:0
376,240,280892,1,2,0:0:0
288,224,281099,1,2,0:0:0
320,304,281306,1,2,0:0:0
320,304,282340,5,2,0:0:0
216,304,282547,1,2,0:0:0
192,216,282754,1,2,0:0:0
216,304,282961,1,2,0:0:0
96,72,283995,5,2,0:0:0
136,96,284202,1,2,0:0:0
168,128,284409,1,2,0:0:0
256,192,284616,12,2,286478,0:0:0
400,184,287306,5,2,0:0:0
360,160,287512,1,2,0:0:0
320,192,287719,1,2,0:0:0
272,168,287926,1,2,0:0:0
176,192,288133,6,0,P|200:224,1,35
240,256,288547,2,0,P|232:304,1,35
160,312,288961,2,0,P|120:280,1,35
88,240,289374,2,0,P|56:208,2,35
160,192,289995,5,0,0:0:0
112,152,290202,1,0,0:0:0
104,104,290409,1,0,0:0:0
144,64,290616,1,0,0:0:0
192,56,290823,1,0,0:0:0
248,56,291030,5,8,0:0:0
432,304,291443,1,4,0:0:0
432,304,292064,2,2,P|392:304,1,35
296,304,292478,1,2,0:0:0
264,272,292685,1,2,0:0:0
240,240,292892,1,2,0:0:0
96,56,293926,6,2,P|96:104,3,35
256,168,295374,1,2,0:0:0
224,200,295581,1,2,0:0:0
240,240,295788,1,2,0:0:0
280,248,295995,1,2,0:0:0
296,208,296202,1,2,0:0:0
200,56,297029,6,0,P|168:88,1,35
120,144,297443,2,0,P|88:176,1,35
56,224,297857,2,0,P|48:272|48:280|56:304|72:312|88:320|120:328|144:320|176:320|192:312,1,210
336,208,298891,1,2,0:0:0
176,96,299305,1,0,0:0:0
248,272,299719,1,2,0:0:0
264,80,300133,1,0,0:0:0
168,232,300547,1,2,0:0:0
344,128,300960,1,0,0:0:0
152,136,301374,1,2,0:0:0
