osu file format v14

[General]
AudioFilename: Wanted To.mp3
AudioLeadIn: 1000
PreviewTime: 136349
Countdown: 0
SampleSet: Normal
StackLeniency: 0.7
Mode: 0
LetterboxInBreaks: 0
WidescreenStoryboard: 0

[Editor]
DistanceSpacing: 1.4
BeatDivisor: 4
GridSize: 4
TimelineZoom: 2.499999

[Metadata]
Title:Wanted To
TitleUnicode:Wanted To
Artist:Infected Mushroom
ArtistUnicode:Infected Mushroom
Creator:-Bakari-
Version:Challenging
Source:
Tags:AlexaBM glitch dubstep Army of Mushrooms
BeatmapID:429887
BeatmapSetID:178720

[Difficulty]
HPDrainRate:5
CircleSize:4
OverallDifficulty:7
ApproachRate:7.7
SliderMultiplier:1.4
SliderTickRate:1

[Events]
//Background and Video events
0,0,"bg.jpg",0,0
//Break Periods
//Storyboard Layer 0 (Background)
//Storyboard Layer 1 (Fail)
//Storyboard Layer 2 (Pass)
//Storyboard Layer 3 (Foreground)
//Storyboard Sound Samples

[TimingPoints]
625,413.793103448276,4,2,0,30,1,0
27521,-100,4,1,0,30,0,0
28762,-100,4,1,1,55,0,0
54211,-100,4,1,1,55,0,0
80073,-117.647058823529,4,2,0,45,0,0
83383,-86.9565217391304,4,1,1,65,0,1
83521,-86.9565217391304,4,1,1,65,0,0
109866,-117.647058823529,4,1,1,55,0,0
136349,-100,4,1,1,55,0,0
162831,-100,4,2,0,10,0,0
165728,-100,4,1,1,55,0,0
166142,-86.9565217391304,4,1,1,55,0,1
192625,-86.9565217391304,4,1,1,55,0,0

[Colours]
Combo1 : 177,174,193
Combo2 : 166,181,153
Combo3 : 206,200,176
Combo4 : 145,121,138

[HitObjects]
156,296,625,6,0,P|200:304|280:248,1,140,2|0,0:0|0:0,0:0:0:0:
272,88,1452,2,0,P|304:100|352:92,1,70
420,68,1866,2,0,L|412:152,1,70
432,220,2280,6,0,L|352:208,1,70,2|0,0:0|0:0,0:0:0:0:
292,252,2693,1,0,0:0:0:0:
128,288,3107,2,0,L|144:128,1,140,2|0,0:0|0:0,0:0:0:0:
136,140,3935,6,0,L|292:124,1,140,2|0,0:0|0:0,0:0:0:0:
440,152,4762,2,0,P|469:214|458:282,1,140,2|0,0:0|0:0,0:0:0:0:
320,376,5590,2,0,P|290:313|301:245,1,140,2|0,0:0|0:0,0:0:0:0:
448,144,6418,1,2,0:0:0:0:
440,152,6831,1,0,0:0:0:0:
292,228,7245,6,0,P|244:240|152:224,1,140,2|0,0:0|0:0,0:0:0:0:
108,64,8073,1,2,0:0:0:0:
36,216,8487,2,0,L|24:300,1,70
96,332,8900,2,0,L|108:260,1,70,2|0,0:0|0:0,0:0:0:0:
112,180,9314,1,0,0:0:0:0:
260,256,9728,2,0,P|336:240|376:184,1,140,2|0,0:0|0:0,0:0:0:0:
208,164,10556,6,0,P|164:244|296:360,1,280,2|2,0:0|0:0,0:0:0:0:
440,312,11797,1,0,0:0:0:0:
308,204,12211,2,0,P|288:160|316:76,1,140,2|0,0:0|0:0,0:0:0:0:
408,216,13038,2,0,P|388:268|300:300,1,140,2|0,0:0|0:0,0:0:0:0:
160,236,13866,6,0,L|16:244,1,140,2|0,0:0|0:0,0:0:0:0:
148,352,14693,1,0,0:0:0:0:
311,311,15107,2,0,P|335:287|371:271,1,70
292,228,15521,6,0,P|276:176|300:88,1,140,2|0,0:0|0:0,0:0:0:0:
448,292,16762,1,0,0:0:0:0:
292,356,17176,2,0,B|256:364|228:348|228:348|196:332|156:348,1,140,2|0,0:0|0:0,0:0:0:0:
152,356,18004,1,2,0:0:0:0:
88,200,18418,1,0,0:0:0:0:
208,84,18831,5,2,0:0:0:0:
184,248,19245,1,0,0:0:0:0:
340,192,19659,2,0,P|384:184|476:220,1,140,2|0,0:0|0:0,0:0:0:0:
316,284,20487,2,0,P|268:256|252:168,1,140,2|0,0:0|0:0,0:0:0:0:
304,20,21314,2,0,P|280:32|224:32,1,70,2|0,0:0|0:0,0:0:0:0:
156,20,21728,1,0,0:0:0:0:
176,100,21935,1,0,0:0:0:0:
148,180,22142,6,0,P|128:208|92:224,1,70,2|0,0:0|0:0,0:0:0:0:
20,188,22556,1,0,0:0:0:0:
124,320,22969,2,0,L|276:308,1,140,2|0,0:0|0:0,0:0:0:0:
424,356,23797,6,0,P|412:304|440:212,1,140,2|0,0:0|0:0,0:0:0:0:
504,68,24625,2,0,P|460:80|364:48,1,140,2|0,0:0|0:0,0:0:0:0:
256,192,25452,12,0,27107,3:0:0:0:
96,132,27521,6,0,L|36:136,2,46.6666666666667,2|0|0,0:0|0:0|0:0,0:0:0:0:
148,216,27935,2,0,L|92:208,2,46.6666666666667,0|0|0,0:0|0:0|0:0,0:0:0:0:
204,160,28349,2,0,L|212:64,1,93.3333333333333
304,80,28762,6,0,L|316:236,1,140,6|0,0:0|0:0,0:0:0:0:
404,296,29383,1,0,0:0:0:0:
252,352,29590,2,0,L|172:348,1,70,8|0,0:0|0:0,0:0:0:0:
88,116,30418,6,0,B|120:104|120:104|144:112|144:112|168:104|168:104|192:112|192:112|216:104|216:104|244:112|244:112|272:104|272:104|300:112|300:112|328:104,1,245,2|2,0:0|0:0,0:0:0:0:
360,84,31245,2,0,L|368:160,1,70,8|0,0:0|0:0,0:0:0:0:
440,200,31659,2,0,L|452:128,1,70
352,224,32073,6,0,P|376:268|472:284,2,140,2|0|8,0:0|0:0|0:0,0:0:0:0:
272,76,33314,2,0,L|264:156,1,70
168,220,33728,2,0,L|144:108,2,105,2|2|2,0:0|0:0|0:0,0:0:0:0:
136,348,34556,1,8,0:0:0:0:
136,348,35383,6,0,P|184:328|352:336,1,210,2|0,0:0|0:0,0:0:0:0:
468,376,36211,2,0,L|456:292,1,70,8|0,0:0|0:0,0:0:0:0:
420,232,36625,2,0,L|424:200,5,23.3333333333333
436,184,37038,6,0,L|220:196,1,210,2|2,0:0|0:0,0:0:0:0:
164,140,37866,2,0,L|176:68,1,70,8|2,0:0|0:0,0:0:0:0:
116,12,38280,1,0,0:0:0:0:
56,72,38487,2,0,L|12:64,2,23.3333333333333,0|0|0,0:0|0:0|0:0,0:0:0:0:
44,96,38693,6,0,L|56:244,1,140,2|0,0:0|0:0,0:0:0:0:
40,248,39521,2,0,L|188:256,1,140,8|0,0:0|0:0,0:0:0:0:
340,200,40349,2,0,L|324:92,2,105,2|2|2,0:0|0:0|0:0,0:0:0:0:
376,276,41176,2,0,L|424:228,1,52.5,8|0,0:0|0:0,0:0:0:0:
508,256,41590,2,0,L|468:308,1,52.5
396,360,42004,6,0,P|356:360|292:276,1,140,6|0,0:0|0:0,0:0:0:0:
300,124,42831,2,0,P|264:136|220:124,1,70,8|0,0:0|0:0,0:0:0:0:
196,56,43245,1,0,0:0:0:0:
200,64,43659,6,0,L|192:220,1,140,2|2,0:0|0:0,0:0:0:0:
140,268,44280,1,0,0:0:0:0:
104,192,44487,1,8,0:0:0:0:
340,104,44900,2,0,L|328:56,1,35
376,64,45107,2,0,L|380:20,1,35
414,59,45314,6,0,L|390:275,1,210,2|0,0:0|0:0,0:0:0:0:
312,312,46142,1,8,0:0:0:0:
144,324,46556,2,0,L|64:336,1,70
32,260,46969,6,0,L|60:148,2,105,2|2|2,0:0|0:0|0:0,0:0:0:0:
152,372,47797,2,0,L|144:308,1,46.6666666666667
148,268,48073,2,0,L|164:212,1,46.6666666666667,0|0,0:0|0:0,0:0:0:0:
196,180,48349,2,0,L|192:120,1,46.6666666666667
284,176,48625,6,0,P|368:200|372:312,1,210,2|0,0:0|0:0,0:0:0:0:
304,260,49452,1,8,0:0:0:0:
384,104,49866,2,2,P|388:72|380:32,1,70,0|0,0:0|0:0,0:0:0:0:
304,68,50280,5,2,0:0:0:0:
200,200,50693,2,0,P|160:216|80:188,1,105,0|2,0:0|0:0,0:0:0:0:
72,172,51107,2,0,L|80:344,1,140,8|0,0:0|0:0,0:0:0:0:
156,348,51728,2,0,L|154:324,2,23.3333333333333,0|0|0,0:0|0:0|0:0,0:0:0:0:
180,336,51935,6,0,L|320:356,1,140,2|0,0:0|0:0,0:0:0:0:
468,212,52762,2,0,L|456:60,1,140,8|0,0:0|0:0,0:0:0:0:
300,136,53590,2,0,L|288:288,1,140,2|0,0:0|0:0,0:0:0:0:
224,328,54211,5,2,0:0:0:0:
152,284,54418,1,0,0:0:0:0:
88,128,54831,1,2,0:0:0:0:
256,132,55245,6,0,P|304:184|320:264,1,140,6|0,0:0|0:0,0:0:0:0:
192,360,56073,1,8,0:0:0:0:
124,312,56280,1,0,0:0:0:0:
88,236,56487,2,0,P|88:200|104:168,1,70
180,140,56900,6,0,L|324:156,1,140,2|0,0:0|0:0,0:0:0:0:
400,128,57521,2,0,L|412:92,1,35,2|2,0:0|0:0,0:0:0:0:
420,136,57728,2,0,L|428:276,1,140,8|0,0:0|0:0,0:0:0:0:
360,324,58349,1,0,0:0:0:0:
192,268,58556,6,0,L|112:276,1,70,2|0,0:0|0:0,0:0:0:0:
56,224,58969,1,0,0:0:0:0:
236,72,59383,2,0,L|380:84,1,140,8|0,0:0|0:0,0:0:0:0:
448,40,60004,1,0,0:0:0:0:
432,172,60211,6,0,L|440:276,1,105,2|2,0:0|0:0,0:0:0:0:
468,308,60625,2,0,L|388:304,1,70,2|2,0:0|0:0,0:0:0:0:
285,352,61038,1,8,0:0:0:0:
220,292,61245,1,0,0:0:0:0:
144,260,61452,1,0,0:0:0:0:
60,256,61659,1,0,0:0:0:0:
76,176,61866,6,0,P|80:140|64:96,1,70,2|0,0:0|0:0,0:0:0:0:
152,128,62280,2,0,P|168:96|160:52,1,70
240,100,62693,2,0,P|264:80|276:36,1,70,8|0,0:0|0:0,0:0:0:0:
336,180,63107,5,2,0:0:0:0:
308,260,63314,1,0,0:0:0:0:
276,336,63521,1,0,0:0:0:0:
224,268,63728,2,0,L|152:272,1,70
114,195,64142,2,0,L|74:191,2,23.3333333333333,2|2|2,0:0|0:0|0:0,0:0:0:0:
135,174,64349,6,0,L|125:89,1,70,8|2,0:0|0:0,0:0:0:0:
174,35,64762,1,0,0:0:0:0:
252,64,64969,1,0,0:0:0:0:
403,40,65176,2,0,L|398:121,1,70,2|0,0:0|0:0,0:0:0:0:
365,187,65590,1,0,0:0:0:0:
365,187,66004,2,0,L|451:182,2,70,8|0|0,0:0|0:0|0:0,0:0:0:0:
222,250,66831,6,0,L|209:130,2,105,0|2|2,0:0|0:0|0:0,0:0:0:0:
177,321,67659,2,0,P|144:334|57:286,1,140,8|0,0:0|0:0,0:0:0:0:
133,249,68280,1,0,0:0:0:0:
269,319,68487,6,0,B|342:314|342:314|410:335,1,140,2|0,0:0|0:0,0:0:0:0:
482,368,69107,1,0,0:0:0:0:
419,243,69314,2,0,L|416:158,1,70,8|0,0:0|0:0,0:0:0:0:
326,84,69728,1,2,0:0:0:0:
312,166,69935,1,0,0:0:0:0:
337,246,70142,5,2,0:0:0:0:
254,230,70349,1,0,0:0:0:0:
172,211,70556,1,0,0:0:0:0:
89,195,70762,1,2,0:0:0:0:
117,273,70969,2,0,L|125:350,1,70,8|0,0:0|0:0,0:0:0:0:
206,360,71383,2,0,L|199:288,1,70
254,230,71797,6,0,L|267:84,1,140,2|0,0:0|0:0,0:0:0:0:
334,41,72418,1,0,0:0:0:0:
382,166,72625,2,0,L|386:249,1,70,8|0,0:0|0:0,0:0:0:0:
458,277,73038,2,0,L|468:190,1,70
452,124,73452,5,2,0:0:0:0:
369,106,73659,2,0,L|322:100,1,35,2|2,0:0|0:0,0:0:0:0:
294,116,73866,2,0,L|217:125,1,70,0|2,0:0|0:0,0:0:0:0:
98,84,74280,2,0,B|110:121|110:121|104:149|104:149|113:177|113:177|120:211|114:238,1,140,8|0,0:0|0:0,0:0:0:0:
72,292,74900,1,0,0:0:0:0:
136,348,75107,6,0,L|128:400,2,35,2|0|0,0:0|0:0|0:0,0:0:0:0:
196,288,75521,2,0,L|188:208,1,70
328,112,75935,2,0,L|316:196,1,70,8|0,0:0|0:0,0:0:0:0:
300,264,76349,1,0,0:0:0:0:
380,240,76556,1,0,0:0:0:0:
460,216,76762,6,0,L|456:260,3,35,2|2|2|2,0:0|0:0|0:0|0:0,0:0:0:0:
476,288,77176,2,0,L|488:336,3,35,2|2|2|2,0:0|0:0|0:0|0:0,0:0:0:0:
456,352,77590,2,0,L|368:348,1,70,8|0,0:0|0:0,0:0:0:0:
304,372,78004,1,0,0:0:0:0:
204,236,78418,6,0,P|192:188|244:112,1,140,2|0,0:0|0:0,0:0:0:0:
320,116,79038,1,0,0:0:0:0:
276,188,79245,2,0,L|116:156,1,140,8|0,0:0|0:0,0:0:0:0:
72,212,79866,1,0,0:0:0:0:
140,160,80073,5,4,0:0:0:0:
220,108,80900,1,6,0:0:0:0:
304,56,81728,2,0,P|360:48|456:184,1,238.00000453949
448,192,83383,6,0,L|276:180,1,161.000003070831,4|0,1:1|0:0,0:0:0:0:
208,252,84004,1,0,0:0:0:0:
104,116,84211,2,0,L|96:20,1,80.5000015354157,8|0,0:0|0:0,0:0:0:0:
196,76,84625,2,0,L|184:164,1,80.5000015354157
124,240,85038,6,0,P|136:300|232:332,1,161.000003070831,4|0,3:0|0:0,0:0:0:0:
312,280,85659,1,2,0:0:0:0:
152,152,85866,2,0,P|108:148|68:320,1,241.500004606247,8|0,0:0|0:0,0:0:0:0:
148,320,86693,6,0,L|472:280,1,322.000006141663,4|8,3:0|0:0,0:0:0:0:
312,140,87935,2,0,L|320:44,1,80.5000015354157
312,224,88349,6,0,P|272:216|228:152,2,120.750002303124,4|2|2,3:0|0:0|0:0,0:0:0:0:
404,172,89176,2,0,L|384:344,1,161.000003070831,8|0,0:0|0:0,0:0:0:0:
184,272,90004,6,0,L|172:184,1,80.5000015354157,4|0,3:0|0:0,0:0:0:0:
112,104,90418,2,0,L|124:20,1,80.5000015354157
8,120,90831,2,0,L|36:288,1,161.000003070831,8|0,0:0|0:0,0:0:0:0:
0,380,91452,1,0,0:0:0:0:
100,348,91659,6,0,P|140:344|184:348,1,80.5000015354157,4|0,3:0|0:0,0:0:0:0:
284,360,92073,2,0,P|316:364|364:356,1,80.5000015354157,0|2,0:0|0:0,0:0:0:0:
464,240,92487,2,0,L|444:68,1,161.000003070831,8|0,0:0|0:0,0:0:0:0:
360,16,93107,1,0,0:0:0:0:
296,100,93314,6,0,P|256:120|147:67,1,161.000003070831,4|0,3:0|0:0,0:0:0:0:
236,16,93935,1,0,0:0:0:0:
236,16,94142,1,12,3:0:0:0:
268,224,94556,1,0,0:0:0:0:
100,352,94969,6,0,L|-20:344,2,120.750002303124,4|2|2,3:0|0:0|0:0,0:0:0:0:
224,288,95797,2,0,L|312:292,1,80.5000015354157,8|0,0:0|0:0,0:0:0:0:
400,252,96211,2,0,P|416:220|416:168,1,80.5000015354157
332,44,96625,6,0,P|296:108|316:204,1,161.000003070831,4|2,3:0|0:0,0:0:0:0:
400,252,97245,1,0,0:0:0:0:
236,320,97452,2,0,L|152:344,1,80.5000015354157,8|0,0:0|0:0,0:0:0:0:
144,236,97866,2,0,L|64:224,1,80.5000015354157
128,140,98280,6,0,L|300:128,1,161.000003070831,4|0,3:0|0:0,0:0:0:0:
372,64,98900,1,2,0:0:0:0:
272,220,99107,2,0,L|280:308,1,80.5000015354157,8|0,0:0|0:0,0:0:0:0:
208,380,99521,1,0,0:0:0:0:
364,240,99935,6,0,L|352:64,1,161.000003070831,4|0,3:0|0:0,0:0:0:0:
360,72,100762,1,8,0:0:0:0:
188,192,101176,2,0,P|136:184|80:80,2,161.000003070831,2|0|0,0:0|0:0|0:0,0:0:0:0:
272,144,102211,1,0,0:0:0:0:
360,104,102418,2,0,B|355:114|355:114|360:132|360:132|352:148|352:148|356:168|356:168|348:184|348:184|352:208|352:208|344:228,2,120.750002303124,8|0|0,0:0|0:0|0:0,0:0:0:0:
288,296,103245,6,0,L|448:310,1,161.000003070831,4|0,3:0|0:0,0:0:0:0:
496,216,103866,1,0,0:0:0:0:
344,108,104073,2,0,L|352:28,1,80.5000015354157,8|0,0:0|0:0,0:0:0:0:
260,76,104487,2,0,L|272:172,1,80.5000015354157
328,236,104900,6,0,L|160:224,1,161.000003070831,4|0,3:0|0:0,0:0:0:0:
92,288,105521,1,2,0:0:0:0:
20,144,105728,2,0,L|32:64,1,80.5000015354157,8|0,0:0|0:0,0:0:0:0:
153,140,106142,2,0,L|163:227,1,80.5000015354157
224,82,106556,6,0,L|394:100,1,161.000003070831,4|0,3:0|0:0,0:0:0:0:
392,96,107383,2,0,L|402:269,1,161.000003070831,4|0,3:0|0:0,0:0:0:0:
238,361,108211,2,0,P|203:364|134:309,2,120.750002303124,4|2|2,3:0|0:0|0:0,0:0:0:0:
217,266,109038,2,0,L|210:161,1,80.5000015354157,8|0,0:0|0:0,0:0:0:0:
292,131,109452,2,0,L|297:213,1,80.5000015354157
432,293,109866,6,0,P|468:264|480:188,2,119.000002269745,4|0|8,3:0|0:0|0:0,3:0:0:0:
424,288,111521,2,0,B|304:280|304:280|248:332,1,178.500003404617,2|2,0:0|0:0,0:0:0:0:
328,360,112349,1,8,0:0:0:0:
88,96,113176,6,0,B|208:104|208:104|304:16,1,238.00000453949,2|8,0:0|0:0,0:0:0:0:
448,40,114418,1,0,0:0:0:0:
344,156,114831,2,0,P|336:200|352:256,1,89.2500017023087,2|2,0:0|0:0,0:0:0:0:
372,272,115245,2,0,L|360:344,1,59.5000011348725,0|2,0:0|0:0,0:0:0:0:
296,368,115659,1,8,0:0:0:0:
168,280,116073,2,0,P|136:272|72:280,1,89.2500017023087
48,300,116487,6,0,L|64:160,1,119.000002269745,2|0,0:0|0:0,0:0:0:0:
24,32,117314,1,8,0:0:0:0:
280,204,118142,2,0,B|396:188|396:188|436:88,1,208.250003972054,2|2,0:0|0:0,0:0:0:0:
444,68,118969,1,8,0:0:0:0:
152,172,119797,5,2,0:0:0:0:
272,272,120211,2,0,P|304:276|360:244,1,89.2500017023087,0|2,0:0|0:0,0:0:0:0:
368,216,120625,2,0,L|368:148,1,59.5000011348725,8|0,0:0|0:0,0:0:0:0:
468,56,121245,1,0,0:0:0:0:
508,116,121452,2,0,L|508:240,2,119.000002269745,2|0|8,0:0|0:0|0:0,0:0:0:0:
204,68,123107,6,0,P|164:88|176:204,1,178.500003404617,6|0,0:0|0:0,0:0:0:0:
252,220,123935,2,0,L|320:208,2,59.5000011348725,8|0|0,0:0|0:0|0:0,0:0:0:0:
124,304,124762,6,0,L|56:316,1,59.5000011348725,2|0,0:0|0:0,0:0:0:0:
204,316,125176,2,0,B|208:292|188:260|188:260|168:228|180:200,2,119.000002269745,0|8|0,0:0|0:0|0:0,0:0:0:0:
296,192,126418,6,0,L|312:56,2,119.000002269745,2|0|8,0:0|0:0|0:0,0:0:0:0:
356,336,127659,1,0,0:0:0:0:
204,312,128073,2,0,P|160:316|112:344,2,89.2500017023087,2|2|2,0:0|0:0|0:0,0:0:0:0:
268,352,128900,1,8,0:0:0:0:
272,356,129728,6,0,P|328:364|384:316,2,119.000002269745,2|0|8,0:0|0:0|0:0,0:0:0:0:
216,224,130969,2,0,L|228:192,5,19.8333337116242
212,184,131383,2,0,L|72:176,1,119.000002269745,2|0,0:0|0:0,0:0:0:0:
24,168,132004,2,0,L|26:187,3,19.8333337116242,2|2|0|8,0:0|0:0|0:0|0:0,0:0:0:0:
24,260,132418,2,0,L|16:320,1,59.5000011348725
88,312,132831,2,0,L|94:283,2,19.8333337116242
100,332,133038,6,0,L|172:336,1,59.5000011348725,2|0,0:0|0:0,0:0:0:0:
272,333,133452,1,0,0:0:0:0:
267,337,133866,2,0,L|259:213,1,119.000002269745,8|0,0:0|0:0,0:0:0:0:
320,88,134693,2,0,L|216:80,2,89.2500017023087,2|2|2,0:0|0:0|0:0,0:0:0:0:
380,44,135521,1,8,0:0:0:0:
481,192,135935,1,0,0:0:0:0:
280,252,136349,6,0,P|236:256|152:192,1,140,6|0,0:0|0:0,0:0:0:0:
324,176,137176,2,0,P|360:216|340:320,1,140,8|0,0:0|0:0,0:0:0:0:
280,336,137797,1,0,0:0:0:0:
224,276,138004,2,0,L|232:192,1,70,2|0,0:0|0:0,0:0:0:0:
132,112,138418,2,0,L|140:224,1,105,0|2,0:0|0:0,0:0:0:0:
112,248,138831,2,0,L|104:324,2,70,8|0|0,0:0|0:0|0:0,0:0:0:0:
48,92,139659,6,0,P|72:48|168:36,1,140,2|0,0:0|0:0,0:0:0:0:
280,144,140487,2,0,P|304:160|408:136,2,140,8|0|2,0:0|0:0|0:0,0:0:0:0:
216,36,141625,1,2,0:0:0:0:
188,68,141728,2,0,L|180:148,1,70,0|2,0:0|0:0,0:0:0:0:
116,188,142142,1,8,0:0:0:0:
248,288,142556,1,0,0:0:0:0:
408,236,142969,6,0,P|440:208|448:112,1,140,2|0,0:0|0:0,0:0:0:0:
348,296,143797,2,0,P|389:319|476:286,1,140,8|0,0:0|0:0,0:0:0:0:
408,236,144418,1,0,0:0:0:0:
324,220,144625,2,0,P|280:256|284:348,1,140,2|0,0:0|0:0,0:0:0:0:
352,296,145245,2,0,P|384:276|400:240,1,70,2|10,0:0|0:0,0:0:0:0:
324,220,145659,1,2,0:0:0:0:
288,144,145866,2,0,L|192:136,1,70
136,128,146280,6,0,L|156:272,1,140,2|0,0:0|0:0,0:0:0:0:
148,276,147107,2,0,L|228:284,1,70,8|0,0:0|0:0,0:0:0:0:
240,364,147521,2,0,L|156:356,1,70
88,340,147935,2,0,P|68:312|72:236,1,105,2|2,0:0|0:0,0:0:0:0:
92,208,148349,2,0,P|116:176|116:128,1,70,0|2,0:0|0:0,0:0:0:0:
56,32,148762,1,8,0:0:0:0:
208,104,149176,1,0,0:0:0:0:
364,40,149590,6,0,P|392:72|376:176,1,140,2|0,0:0|0:0,0:0:0:0:
328,228,150211,1,0,0:0:0:0:
192,184,150418,2,0,L|48:176,2,140,8|0|2,0:0|0:0|0:0,0:0:0:0:
288,44,151659,2,0,P|320:60|344:104,1,70,0|2,0:0|0:0,0:0:0:0:
328,228,152073,1,8,0:0:0:0:
192,328,152487,2,0,P|160:336|116:328,1,70
88,256,152900,6,0,P|136:236|232:260,1,140,2|0,0:0|0:0,0:0:0:0:
276,316,153521,1,0,0:0:0:0:
364,208,153728,2,0,L|356:128,1,70,8|0,0:0|0:0,0:0:0:0:
396,64,154142,1,0,0:0:0:0:
236,116,154556,6,0,P|192:112|136:72,2,105,2|2|2,0:0|0:0|0:0,0:0:0:0:
300,64,155383,1,8,0:0:0:0:
360,220,155797,1,0,0:0:0:0:
136,352,156211,2,0,P|96:340|44:252,1,140,2|0,0:0|0:0,0:0:0:0:
84,188,156831,1,0,0:0:0:0:
180,92,157038,2,0,P|184:68|172:24,1,70,8|0,0:0|0:0,0:0:0:0:
176,176,157452,2,0,P|212:172|252:148,1,70
272,80,157866,6,0,L|296:44,3,35,2|2|2|2,0:0|0:0|0:0|0:0,0:0:0:0:
324,24,158280,2,0,L|368:16,3,35,2|2|2|2,0:0|0:0|0:0|0:0,0:0:0:0:
392,44,158693,1,8,0:0:0:0:
488,180,159107,2,0,P|496:220|484:268,1,70
424,296,159521,6,0,L|272:288,1,140,2|0,0:0|0:0,0:0:0:0:
216,340,160142,1,0,0:0:0:0:
156,212,160349,2,0,L|164:140,1,70,8|0,0:0|0:0,0:0:0:0:
68,264,160762,2,0,L|76:344,1,70
256,192,161176,12,0,162418,0:0:0:0:
256,192,162831,12,0,165314,0:0:0:0:
438,86,165728,6,0,L|432:164,1,70,4|0,3:0|0:0,3:0:0:0:
352,294,166142,6,0,L|343:215,1,80.5000015354157,4|0,3:0|0:0,0:0:0:0:
314,56,166556,1,8,0:0:0:0:
232,107,166762,1,0,0:0:0:0:
156,168,166969,2,0,P|119:167|78:138,1,80.5000015354157,0|8,0:0|0:0,0:0:0:0:
164,12,167383,1,2,0:0:0:0:
256,230,167797,2,0,L|245:312,1,80.5000015354157,2|0,0:0|0:0,0:0:0:0:
324,365,168211,2,0,L|404:350,1,80.5000015354157,8|2,0:0|0:0,0:0:0:0:
467,277,168625,2,0,L|485:110,1,161.000003070831,2|8,0:0|0:0,0:0:0:0:
488,107,169452,6,0,L|317:150,1,161.000003070831,4|8,3:0|0:0,0:0:0:0:
241,111,170073,1,2,0:0:0:0:
67,346,170487,1,8,0:0:0:0:
202,313,170693,2,0,L|290:302,1,80.5000015354157,2|0,0:0|0:0,0:0:0:0:
392,357,171107,6,0,L|400:256,1,80.5000015354157,8|2,0:0|0:0,0:0:0:0:
340,92,171728,1,0,0:0:0:0:
240,64,171935,6,0,P|252:40|288:12,2,53.6666676902771
272,132,172349,5,0,0:0:0:0:
196,132,172487,1,0,0:0:0:0:
128,160,172625,1,0,0:0:0:0:
113,88,172762,6,0,L|127:7,1,80.5000015354157,4|0,3:0|0:0,0:0:0:0:
0,64,173176,2,0,L|7:158,1,80.5000015354157,8|2,0:0|0:0,0:0:0:0:
96,288,173590,2,0,L|85:374,2,80.5000015354157,0|8|0,0:0|0:0|0:0,0:0:0:0:
257,92,174418,6,0,P|307:87|387:182,1,161.000003070831,2|8,0:0|0:0,0:0:0:0:
291,187,175038,1,2,0:0:0:0:
196,171,175245,2,0,P|170:141|160:90,1,80.5000015354157,0|8,0:0|0:0,0:0:0:0:
200,14,175659,1,2,0:0:0:0:
349,137,176073,2,0,P|353:215|271:292,1,161.000003070831,4|8,3:0|0:0,0:0:0:0:
208,262,176693,1,2,0:0:0:0:
118,298,176900,2,0,P|111:270|121:221,1,80.5000015354157,0|8,0:0|0:0,0:0:0:0:
204,169,177314,1,2,0:0:0:0:
350,295,177728,6,0,P|334:339|306:362,1,80.5000015354157,8|2,0:0|0:0,0:0:0:0:
262,274,178142,2,0,P|281:236|318:217,1,80.5000015354157,0|8,0:0|0:0,0:0:0:0:
458,265,178556,2,0,L|442:95,1,161.000003070831,2|2,0:0|0:0,0:0:0:0:
448,99,179383,6,0,L|364:94,1,80.5000015354157,4|0,3:0|0:0,0:0:0:0:
305,169,179797,2,0,L|221:180,1,80.5000015354157,8|0,0:0|0:0,0:0:0:0:
151,242,180211,1,2,0:0:0:0:
102,56,180418,1,8,0:0:0:0:
79,149,180625,2,0,L|-5:142,1,80.5000015354157
151,242,181038,6,0,L|323:229,1,161.000003070831,2|8,0:0|0:0,0:0:0:0:
384,296,181659,1,2,0:0:0:0:
404,200,181866,1,0,0:0:0:0:
420,104,182073,1,8,0:0:0:0:
328,140,182280,1,0,0:0:0:0:
136,45,182693,6,0,L|148:209,1,161.000003070831,4|8,3:0|0:0,0:0:0:0:
109,294,183314,2,0,P|158:284|239:351,1,161.000003070831,2|8,0:0|0:0,0:0:0:0:
147,383,183935,1,2,0:0:0:0:
320,168,184349,2,0,L|323:86,1,80.5000015354157,8|2,0:0|0:0,0:0:0:0:
249,216,184762,2,0,P|280:243|332:251,1,80.5000015354157,0|8,0:0|0:0,0:0:0:0:
402,204,185176,2,0,P|411:167|370:92,2,120.750002303124,2|2|2,0:0|0:0|0:0,0:0:0:0:
271,302,186004,6,0,L|176:298,1,80.5000015354157,4|0,3:0|0:0,0:0:0:0:
102,338,186418,2,0,L|98:248,1,80.5000015354157,8|2,0:0|0:0,0:0:0:0:
165,112,186831,2,0,L|159:195,1,80.5000015354157,0|8,0:0|0:0,0:0:0:0:
237,322,187245,2,0,L|233:237,1,80.5000015354157
277,154,187659,6,0,P|305:133|425:161,1,161.000003070831,2|8,0:0|0:0,0:0:0:0:
349,222,188280,1,2,0:0:0:0:
253,239,188487,2,0,L|148:234,1,80.5000015354157,0|8,0:0|0:0,0:0:0:0:
140,326,188900,1,0,0:0:0:0:
149,320,189314,6,0,L|141:160,1,161.000003070831,4|8,3:0|0:0,0:0:0:0:
199,72,189935,1,2,0:0:0:0:
351,147,190142,2,0,L|434:151,1,80.5000015354157,0|8,0:0|0:0,0:0:0:0:
438,143,190969,6,0,L|449:310,1,161.000003070831,2|8,0:0|0:0,0:0:0:0:
373,365,191590,1,2,0:0:0:0:
241,286,191797,2,0,P|201:279|148:295,1,80.5000015354157,0|8,0:0|0:0,0:0:0:0:
115,372,192211,1,0,0:0:0:0:
256,192,192625,12,0,195521,0:0:0:0:
456,256,195935,6,0,P|485:289|486:336,1,80.5000015354157,2|0,0:0|0:0,0:0:0:0:
374,379,196349,1,8,0:0:0:0:
295,322,196556,2,0,L|210:331,1,80.5000015354157,2|0,0:0|0:0,0:0:0:0:
120,312,196969,1,8,0:0:0:0:
135,218,197176,2,0,L|130:130,1,80.5000015354157,2|0,0:0|0:0,0:0:0:0:
264,171,197590,6,0,L|288:86,2,80.5000015354157,8|2|0,0:0|0:0|0:0,0:0:0:0:
301,260,198211,1,8,0:0:0:0:
384,256,198418,6,0,P|412:232|424:196,2,53.6666676902771,0|0|0,0:0|0:0|0:0,0:0:0:0:
348,336,198831,2,0,P|360:360|384:376,2,53.6666676902771,0|0|0,0:0|0:0|0:0,0:0:0:0:
