osu file format v8

[General]
AudioFilename: Legend Of The Black Shawarma[cut].mp3
AudioLeadIn: 0
PreviewTime: 165497
Countdown: 2
SampleSet: Normal
StackLeniency: 0.7
Mode: 0
LetterboxInBreaks: 1
EpilepsyWarning: 1

[Editor]
DistanceSpacing: 0.2
BeatDivisor: 4
GridSize: 8

[Metadata]
Title:The Legend Of The Black Shawarma
Artist:Infected Mushroom
Creator:La Cataline
Version:Insane
Source:
Tags:natteke lepidopodus lepidon

[Difficulty]
HPDrainRate:7
CircleSize:4
OverallDifficulty:7
ApproachRate:8
SliderMultiplier:2.4
SliderTickRate:1

[Events]
//Background and Video events
0,0,"bg.jpg"
//Break Periods
2,39941,45612
2,59803,72095
//Storyboard Layer 0 (Background)
//Storyboard Layer 1 (Fail)
//Storyboard Layer 2 (Pass)
//Storyboard Layer 3 (Foreground)
//Storyboard Sound Samples
//Background Colour Transformations
3,100,0,0,0

[TimingPoints]
13259,413.793103448276,4,1,0,72,1,0
13465,-100,4,2,0,72,0,0
13672,-100,4,1,0,72,0,0
13879,-100,4,2,0,72,0,0
14086,-100,4,1,0,72,0,0
15121,-100,4,2,0,72,0,0
15327,-100,4,1,0,72,0,0
16879,-100,4,2,0,72,0,0
16983,-100,4,1,0,72,0,0
17190,-100,4,2,0,72,0,0
17396,-100,4,1,0,72,0,0
18534,-100,4,2,0,72,0,0
18638,-100,4,1,0,72,0,0
20190,-100,4,2,0,72,0,0
20293,-100,4,1,0,72,0,0
21327,-100,4,2,0,72,0,0
21534,-100,4,1,0,72,0,0
21741,-100,4,2,0,72,0,0
21948,-100,4,1,0,72,0,0
22362,-100,4,1,0,72,0,0
22465,-100,4,2,0,72,0,0
22569,-100,4,1,0,72,0,0
22983,-100,4,2,0,72,0,0
23190,-100,4,1,0,72,0,0
24121,-100,4,2,0,72,0,0
24224,-100,4,1,0,72,0,0
25052,-100,4,2,0,72,0,0
25259,-100,4,1,0,72,0,0
26707,-100,4,2,0,72,0,0
26914,-100,4,1,0,72,0,0
27121,-100,4,2,0,72,0,0
27327,-100,4,1,0,72,0,0
27948,-100,4,2,0,72,0,0
28155,-100,4,1,0,72,0,0
28362,-100,4,2,0,72,0,0
28569,-100,4,1,0,72,0,0
30017,-100,4,2,0,72,0,0
30224,-100,4,1,0,72,0,0
30431,-100,4,2,0,72,0,0
30638,-100,4,1,0,72,0,0
31155,-100,4,2,0,72,0,0
31465,-100,4,1,0,72,0,0
34155,-100,4,2,0,72,0,0
34362,-100,4,1,0,72,0,0
34569,-100,4,2,0,72,0,0
34776,-100,4,1,0,72,0,0
34983,-100,4,2,0,72,0,0
35190,-100,4,1,0,72,0,0
35810,-100,4,2,0,72,0,0
36017,-100,4,1,0,72,0,0
36224,-100,4,2,0,72,0,0
36431,-100,4,1,0,72,0,0
37879,-100,4,2,0,72,0,0
58095,-100,4,1,0,100,0,0
59543,-100,4,1,0,72,0,0
72845,-100,4,1,0,57,0,0
72948,-100,4,2,0,57,0,0
79259,-200,4,2,0,63,0,0
79672,-100,4,2,0,62,0,0
86086,-100,4,1,0,72,0,0
86190,-100,4,2,0,72,0,0
87327,-100,4,1,0,72,0,0
87845,-100,4,2,0,72,0,0
88983,-100,4,1,0,72,0,0
89500,-100,4,2,0,72,0,0
90638,-100,4,1,0,72,0,0
90741,-100,4,2,0,72,0,0
91052,-100,4,1,0,72,0,0
91155,-100,4,2,0,72,0,0
92293,-100,4,1,0,72,0,0
92396,-100,4,2,0,72,0,0
93948,-100,4,1,0,72,0,0
94052,-100,4,2,0,72,0,0
94362,-100,4,1,0,72,0,0
94465,-100,4,2,0,72,0,0
95603,-100,4,1,0,72,0,0
95707,-100,4,2,0,72,0,0
96017,-100,4,1,0,72,0,0
96224,-100,4,2,0,72,0,0
97259,-100,4,1,0,72,0,0
97362,-100,4,2,0,72,0,0
97672,-100,4,1,0,72,0,0
97879,-100,4,2,0,72,0,0
98914,-100,4,1,0,72,0,0
99017,-100,4,2,0,72,0,0
99327,-200,4,2,0,73,0,0
125810,-100,4,2,0,72,0,0
139052,-200,4,2,0,72,0,0
145672,-100,4,1,0,72,0,0
145776,-100,4,2,0,72,0,0
146293,-100,4,1,0,72,0,0
146396,-100,4,2,0,72,0,0
146707,-100,4,1,0,72,0,0
146810,-100,4,2,0,72,0,0
147327,-100,4,1,0,72,0,0
147431,-100,4,2,0,72,0,0
147948,-100,4,1,0,72,0,0
148052,-100,4,2,0,72,0,0
148362,-100,4,1,0,72,0,0
148465,-100,4,2,0,72,0,0
148983,-100,4,1,0,72,0,0
149086,-100,4,2,0,72,0,0
149603,-100,4,1,0,72,0,0
149707,-100,4,2,0,72,0,0
150017,-100,4,1,0,72,0,0
150121,-100,4,2,0,72,0,0
150638,-100,4,1,0,72,0,0
150741,-100,4,2,0,72,0,0
151259,-100,4,1,0,72,0,0
151362,-100,4,2,0,72,0,0
151672,-100,4,1,0,72,0,0
151776,-100,4,2,0,72,0,0
152293,-100,4,1,0,72,0,0
152396,-100,4,2,0,72,0,0
152914,-100,4,1,0,72,0,0
153017,-100,4,2,0,72,0,0
153327,-100,4,1,0,72,0,0
153431,-100,4,2,0,72,0,0
153948,-100,4,1,0,72,0,0
154052,-100,4,2,0,72,0,0
154569,-100,4,1,0,72,0,0
154672,-100,4,2,0,72,0,0
154983,-100,4,1,0,72,0,0
155086,-100,4,2,0,72,0,0
155603,-100,4,1,0,72,0,0
155707,-100,4,2,0,72,0,0
156224,-100,4,1,0,72,0,0
156327,-100,4,2,0,72,0,0
156638,-100,4,1,0,72,0,0
156741,-100,4,2,0,72,0,0
157259,-100,4,1,0,72,0,0
157362,-100,4,2,0,72,0,0
157879,-100,4,1,0,72,0,0
157983,-100,4,2,0,72,0,0
158293,-100,4,1,0,72,0,0
158396,-100,4,2,0,72,0,0
165524,413.793103448276,4,1,0,72,1,1
165627,-100,4,1,0,72,0,0
178766,-100,4,1,0,72,0,1
178869,-100,4,1,0,72,0,0
192007,-100,4,1,0,72,0,1
192110,-100,4,1,0,72,0,0

[Colours]
Combo1 : 3,109,86
Combo2 : 128,255,128
Combo3 : 0,128,128
Combo4 : 0,255,128

[HitObjects]
152,200,13258,1,4
152,200,13465,2,0,B|216:72,1,120,2|2
352,176,13879,2,0,B|288:304,1,120
256,184,14293,1,8
256,88,14500,1,2
336,128,14707,1,8
256,184,14914,5,0
184,248,15121,2,0,B|248:256|296:304,1,120,2|2
368,240,15534,2,0,B|304:232|256:184,1,120
336,128,15948,2,0,B|272:120|224:72,1,120,10|0
229,77,16362,1,10
136,80,16569,6,0,B|104:168|16:224,1,180,0|2
120,240,16983,2,0,B|64:216|16:152,1,120,2|2
210,303,17396,1,0
294,218,17603,1,8
296,352,17810,1,2
380,267,18017,1,8
400,24,18224,6,0,B|392:128|272:136,1,180,0|2
208,88,18638,2,0,B|264:112|312:176,1,120,2|0
384,248,19052,1,4
296,328,19258,1,10
296,208,19465,1,4
211,292,19672,1,10
360,72,19879,6,0,B|248:72|248:200,1,180,4|2
248,185,20293,1,8
368,208,20500,2,0,B|368:320|240:320,1,180,2|0
254,319,20914,1,8
248,185,21121,1,2
248,185,21327,1,4
184,80,21534,5,0
320,128,21741,1,2
320,128,21845,1,0
320,128,21948,1,8
320,272,22155,1,2
184,240,22362,1,0
184,240,22465,1,0
184,240,22569,1,10
328,200,22776,1,2
184,160,22983,1,4
80,176,23190,6,0,B|64:64|176:24,2,180,0|0|10
224,144,24017,1,0
240,152,24121,1,0
256,160,24224,1,8
376,96,24431,2,0,B|360:224|256:320,1,240,2|4
400,320,25052,6,0,B|336:232|272:248,1,120,2|0
416,168,25465,2,0,B|328:240|184:224,1,240,2|2
256,128,26086,1,6
256,128,26293,1,2
136,96,26500,5,2
72,200,26707,1,2
72,200,26810,1,0
72,200,26914,1,10
192,200,27121,1,2
264,104,27327,2,0,B|384:168|344:328,1,240,2|8
272,216,27948,2,0,B|328:200|376:144,1,120,4|2
256,32,28362,5,2
256,32,28465,1,0
256,32,28569,1,8
256,32,28776,1,2
368,80,28983,1,2
256,112,29190,1,8
144,152,29396,1,2
256,112,29603,1,8
264,232,29810,5,2
208,328,30017,1,2
208,328,30121,1,0
208,328,30224,1,10
208,328,30431,2,0,B|272:344|336:328,2,120,2|2|0
112,240,31052,1,8
112,240,31155,1,0
112,240,31258,1,4
112,240,31362,1,0
112,240,31465,6,0,B|64:168|128:64,1,180,2|0
64,56,31879,2,0,B|122:123|208:176,1,180,8|0
232,120,32293,2,0,B|279:158|352:160,1,120,2|8
400,264,32707,2,0,B|352:225|280:224,1,120,2|8
376,136,33121,6,0,B|256:144|144:72,1,240,2|8
256,24,33741,2,0,B|272:120|208:200,1,180,2|0
213,193,34155,1,2
128,272,34362,1,8
232,336,34569,1,4
336,280,34776,5,2
400,176,34983,1,2
400,176,35086,1,0
400,176,35190,1,8
280,176,35396,1,2
280,176,35500,1,0
224,72,35707,1,0
224,72,35810,1,2
320,136,36017,1,10
216,200,36224,1,2
256,64,36431,6,0,B|200:168|40:168,1,240,2|8
56,48,37052,2,0,B|120:120|96:224,1,180,2|0
16,192,37465,2,0,B|80:208|96:272,2,120,8|0|4
256,192,38086,12,4,39741
136,80,46362,6,0,B|256:104|376:80,1,240,0|0
312,184,46983,2,0,B|256:176|192:184,1,120,8|2
80,184,47396,1,0
67,196,47500,1,8
54,208,47603,1,2
88,320,47810,2,0,B|152:304|184:240,1,120,8|2
240,88,48224,2,0,B|176:104|144:168,1,120,0|2
216,336,48638,2,0,B|280:320|312:256,1,120,8|2
368,104,49052,2,0,B|304:120|272:184,1,120,0|4
216,208,49465,1,0
216,208,49672,6,0,B|288:312|432:336,1,240,4|0
336,240,50293,2,0,B|272:216|240:160,1,120,8|2
256,48,50707,1,0
243,60,50810,1,8
230,72,50914,1,2
256,192,51121,1,8
256,192,51327,6,0,B|184:88|40:64,1,240,2|0
136,160,51948,2,0,B|200:184|232:240,1,120,8|2
256,352,52362,1,0
256,352,52465,1,4
256,32,52672,1,0
256,32,52776,1,4
176,120,52983,6,0,B|232:160|296:160,1,120,4|2
168,224,53396,2,2,B|224:264|288:264,1,120,0|2
408,160,53810,5,0
368,288,54017,1,2
464,248,54224,1,0
336,208,54431,1,0
336,208,54638,6,0,B|280:168|216:168,1,120,0|2
152,56,55052,2,2,B|208:96|272:96,1,120,0|2
88,200,55465,5,0
216,280,55672,1,2
144,144,55879,1,0
160,336,56086,1,0
240,152,56293,5,0
64,312,56500,1,2
232,352,56707,1,0
72,120,56914,1,2
152,240,57121,5,0
352,240,57327,1,2
352,240,57431,1,4
256,72,57638,1,4
256,72,57741,1,2
256,256,57948,5,0
256,192,58155,12,4,59603
144,48,72845,6,0,B|40:48|40:200|152:200,1,240,0|2
238,199,73465,1,0
334,199,73672,2,0,B|438:199|438:351|326:351,1,240,0|10
104,216,74500,5,0
104,216,74707,1,0
104,216,75121,2,0,B|168:216|224:168,1,120,0|0
344,216,75534,2,0,B|280:216|224:264,1,120,0|10
136,168,75948,2,0,B|272:200|296:344,1,240,0|2
256,64,76776,1,2
256,64,76983,1,10
256,328,77396,1,10
128,80,77810,5,2
376,80,78224,1,2
128,208,78638,5,10
256,224,78845,1,0
376,216,79052,1,10
312,288,79259,2,0,B|256:304|192:288,1,120,0|2
120,280,80293,6,0,B|40:168|120:56,1,240,8|10
392,56,80914,2,0,B|472:168|392:280,1,240,0|2
256,72,81741,1,2
256,72,81948,1,10
256,336,82362,1,10
128,168,82776,5,0
128,168,82983,1,2
384,168,83396,1,2
384,168,83603,1,10
312,272,83810,2,0,B|278:215|187:215,1,120,0|10
176,88,84224,2,0,B|210:145|300:145,1,120,0|2
248,272,84638,2,0,B|282:215|373:215,1,120,2|0
216,184,85052,2,0,B|182:241|92:241,1,120,2|10
115,239,85672,1,10
80,96,86086,5,4
80,96,86293,2,0,B|88:240|256:240,1,240,2|2
184,96,86914,2,0,B|176:240|8:240,1,240,2|10
432,80,87741,5,0
432,80,87948,2,0,B|424:224|256:224,1,240,2|2
432,272,88569,2,0,B|424:128|256:128,1,240,2|10
48,80,89396,6,0,B|80:192|192:192,1,180,0|0
184,128,89810,2,0,B|144:176|128:240,1,120,0|10
32,320,90224,2,0,B|77:263|128:235,1,120,0|10
208,336,90638,2,0,B|151:290|123:239,1,120,10|8
344,32,91052,6,0,B|392:112|368:224,1,180,0|0
304,168,91465,2,0,B|400:136|448:24,1,180,2|0
496,88,91879,2,0,B|432:200|304:248,1,240,2|10
256,96,92500,6,0,B|136:152|152:312,2,240,0|2|2
304,168,93534,1,2
256,96,93741,1,0
352,96,93948,1,10
256,96,94155,1,0
40,208,94362,6,0,B|40:256|112:264|112:312,1,120,0|2
240,336,94776,2,0,B|240:288|168:280|168:232,1,120,0|2
128,56,95190,2,0,B|128:159|280:127|280:247,1,240,2|10
224,312,95810,5,0
206,312,95914,1,0
188,312,96017,1,0
160,184,96224,2,0,B|232:160|240:72,1,120,2|0
368,88,96638,2,0,B|296:112|288:200,1,120,2|2
256,304,97052,5,0
256,304,97259,2,0,C|136:288|48:192,1,240,10|0
184,224,97879,2,0,C|304:240|392:336,1,240,2|2
383,326,98500,1,2
383,326,98914,1,10
320,208,99327,6,0,B|328:56|144:56,1,240,4|2
126,103,100362,1,0
172,149,100569,1,2
125,195,100776,2,0,B|117:347|301:347,1,240
319,300,101810,1,2
273,254,102017,1,0
273,254,102431,6,0,B|344:128,1,120
360,88,103052,1,0
313,41,103259,1,0
266,87,103465,1,2
219,40,103672,1,2
172,86,103879,1,0
125,39,104086,1,0
78,85,104293,6,0,B|78:173|158:173,1,120
208,184,104914,2,0,B|208:224,2,30,0|0|2
274,184,105327,1,2
320,230,105534,1,0
368,280,105741,2,0,B|368:360|288:360,1,120
120,336,106776,5,2
80,272,106983,1,2
40,208,107190,1,0
152,232,107396,1,0
192,128,107603,2,0,B|264:144|264:232,1,120,4|0
464,181,108431,5,2
448,255,108638,1,2
431,328,108845,1,0
368,232,109052,1,0
280,280,109259,2,0,B|240:217|302:155,1,120,4|0
256,120,110293,5,2
184,232,110707,1,2
184,232,110914,1,0
320,232,111327,1,2
384,120,111741,2,0,B|448:88,1,60,2|2
384,56,112155,2,0,B|448:16,1,60,0|0
256,40,112776,6,0,B|152:40|152:160,1,180,0|2
208,192,113603,1,2
264,224,113810,1,0
320,264,114017,2,0,B|320:368|200:368,1,180
160,104,115052,2,0,B|256:88|352:104,2,180,2|0|0
120,160,116500,1,0
56,200,116707,1,2
88,264,116914,1,2
88,336,117121,1,0
160,344,117327,1,0
224,320,117534,6,0,B|256:296|288:280,2,60,0|0|0
192,256,118155,2,0,C|176:216,2,30,0|0|2
264,240,118569,2,0,B|352:200|440:248,1,180,2|0
80,168,119810,6,0,B|48:104,1,60,0|2
120,136,120224,2,0,B|104:72,1,60,2|0
168,56,120638,2,0,B|256:16|360:64,1,180
342,56,121465,1,0
408,104,121672,1,2
400,184,121879,1,2
336,224,122086,1,0
264,184,122293,1,0
328,136,122500,1,4
256,88,125810,5,4
128,264,126224,1,0
120,112,126638,1,0
280,240,127052,1,10
93,53,127465,5,2
200,296,127879,1,0
56,184,128293,1,0
56,184,128396,1,0
56,184,128500,1,2
256,96,128707,1,10
256,296,129121,5,2
384,120,129534,1,0
392,272,129948,1,0
232,144,130362,1,10
419,331,130776,5,2
312,88,131190,1,0
456,200,131603,1,0
456,200,131707,1,0
456,200,131810,1,2
256,288,132017,1,10
256,32,132431,5,6
64,216,132845,1,0
64,216,133052,2,0,C|184:56,1,180
256,40,133465,2,0,C|184:144,1,120,2|10
64,304,133879,2,0,C|136:200,1,120,0|2
184,264,134293,5,0
328,256,134500,1,0
248,184,134707,1,0
264,336,134914,1,0
256,264,135121,1,2
256,264,135327,1,10
464,288,135741,6,0,B|464:176|384:104,1,180,2|0
336,136,136155,1,0
336,136,136362,2,0,B|256:64|168:136,1,180
104,96,136776,2,0,B|160:-8|360:-8|416:112,1,360,2|2
416,336,137603,6,0,B|336:336|336:240,1,120,0|2
256,160,138017,2,0,B|336:160|336:256,1,120,0|2
224,160,138431,2,0,B|144:160|144:64,1,120,0|2
400,160,139052,5,2
298,58,139465,1,8
298,201,139672,1,0
298,201,139776,1,0
196,99,139983,1,0
184,111,140086,2,0,B|152:119|112:159,2,60,0|8|0
184,207,140707,5,2
319,342,141121,1,8
126,342,141327,1,0
126,342,141431,1,0
295,172,141638,1,0
312,168,141741,2,0,B|344:160|384:120,2,60,0|8|0
416,192,142362,5,2
96,192,142776,1,8
256,304,142983,1,0
256,304,143086,1,0
256,80,143293,1,0
240,88,143396,2,0,B|208:96|168:136,2,60,0|8|0
256,192,144017,12,0,145465
360,80,145672,5,4
360,80,145879,2,0,B|464:160,1,120,2|0
320,224,146293,1,0
320,224,146500,2,0,B|432:312,1,120,2|0
256,312,146914,1,8
256,312,147017,1,0
256,312,147121,1,0
152,304,147327,5,0
152,304,147534,2,0,B|64:208,1,120,2|0
176,184,147948,1,0
176,184,148155,2,0,B|88:88,1,120,2|0
256,72,148569,1,8
256,72,148672,1,0
256,72,148776,1,0
352,112,148983,6,0,B|480:128,1,120,0|2
352,192,149396,2,0,B|488:232,1,120,2|0
336,264,149810,2,0,B|448:344,1,120,2|0
208,296,150224,1,8
184,288,150327,1,0
160,280,150431,1,0
136,272,150534,1,0
112,264,150638,6,0,B|48:128,1,120,0|2
192,216,151052,2,0,B|184:80,1,120,2|0
288,192,151465,2,0,B|328:64,1,120,2|0
416,160,151879,1,8
432,192,151983,1,0
448,224,152086,1,0
464,256,152190,1,0
480,288,152293,6,0,B|424:368|304:336,1,180,0|2
192,212,152914,1,0
107,127,153121,1,2
224,96,153327,2,0,B|272:152|344:168,2,120,0|8|0
19,168,153948,5,0
107,224,154155,1,2
195,168,154362,1,0
107,128,154569,1,0
19,80,154776,1,2
107,128,154983,1,0
195,80,155190,1,8
107,24,155396,1,0
256,280,155603,6,0,B|264:208|208:160,1,120,0|2
264,48,156017,2,0,B|256:120|312:168,1,120,2|0
232,280,156431,2,0,B|240:208|184:160,1,120,2|0
296,48,156845,2,0,B|288:120|344:168,1,120,8|2
249,197,157259,5,0
243,202,157362,1,0
237,207,157465,1,2
231,212,157569,1,0
225,217,157672,2,0,B|170:263,3,60,2|0|0|0
170,263,158086,1,2
164,269,158190,1,0
157,274,158293,1,0
151,279,158396,1,0
145,284,158500,2,0,B|94:324,3,60,2|0|2|0
256,192,158914,12,0,163879
120,64,165524,6,0,B|144:160|200:232,1,180,4|0
195,226,165937,1,8
253,284,166144,1,2
313,225,166351,1,0
254,166,166558,1,8
312,224,166765,2,0,B|354:268|427:292,1,120,2|8
448,208,167179,6,0,B|384:128|400:32,1,180
398,40,167592,1,8
320,64,167799,1,2
240,56,168006,1,0
168,96,168213,1,8
88,88,168420,1,2
88,88,168627,6,0,B|48:208,1,120,8|0
112,288,169041,1,0
112,288,169248,2,0,B|160:152,1,120,8|2
248,152,169661,1,0
248,152,169868,2,0,B|216:280,1,120,8|2
304,328,170282,6,0,B|360:304|400:248,1,120,8|0
208,56,170696,2,0,B|152:80|112:136,1,120,0|8
144,280,171110,2,0,B|216:256|248:192,1,120,2|0
368,104,171523,2,0,B|296:128|264:192,1,120,8|2
144,296,171937,1,8
144,296,172041,1,0
144,296,172144,6,0,B|192:192|120:104,1,180
136,125,172558,1,8
56,128,172765,1,2
136,125,172972,1,0
136,125,173075,1,0
136,125,173179,1,8
200,72,173386,1,2
280,80,173592,1,8
280,80,173696,1,0
280,80,173799,6,0,B|344:104|400:64,1,120
480,160,174213,2,0,B|416:136|360:176,1,120,8|2
248,168,174627,2,0,B|192:208,2,60,0|0|8
232,336,175041,1,2
216,328,175144,1,0
200,320,175248,1,8
184,312,175351,1,0
168,304,175455,6,0,B|64:312|0:232,1,180
88,200,175868,2,0,B|96:272|56:336,2,120,8|2|0
176,208,176489,2,0,B|168:136|208:72,2,120,8|2|8
344,216,177110,37,2
368,232,177523,21,4
392,248,177937,21,4
416,264,178351,21,2
160,96,178765,5,0
160,96,178972,2,0,B|200:56|264:32,1,120,2|8
208,168,179386,1,0
160,96,179592,1,0
88,144,179799,1,8
144,216,180006,2,0,B|96:256|32:272,2,120,2|8|0
256,280,180627,1,2
120,112,180834,2,0,B|192:96|232:152,1,120,8|0
216,248,181248,6,0,B|360:200|280:40,1,240,0|2
176,160,181868,2,0,B|32:208|112:368,1,240,8|2
352,296,182489,1,8
352,296,182592,1,0
352,296,182696,1,0
352,296,182799,1,0
352,296,182903,1,0
400,176,183110,1,8
400,176,183213,1,0
400,176,183317,1,2
312,64,183523,1,8
96,80,183730,6,0,B|128:136|136:216,1,120,0|2
248,320,184144,2,0,B|216:264|208:184,1,120,8|0
192,128,184558,2,0,B|256:136|312:112,1,120,0|8
152,272,184972,2,0,B|88:264|32:288,1,120,2|8
440,320,185386,6,2,B|368:208|416:80,1,240,0|8
412,90,186006,1,0
328,64,186213,1,0
328,64,186317,1,0
328,64,186420,1,8
256,112,186627,1,2
184,64,186834,1,8
184,64,186937,1,0
184,64,187041,5,0
184,64,187248,2,2,B|152:112|80:128,1,120,0|8
256,256,187661,1,0
328,64,187868,2,0,B|360:112|432:128,1,120,0|8
200,160,188282,2,0,B|256:184|320:160,1,120,2|8
112,232,188696,6,0,B|160:288,2,60,0|0|2
160,168,189110,2,0,B|112:112,2,60,8|0|0
56,176,189523,6,0,B|0:224,2,60,0|0|8
216,224,189937,2,0,B|272:176,2,60,2|0|8
256,48,190351,5,2
256,320,190765,1,4
448,192,191179,1,4
88,192,191592,1,2
256,192,192006,5,4
