osu file format v8

[General]
AudioFilename: Legend Of The Black Shawarma[cut].mp3
AudioLeadIn: 0
PreviewTime: 165497
Countdown: 2
SampleSet: Soft
StackLeniency: 0.7
Mode: 0
LetterboxInBreaks: 1
EpilepsyWarning: 1

[Editor]
DistanceSpacing: 2
BeatDivisor: 4
GridSize: 8

[Metadata]
Title:The Legend Of The Black Shawarma
Artist:Infected Mushroom
Creator:La Cataline
Version:Hard
Source:
Tags:natteke lepidopodus lepidon

[Difficulty]
HPDrainRate:6
CircleSize:4
OverallDifficulty:5
ApproachRate:8
SliderMultiplier:1.6
SliderTickRate:1

[Events]
//Background and Video events
0,0,"bg.jpg"
//Break Periods
2,39941,45612
2,59803,72095
//Storyboard Layer 0 (Background)
//Storyboard Layer 1 (Fail)
//Storyboard Layer 2 (Pass)
//Storyboard Layer 3 (Foreground)
//Storyboard Sound Samples
//Background Colour Transformations
3,100,0,0,0

[TimingPoints]
13259,413.793103448276,4,1,0,72,1,0
13465,-100,4,2,0,72,0,0
13672,-100,4,1,0,72,0,0
15121,-100,4,2,0,72,0,0
15327,-100,4,1,0,72,0,0
16879,-100,4,2,0,72,0,0
16983,-100,4,1,0,72,0,0
17190,-100,4,2,0,72,0,0
17396,-100,4,1,0,72,0,0
18534,-100,4,2,0,72,0,0
18638,-100,4,1,0,72,0,0
21534,-100,4,1,0,72,0,0
21741,-100,4,2,0,72,0,0
21948,-100,4,1,0,72,0,0
24638,-100,4,2,0,72,0,0
24845,-100,4,1,0,72,0,0
26707,-100,4,2,0,72,0,0
26914,-100,4,1,0,72,0,0
27121,-100,4,2,0,72,0,0
27327,-100,4,1,0,72,0,0
27948,-100,4,2,0,72,0,0
28155,-100,4,1,0,72,0,0
28362,-100,4,2,0,72,0,0
28569,-100,4,1,0,72,0,0
30431,-100,4,2,0,72,0,0
30638,-100,4,1,0,72,0,0
31155,-100,4,2,0,72,0,0
31465,-100,4,1,0,72,0,0
34155,-100,4,2,0,72,0,0
34362,-100,4,1,0,72,0,0
34569,-100,4,2,0,72,0,0
34776,-100,4,1,0,72,0,0
34983,-100,4,2,0,72,0,0
35190,-100,4,1,0,72,0,0
35810,-100,4,2,0,72,0,0
36017,-100,4,1,0,72,0,0
36224,-100,4,2,0,72,0,0
36431,-100,4,1,0,72,0,0
36638,-100,4,2,0,72,0,0
36845,-100,4,1,0,72,0,0
37052,-100,4,2,0,72,0,0
37259,-100,4,1,0,72,0,0
37672,-100,4,2,0,72,0,0
39741,-100,4,1,0,72,0,0
46303,-100,4,2,0,72,0,0
58095,-100,4,1,0,100,0,0
59543,-100,4,1,0,72,0,0
72845,-100,4,1,0,57,0,0
72948,-100,4,2,0,57,0,0
86086,-100,4,1,0,72,0,0
86190,-100,4,2,0,72,0,0
87327,-100,4,1,0,72,0,0
87845,-100,4,2,0,72,0,0
88983,-100,4,1,0,72,0,0
89500,-100,4,2,0,72,0,0
90638,-100,4,1,0,72,0,0
90741,-100,4,2,0,72,0,0
91052,-100,4,1,0,72,0,0
91155,-100,4,2,0,72,0,0
92293,-100,4,1,0,72,0,0
92396,-100,4,2,0,72,0,0
93948,-100,4,1,0,72,0,0
94052,-100,4,2,0,72,0,0
94362,-100,4,1,0,72,0,0
94465,-100,4,2,0,72,0,0
95603,-100,4,1,0,72,0,0
95707,-100,4,2,0,72,0,0
96017,-100,4,1,0,72,0,0
96224,-100,4,2,0,72,0,0
97259,-100,4,1,0,72,0,0
97362,-100,4,2,0,72,0,0
97672,-100,4,1,0,72,0,0
97879,-100,4,2,0,72,0,0
98914,-100,4,1,0,72,0,0
99017,-100,4,2,0,72,0,0
99327,-200,4,2,0,73,0,0
125810,-100,4,2,0,72,0,0
139052,-200,4,2,0,72,0,0
145672,-100,4,1,0,72,0,0
145776,-100,4,2,0,72,0,0
146293,-100,4,1,0,72,0,0
146396,-100,4,2,0,72,0,0
146707,-100,4,1,0,72,0,0
146810,-100,4,2,0,72,0,0
147327,-100,4,1,0,72,0,0
147431,-100,4,2,0,72,0,0
147948,-100,4,1,0,72,0,0
148052,-100,4,2,0,72,0,0
148362,-100,4,1,0,72,0,0
148465,-100,4,2,0,72,0,0
148983,-100,4,1,0,72,0,0
149086,-100,4,2,0,72,0,0
149603,-100,4,1,0,72,0,0
149707,-100,4,2,0,72,0,0
150017,-100,4,1,0,72,0,0
150121,-100,4,2,0,72,0,0
150638,-100,4,1,0,72,0,0
150741,-100,4,2,0,72,0,0
151259,-100,4,1,0,72,0,0
151362,-100,4,2,0,72,0,0
151672,-100,4,1,0,72,0,0
151776,-100,4,2,0,72,0,0
152293,-100,4,1,0,72,0,0
152396,-100,4,2,0,72,0,0
152914,-100,4,1,0,72,0,0
153017,-100,4,2,0,72,0,0
153327,-100,4,1,0,72,0,0
153431,-100,4,2,0,72,0,0
153948,-100,4,1,0,72,0,0
154052,-100,4,2,0,72,0,0
154569,-100,4,1,0,72,0,0
154672,-100,4,2,0,72,0,0
154983,-100,4,1,0,72,0,0
155086,-100,4,2,0,72,0,0
155603,-100,4,1,0,72,0,0
155707,-100,4,2,0,72,0,0
156224,-100,4,1,0,72,0,0
156327,-100,4,2,0,72,0,0
156638,-100,4,1,0,72,0,0
156741,-100,4,2,0,72,0,0
157259,-100,4,1,0,72,0,0
157362,-100,4,2,0,72,0,0
157879,-100,4,1,0,72,0,0
157983,-100,4,2,0,72,0,0
158293,-100,4,1,0,72,0,0
158396,-100,4,2,0,72,0,0
165524,413.793103448276,4,1,0,72,1,1
165627,-100,4,1,0,72,0,0
178766,-100,4,1,0,72,0,1
178869,-100,4,1,0,72,0,0
192007,-100,4,1,0,72,0,1
192110,-100,4,1,0,72,0,0

[Colours]
Combo1 : 3,109,86
Combo2 : 128,255,128
Combo3 : 0,128,128
Combo4 : 0,255,128

[HitObjects]
360,152,13258,6,0,B|448:136,1,80,4|2
488,216,13672,2,0,B|424:280|336:240,1,160,8|0
272,160,14293,2,0,B|256:72,2,80,8|2|8
192,192,14914,6,0,B|104:224,1,80,0|2
48,176,15327,2,0,B|8:280|112:304,1,160,8|0
102,301,15948,1,8
192,339,16155,2,0,B|285:310,1,80,0|10
272,208,16569,6,0,B|376:136,1,120,0|2
370,139,16983,2,0,B|392:176|448:192,1,80,8|0
448,104,17396,1,0
448,104,17603,2,0,B|496:24,2,80,8|2|8
312,48,18224,6,0,B|160:48,1,120,0|2
192,48,18638,2,0,B|200:96|168:136,1,80,8|0
256,192,19052,1,4
256,224,19259,1,8
256,256,19465,1,4
256,288,19672,1,10
160,200,19879,6,0,B|160:96|256:96,1,160,4|8
256,192,20500,1,0
256,192,20707,2,0,B|360:192|360:96,1,160,0|2
253,96,21327,1,8
424,152,21534,6,0,B|447:208|504:242,1,120,0|2
502,241,21948,2,0,B|416:304,1,80,8|0
368,328,22362,1,0
280,320,22569,1,8
184,328,22776,1,0
96,320,22983,1,10
144,248,23190,6,0,B|152:168|104:64,1,160,0|8
192,48,23810,1,0
192,48,24017,2,0,B|216:136,1,80,0|8
256,272,24431,2,0,B|232:184,1,80,2|6
288,40,24845,6,0,B|384:56|376:152,1,160,4|8
224,344,25465,2,0,B|128:328|136:232,1,160,0|10
176,152,26086,1,0
176,152,26293,1,2
176,152,26500,6,0,B|248:128|344:136,1,160,6|2
416,144,27121,1,2
368,216,27327,1,2
334,135,27534,1,8
384,64,27741,1,0
416,144,27948,1,4
334,137,28155,6,0,B|262:161|166:153,1,160,2|8
96,152,28776,1,2
136,72,28983,1,2
176,153,29190,1,8
136,232,29396,1,2
96,152,29603,1,8
176,153,29810,6,6,B|261:146|349:154,1,160,0|8
335,152,30431,1,2
344,80,30638,2,0,B|440:80|440:240|336:232,1,240,2|4
88,88,31465,6,2,B|64:128|80:176,1,80,0|2
144,312,31879,2,0,B|168:272|152:224,1,80,8|2
296,160,32293,2,0,B|256:136|208:152,1,80,2|8
272,288,32707,2,0,B|312:312|360:296,1,80,2|8
96,80,33121,6,2,B|256:64|432:80,1,320,2|10
352,152,34155,1,2
256,168,34362,1,0
152,152,34569,1,4
256,256,34776,6,2,B|384:296,1,120
370,291,35190,2,0,B|400:264|408:216,1,80,0|2
424,136,35603,1,10
408,48,35810,1,2
328,40,36017,1,2
344,120,36224,1,2
256,256,36431,5,2
160,288,36638,1,2
152,272,36741,1,0
144,256,36845,1,10
352,208,37052,1,2
360,224,37155,1,0
368,240,37259,1,10
176,88,37672,6,0,B|256:72|336:88,1,160,4|2
256,192,38293,12,4,39741
256,80,46362,6,0,B|136:88,1,120,2|8
96,96,46776,2,0,B|112:184,1,80,2|8
280,248,47190,2,0,B|264:152,1,80,2|0
120,272,47603,2,4,B|208:256,1,80,10|0
280,248,48017,6,0,B|360:200|440:200,1,160,2|10
368,104,48638,1,0
256,112,48845,2,0,B|296:168|328:264,1,160,2|6
240,320,49465,1,0
240,320,49672,6,0,B|120:312,1,120,6|8
72,304,50086,2,0,B|88:216,1,80,2|8
272,152,50500,2,0,B|256:248,1,80,2|0
104,120,50914,2,0,B|192:136,1,80,10|0
232,72,51327,6,0,B|328:168|464:152,1,240,2|0
368,40,52155,1,2
232,72,52362,1,0
232,72,52465,1,4
449,153,52672,1,0
449,153,52776,1,4
264,232,52983,6,0,B|216:312,1,80,4|2
88,200,53396,2,0,B|160:256,1,80,0|2
312,144,53810,2,0,B|232:96,1,80,0|2
168,56,54224,2,0,B|112:136,1,80,0|0
344,288,54638,6,0,B|265:337,1,80,0|2
203,178,55051,2,0,B|242:260,1,80,0|2
440,240,55465,2,0,B|391:160,1,80,0|2
350,101,55879,2,0,B|264:146,1,80,0|0
264,352,56293,5,0
256,272,56500,1,2
272,192,56707,1,0
264,112,56914,1,2
280,40,57121,1,0
192,176,57327,5,0
192,176,57431,1,4
352,176,57638,1,4
352,176,57741,1,0
272,192,57948,1,4
256,192,58155,12,4,59603
156,94,72845,6,0,B|107:90|64:64,1,80,4|0
234,145,73259,1,2
234,145,73465,2,0,B|282:148|325:174,1,80,0|0
152,184,74086,1,8
356,290,74500,6,0,B|404:293|447:319,1,80,0|0
278,239,74914,1,2
278,239,75120,2,0,B|229:235|186:209,1,80,0|0
360,200,75741,1,8
224,56,76155,6,0,B|224:144|176:240,1,160,0|2
189,211,76775,1,0
280,280,76982,2,0,B|280:192|328:96,1,160,0|8
320,40,77810,6,0,B|232:32|160:72,1,160,0|2
72,232,78431,1,0
192,344,78638,2,0,B|280:352|352:312,1,160,0|8
440,152,79259,1,2
360,160,79465,6,0,B|272:152|184:192,1,160,0|2
184,72,80086,1,0
184,71,80293,2,0,B|206:143|190:191,1,120,2|0
184,200,80707,2,0,B|136:192|78:200,1,80,10|0
208,200,81121,6,0,B|296:208|384:168,1,160,2|2
384,288,81742,1,0
384,289,81949,2,0,B|362:217|378:169,1,120,2|0
384,160,82363,2,0,B|432:168|490:160,1,80,10|0
112,328,82776,6,0,B|88:296|88:240,1,80,2|0
89,252,83190,2,0,B|104:208|88:168,1,80,2|10
91,173,83603,2,0,B|64:128|80:80,1,80,2|0
76,96,84017,2,0,B|152:112|248:96,1,160,10|2
264,96,84638,1,2
288,88,84845,2,0,B|364:73|460:89,1,160
248,208,85672,2,0,B|264:168|248:120,1,80,10|0
128,208,86086,5,0
128,208,86293,2,0,B|112:272|168:312|224:280,1,160,2|0
376,280,86914,2,0,B|392:216|336:176|280:208,1,160,0|10
304,128,87741,5,0
416,104,87948,2,0,B|416:184|448:264,1,160,2|0
304,248,88569,2,0,B|408:256|472:232,1,160,0|10
208,256,89396,5,0
96,280,89603,2,0,B|96:200|64:120,1,160,2|0
208,136,90224,2,0,B|104:128|40:152,1,160,0|10
296,72,91052,6,0,B|344:128|408:136,1,120
396,165,91465,2,0,B|340:213|332:277,1,120,2|0
304,272,91879,2,0,B|256:216|192:208,1,120,0|0
204,179,92292,2,0,B|260:131|268:67,1,120,10|0
266,78,92707,1,0
96,152,92914,6,0,B|128:224|112:312,1,160,2|0
48,248,93534,2,0,B|192:248,1,120
168,248,93948,1,10
248,280,94155,1,0
328,264,94362,1,0
408,288,94569,2,0,B|400:208|440:128,1,160,2|0
488,232,95190,2,0,B|416:200|328:192,1,160,0|10
232,64,95810,5,2
200,88,95914,1,0
176,104,96017,1,0
80,80,96224,2,0,B|53:172|162:201,1,160,2|2
229,321,96845,2,0,B|255:228|146:199,1,160,0|10
128,112,97465,5,0
128,112,97672,1,0
256,80,98086,1,2
384,112,98500,1,0
256,168,98914,1,10
256,344,99327,6,0,B|360:344|360:248,1,160,0|2
296,216,100362,1,2
232,184,100569,1,0
168,152,100776,2,0,B|168:48|264:48,1,160
352,96,101810,6,0,B|424:152|424:240,1,160,2|0
408,304,102845,1,0
344,344,103052,1,0
280,304,103259,1,0
216,336,103465,1,2
160,288,103672,1,2
224,248,103879,1,0
232,176,104086,1,0
160,168,104293,6,0,B|120:184,2,40
208,96,104914,2,0,B|216:64,2,20,0|0|2
248,168,105327,1,2
248,168,105534,1,0
248,168,105741,2,0,B|304:184|376:184,1,120
472,144,106776,6,0,B|456:288|312:288,1,240,2|0
152,312,108431,2,0,B|168:168|312:168,1,240,2|0
104,192,110293,5,2
144,296,110707,1,0
144,296,110914,1,0
248,328,111327,2,0,B|282:356|328:352,1,80,0|2
224,224,112155,1,0
232,56,112776,6,0,B|352:56|352:184,1,200,2|0
384,312,114017,2,0,B|264:312|264:184,1,200,2|0
384,208,115259,2,0,B|504:208|504:336,1,200,0|0
503,334,116500,1,0
424,320,116707,1,2
352,344,116914,1,2
280,336,117120,1,0
208,344,117327,1,0
208,344,117534,6,0,B|142:322|126:245,1,120
128,128,118362,2,0,B|193:149|209:226,1,120,2|0
336,272,119190,2,0,B|335:203|267:163,1,120
208,144,120017,5,2
192,72,120224,1,2
264,96,120431,1,0
280,172,120638,2,0,B|360:140|440:172,1,160
432,256,121672,1,2
403,326,121879,1,2
322,328,122086,1,0
287,261,122293,1,0
359,258,122500,1,4
160,280,125810,6,0,B|160:208|128:136,1,120,2|0
138,162,126224,1,8
256,72,126638,1,0
256,72,126845,1,2
376,160,127052,1,8
256,224,127465,5,2
192,336,127879,1,8
320,336,128293,1,0
320,336,128500,1,2
256,224,128707,1,10
352,248,129121,6,0,B|352:176|384:104,1,120,2|0
373,130,129535,1,8
256,40,129949,1,0
256,40,130155,1,2
136,128,130363,1,8
256,88,130776,6,0,B|248:152|192:200,1,120,2|0
201,191,131190,1,8
270,223,131396,2,0,B|240:280|256:360,2,120,0|2|10
120,312,132431,6,0,B|96:280|104:224,1,80,2|0
152,112,132845,2,0,B|176:144|168:200,1,80,8|0
256,248,133259,2,0,B|224:272|168:264,1,80,0|2
24,184,133672,2,0,B|56:160|112:168,1,80,8|0
100,166,134086,5,2
256,344,134500,1,8
184,152,134707,1,0
184,152,134810,1,0
272,248,135017,1,0
272,248,135121,1,2
280,152,135327,2,0,B|328:80|392:32,1,160,10|2
448,104,136155,6,0,B|488:192,1,80,8|0
352,176,136569,2,0,B|424:248,1,80,0|2
304,280,136983,2,0,B|464:336,1,160,8|2
216,288,137603,6,0,B|168:288|136:248,1,80,0|10
232,240,138017,2,0,B|188:219|176:169,1,80,0|2
256,192,138431,2,0,B|225:155|235:105,2,80,0|10|0
256,192,139052,5,2
344,80,139465,1,8
432,192,139672,1,0
432,192,139776,1,0
360,304,139983,1,0
360,304,140086,2,0,B|376:320|400:328,2,40,0|8|0
232,128,140707,5,2
352,200,141120,1,8
240,288,141327,1,0
240,288,141431,1,0
128,216,141638,1,0
128,216,141741,2,0,B|112:232|104:256,2,40,0|8|0
240,216,142362,5,2
168,96,142775,1,8
80,208,142982,1,0
80,208,143086,1,0
152,320,143293,1,0
152,320,143396,2,0,B|136:336|112:344,2,40,0|8|0
256,192,144017,12,0,145465
320,88,145672,5,0
320,88,145879,2,0,B|368:152|448:208,1,160,2|0
312,208,146500,2,0,B|344:240|392:256,1,80,2|0
296,296,146914,2,0,B|332:323|392:328,1,80
208,288,147327,5,0
208,288,147534,2,0,B|128:256|40:256,1,160,2|0
128,176,148155,2,0,B|80:168|32:192,1,80,2|0
112,88,148569,2,0,B|64:88|16:120,1,80
200,112,148983,6,0,B|304:168|440:176,1,240,0|0
448,264,149810,2,0,B|424:224|432:168,1,80,2|0
408,88,150224,2,0,B|432:128|424:184,1,80,2|0
352,304,150638,6,0,B|248:280|112:304,1,240
56,240,151465,2,0,B|88:272|96:328,1,80,2|0
104,208,151879,2,0,B|72:176|64:120,1,80,2|0
192,224,152293,6,0,B|272:168,1,80,0|2
408,184,152707,2,0,B|328:240,1,80,2|0
240,288,153121,2,0,B|256:191,1,80,2|0
365,107,153534,2,0,B|348:203,1,80,2|0
208,288,153948,6,0,B|111:271,1,80,0|2
304,288,154362,2,0,B|400:271,1,80,2|0
216,136,154776,2,0,B|119:152,1,80,2|0
296,136,155190,2,0,B|392:152,1,80,2|0
208,256,155603,6,0,B|111:272,1,80,0|2
288,256,156017,2,0,B|384:272,1,80,2|0
216,152,156431,2,0,B|119:135,1,80,2|0
296,152,156845,2,0,B|392:135,1,80
256,104,157258,5,0
344,240,157465,1,2
176,240,157672,1,2
336,144,157879,1,0
256,272,158086,1,2
176,144,158293,1,0
256,216,158500,5,0
232,168,158706,1,0
280,168,158913,1,4
256,192,159121,12,0,163879
96,320,165524,6,0,B|144:256|96:152,1,160,4|8
104,168,166144,1,2
240,176,166351,2,0,B|176:224|72:176,1,160,0|2
88,184,166971,1,8
336,104,167179,6,0,B|360:152|344:200,1,80
216,304,167592,2,0,B|269:300|303:262,1,80,8|2
456,344,168006,2,0,B|416:272|320:232,1,160,0|2
337,239,168627,1,8
272,200,168834,6,0,B|184:208|144:120,1,160,0|8
240,112,169455,1,2
288,232,169661,2,0,B|376:224|416:312,1,160,0|2
320,320,170282,1,8
200,272,170489,6,0,B|176:320|200:368,1,80,0|0
144,224,170903,2,0,B|168:176|144:128,1,80,8|2
152,112,171213,1,0
144,80,171317,2,0,B|224:48|304:80,1,160,0|2
360,128,171937,6,0,B|400:224|336:320,1,200,8|0
296,320,172558,2,0,B|208:320,2,80,8|2|0
336,248,173179,2,0,B|320:200|336:152,1,80,8|2
176,136,173592,2,0,B|192:184|176:232,1,80,8|0
120,288,174006,5,0
72,200,174213,1,8
104,104,174420,1,2
160,192,174627,1,0
248,240,174834,1,8
344,208,175041,1,2
256,144,175248,1,8
304,56,175455,5,0
384,112,175661,2,0,B|432:88,2,40,0|0|8
256,144,176074,2,0,B|184:144,2,40,2|0|0
344,208,176488,2,0,B|368:288,2,80,8|2|8
144,280,177110,5,2
136,288,177524,21,4
128,296,177937,21,4
120,304,178351,21,2
448,240,178765,6,0,B|384:288|288:296,1,160
320,208,179386,1,2
400,176,179592,1,8
448,240,179799,1,0
368,272,180006,1,0
264,304,180213,6,0,B|224:240|232:144,1,160,10|0
320,128,180834,1,0
302,43,181041,1,2
216,64,181248,1,8
231,150,181455,1,0
231,151,181868,6,0,B|151:135|55:175,1,160,10|0
240,208,182489,2,0,B|320:224|416:184,1,160,0|8
248,264,183110,2,0,B|168:248|72:288,1,160,2|8
136,88,183730,6,0,B|176:96|216:136,1,80
288,56,184144,2,0,B|280:96|240:136,1,80,0|2
224,152,184455,1,0
200,176,184558,2,0,B|177:209|177:266,1,80,8|2
320,208,184972,2,0,B|280:200|240:160,1,80,0|10
336,320,185386,6,0,B|424:296|424:184,1,160
440,32,186006,2,0,B|352:56|352:168,1,160,2|8
328,224,186627,1,0
328,224,186730,1,0
328,224,186834,1,8
328,224,187041,6,0,B|240:200|240:88,1,160
240,104,187661,2,0,B|216:192|104:192,1,160,2|8
240,336,188282,1,0
168,300,188489,1,10
240,256,188696,1,0
320,208,188903,6,0,B|296:168,2,40
368,280,189317,2,0,B|392:320,2,40,2|0|8
408,200,189730,1,2
408,200,190144,1,10
408,200,190351,5,2
272,80,190765,1,4
112,184,191179,1,4
256,304,191592,1,2
256,184,192006,5,4
