osu file format v13

[General]
AudioFilename: notInfected Mushroom - Smashing the Opponent (feat. Jonathan Davis).mp3
AudioLeadIn: 0
PreviewTime: 66344
Countdown: 0
SampleSet: Normal
StackLeniency: 0.7
Mode: 0
LetterboxInBreaks: 0
WidescreenStoryboard: 0

[Editor]
DistanceSpacing: 1.1
BeatDivisor: 4
GridSize: 4
TimelineZoom: 2.599999

[Metadata]
Title:Smashing the Opponent (feat. Jonathan Davis)
TitleUnicode:Smashing the Opponent (feat. Jonathan Davis)
Artist:Infected Mushroom
ArtistUnicode:Infected Mushroom
Creator:-Bakari-
Version:Hard
Source:
Tags:Korn ThoomyyxD psy-trance goa legend of black shawarma
BeatmapID:263495
BeatmapSetID:98907

[Difficulty]
HPDrainRate:7
CircleSize:4
OverallDifficulty:7
ApproachRate:8
SliderMultiplier:1.5
SliderTickRate:2

[Events]
//Background and Video events
0,0,"gdfgdgdfgdfgdf.jpg",0,0
//Break Periods
2,92927,98598
//Storyboard Layer 0 (Background)
//Storyboard Layer 1 (Fail)
//Storyboard Layer 2 (Pass)
//Storyboard Layer 3 (Foreground)
//Storyboard Sound Samples
//Background Colour Transformations
3,100,163,162,255

[TimingPoints]
16590,413.793103448276,4,3,1,45,1,0
31486,-100,4,3,1,35,0,0
33141,-100,4,1,1,29,0,0
48038,-100,4,2,0,35,0,0
49693,-100,4,1,1,35,0,0
66245,-76.9230769230769,4,1,1,65,0,1
79279,-76.9230769230769,4,1,1,65,0,0
79486,-76.9230769230769,4,1,1,65,0,1
92727,-100,4,2,0,45,0,0
99348,-100,4,1,1,45,0,0
119210,-100,4,1,1,30,0,0
126658,-100,4,1,1,35,0,0
127486,-100,4,1,1,25,0,0
128314,-100,4,1,1,20,0,0
129141,-100,4,1,1,20,0,0

[Colours]
Combo1 : 111,68,68
Combo2 : 153,174,158
Combo3 : 88,85,106
Combo4 : 136,136,136

[HitObjects]
360,328,16590,6,0,P|352:264|364:176,1,150,4|2,1:0|0:0,0:0:0:0:
456,44,17417,1,0,0:0:0:0:
376,64,17624,1,0,0:0:0:0:
296,52,17831,2,0,P|240:44|216:44,1,75,2|0,0:0|0:0,0:0:0:0:
172,116,18245,2,0,P|209:125|245:125,1,75
313,172,18658,1,2,0:0:0:0:
277,246,18865,2,0,P|234:305|156:333,1,150,0|0,0:0|0:0,0:0:0:0:
88,304,19485,1,2,0:0:0:0:
88,304,19900,6,0,L|48:224,1,75
0,176,20314,1,2,0:0:0:0:
80,152,20521,1,0,0:0:0:0:
148,200,20727,2,0,P|200:196|252:108,1,150,0|2,0:0|0:0,0:0:0:0:
256,36,21348,1,0,0:0:0:0:
324,84,21555,2,0,P|332:148|292:224,1,150,0|2,0:0|0:0,0:0:0:0:
344,288,22176,2,0,P|396:232|416:160,1,150,0|2,0:0|0:0,0:0:0:0:
412,80,22796,1,0,0:0:0:0:
368,8,23003,1,0,0:0:0:0:
304,60,23210,6,0,P|268:72|228:64,1,75
148,64,23624,1,2,0:0:0:0:
84,12,23831,1,0,0:0:0:0:
148,64,24038,2,0,L|124:220,1,150,0|2,0:0|0:0,0:0:0:0:
48,244,24658,1,0,0:0:0:0:
104,304,24865,2,0,B|152:300|152:300|204:272|204:272|248:268,1,150,0|2,0:0|0:0,0:0:0:0:
320,304,25486,2,0,B|324:256|324:256|352:204|352:204|355:161,1,150,0|2,0:0|0:0,0:0:0:0:
316,88,26106,1,0,0:0:0:0:
372,28,26314,1,0,0:0:0:0:
292,16,26521,6,0,P|248:16|216:24,1,75
212,104,26934,2,0,P|176:104|136:92,1,75,2|0,0:0|0:0,0:0:0:0:
132,176,27348,2,0,P|96:176|56:188,1,75
200,224,27762,2,0,P|220:264|167:354,1,150,2|0,0:0|0:0,0:0:0:0:
140,280,28383,1,0,0:0:0:0:
200,224,28590,2,0,B|249:225|249:225|299:252|299:252|352:252,1,150,2|0,0:0|0:0,0:0:0:0:
424,276,29210,1,0,0:0:0:0:
408,196,29417,2,0,L|416:116,1,75,2|0,0:0|0:0,0:0:0:0:
448,44,29831,6,0,L|364:40,1,75
320,104,30245,2,0,L|245:100,1,75,2|0,0:0|0:0,0:0:0:0:
164,112,30658,1,0,0:0:0:0:
164,112,31072,2,0,L|168:188,1,75,2|0,0:0|0:0,0:0:0:0:
124,256,31486,5,8,0:0:0:0:
264,344,31900,1,2,0:0:0:0:
408,260,32314,1,8,0:0:0:0:
332,288,32521,1,8,0:0:0:0:
252,264,32727,1,2,0:0:0:0:
92,244,33141,5,4,0:0:0:0:
168,96,33555,1,8,0:0:0:0:
236,140,33762,1,0,0:0:0:0:
316,120,33969,2,0,P|368:108|472:124,1,150,0|8,0:0|0:0,0:0:0:0:
504,192,34590,1,0,0:0:0:0:
432,232,34796,2,0,L|416:308,1,75
332,304,35210,2,0,L|320:224,1,75,8|0,0:0|0:0,0:0:0:0:
236,228,35624,2,0,L|216:300,1,75
132,308,36038,2,0,L|120:232,1,75
40,212,36452,6,0,P|25:297|76:361,1,150,0|8,0:0|0:0,0:0:0:0:
132,308,37072,1,0,0:0:0:0:
205,271,37279,2,0,B|193:203|257:199|247:121,1,150,0|8,0:0|0:0,0:0:0:0:
164,140,37900,1,0,0:0:0:0:
196,64,38107,2,0,P|236:48|272:52,1,75
348,64,38521,1,8,0:0:0:0:
431,48,38727,1,0,0:0:0:0:
413,144,38934,5,0,0:0:0:0:
412,144,39141,1,0,0:0:0:0:
428,240,39348,1,8,0:0:0:0:
428,240,39555,1,0,0:0:0:0:
492,312,39762,2,0,B|456:346|376:344|344:288|344:288|312:240|260:228|208:252,1,300,0|0,0:0|0:0,0:0:0:0:
184,316,40796,1,0,0:0:0:0:
264,332,41003,2,0,B|328:304|332:244|328:204|288:164|288:164|296:52,1,300,8|8,0:0|0:0,0:0:0:0:
212,56,42038,5,0,0:0:0:0:
220,140,42245,2,0,P|288:168|368:136,1,150,0|8,0:0|0:0,0:0:0:0:
396,72,42865,1,0,0:0:0:0:
440,140,43072,2,0,L|416:300,1,150,0|8,0:0|0:0,0:0:0:0:
340,316,43693,1,0,0:0:0:0:
260,340,43900,1,0,0:0:0:0:
116,256,44314,1,8,0:0:0:0:
264,184,44727,6,0,L|260:104,1,75
220,36,45141,2,0,P|276:28|344:96,1,150,8|0,0:0|0:0,0:0:0:0:
404,144,45762,1,0,0:0:0:0:
484,132,45969,1,8,0:0:0:0:
432,68,46176,1,0,0:0:0:0:
404,144,46383,2,0,P|400:188|312:236,1,150,0|8,0:0|0:0,0:0:0:0:
320,156,47003,1,0,0:0:0:0:
240,176,47210,2,0,B|224:192|216:216|216:216|220:264|220:264|212:288|188:316,1,150
28,336,48038,5,2,0:0:0:0:
100,188,48452,1,8,0:0:0:0:
24,40,48865,2,0,L|8:16,4,18.75
104,56,49279,1,8,0:0:0:0:
176,96,49486,1,8,0:0:0:0:
280,28,49693,6,0,L|356:28,1,75,4|0,0:0|0:0,0:0:0:0:
437,28,50107,2,0,P|428:68|332:104,1,150,8|0,0:0|0:0,0:0:0:0:
310,183,50727,1,0,0:0:0:0:
396,184,50934,2,0,P|452:164|504:88,1,150,8|0,0:0|0:0,0:0:0:0:
456,320,51762,1,8,0:0:0:0:
388,272,51969,1,0,0:0:0:0:
304,276,52176,2,0,P|280:304|264:340,1,75
188,372,52590,1,8,0:0:0:0:
120,328,52796,1,0,0:0:0:0:
40,348,53003,6,0,P|20:300|44:196,1,150,0|8,0:0|0:0,0:0:0:0:
84,136,53624,1,0,0:0:0:0:
56,60,53831,2,0,B|88:52|112:56|132:72|132:72|156:96|180:104|212:104,1,150,0|8,0:0|0:0,0:0:0:0:
264,144,54452,1,0,0:0:0:0:
264,64,54658,2,0,L|420:52,1,150,0|8,0:0|0:0,0:0:0:0:
496,40,55279,1,0,0:0:0:0:
464,116,55486,2,0,L|488:188,1,75
412,224,55900,2,0,L|384:144,1,75,8|0,0:0|0:0,0:0:0:0:
304,156,56314,5,0,0:0:0:0:
264,228,56521,1,0,0:0:0:0:
200,280,56727,2,0,P|160:288|56:252,1,150,8|0,0:0|0:0,0:0:0:0:
16,184,57348,1,0,0:0:0:0:
70,118,57555,2,0,P|92:144|100:184,1,75,8|0,0:0|0:0,0:0:0:0:
28,48,57969,1,0,0:0:0:0:
112,40,58176,1,0,0:0:0:0:
192,64,58383,2,0,P|240:72|344:60,1,150,8|0,0:0|0:0,0:0:0:0:
412,20,59003,1,0,0:0:0:0:
412,108,59210,2,0,B|416:120|416:120|412:140|412:140|416:160|416:160|412:184|412:184,1,75,8|0,0:0|0:0,0:0:0:0:
448,312,59624,6,0,P|400:308|288:320,1,150,0|8,0:0|0:0,0:0:0:0:
222,348,60245,1,0,0:0:0:0:
236,266,60452,2,0,P|236:228|221:184,1,75
184,120,60865,1,8,0:0:0:0:
346,91,61279,1,0,0:0:0:0:
372,172,61486,1,0,0:0:0:0:
364,256,61693,2,0,P|400:264|432:296,1,75,8|0,0:0|0:0,0:0:0:0:
364,340,62107,2,0,P|328:332|296:300,1,75
284,224,62521,1,8,0:0:0:0:
216,176,62727,1,0,0:0:0:0:
136,160,62934,5,2,2:0:0:0:
256,192,63141,12,0,65831,0:0:0:0:
383,340,66245,6,2,P|401:299|390:248,1,97.4999955368044,4|0,0:0|0:0,0:0:0:0:
332,158,66658,1,8,0:0:0:0:
334,145,66865,1,0,0:0:0:0:
226,141,67072,1,0,0:0:0:0:
221,130,67279,1,0,0:0:0:0:
151,211,67486,1,8,0:0:0:0:
140,206,67693,1,0,0:0:0:0:
77,118,67900,6,2,P|130:60|334:31,1,292.499986610413
417,96,68727,2,0,P|432:126|425:190,1,97.4999955368044,0|0,0:0|0:0,0:0:0:0:
337,250,69141,2,0,P|322:220|329:156,1,97.4999955368044,8|0,0:0|0:0,0:0:0:0:
417,97,69555,5,0,0:0:0:0:
312,71,69762,2,0,L|263:82,1,48.7499977684022
235,99,69969,2,0,P|186:95|130:64,1,97.4999955368044,8|0,0:0|0:0,0:0:0:0:
41,110,70383,2,0,P|69:149|124:177,1,97.4999955368044,0|0,0:0|0:0,0:0:0:0:
201,172,70796,1,8,0:0:0:0:
200,279,71003,1,0,0:0:0:0:
304,292,71210,6,0,P|372:276|472:192,1,194.999991073609,0|8,0:0|0:0,0:0:0:0:
464,92,71831,1,0,0:0:0:0:
384,160,72038,2,0,P|356:184|296:204,1,97.4999955368044
300,96,72452,1,8,0:0:0:0:
376,13,72658,1,0,0:0:0:0:
475,162,72865,6,0,L|492:369,1,194.999991073609,0|8,0:0|0:0,0:0:0:0:
386,328,73486,1,0,0:0:0:0:
282,355,73693,2,0,P|238:360|181:332,1,97.4999955368044
249,249,74107,2,0,P|218:208|215:151,1,97.4999955368044,8|0,0:0|0:0,0:0:0:0:
292,36,74521,6,0,P|323:77|326:134,1,97.4999955368044,0|0,0:0|0:0,0:0:0:0:
272,213,74934,1,0,0:0:0:0:
371,219,75141,1,0,0:0:0:0:
388,227,75245,1,0,0:0:0:0:
405,235,75348,2,0,P|444:222|476:177,1,97.4999955368044
432,31,75762,2,0,P|393:44|361:89,1,97.4999955368044,8|0,0:0|0:0,0:0:0:0:
371,219,76176,6,0,P|387:266|384:318,1,97.4999955368044
294,276,76590,2,0,P|274:323|228:359,1,97.4999955368044,8|0,0:0|0:0,0:0:0:0:
197,265,77003,2,0,P|153:276|95:270,1,97.4999955368044
8,149,77417,1,8,0:0:0:0:
71,62,77624,1,0,0:0:0:0:
89,57,77727,1,0,0:0:0:0:
108,52,77831,6,0,P|150:53|204:86,1,97.4999955368044,4|0,0:0|0:0,0:0:0:0:
288,144,78245,2,0,P|336:138|378:114,1,97.4999955368044,8|0,0:0|0:0,0:0:0:0:
404,8,78658,1,0,0:0:0:0:
296,16,78865,1,0,0:0:0:0:
192,44,79072,1,0,0:0:0:0:
120,124,79279,1,0,0:0:0:0:
163,295,79486,6,2,P|201:320|449:162,2,389.999982147218
120,206,81348,1,0,0:0:0:0:
217,216,81555,2,0,P|290:235|361:144,1,194.999991073609,8|0,0:0|0:0,0:0:0:0:
263,115,82176,2,0,P|272:94|291:75,1,48.7499977684022
305,63,82383,2,0,P|339:50|404:60,1,97.4999955368044,8|0,0:0|0:0,0:0:0:0:
501,31,82796,6,0,L|480:232,1,194.999991073609,0|8,0:0|0:0,0:0:0:0:
506,329,83417,1,0,0:0:0:0:
403,296,83624,2,0,P|360:303|302:285,1,97.4999955368044
245,201,84038,1,8,0:0:0:0:
137,200,84245,2,0,L|110:139,1,48.7499977684022
113,141,84452,6,0,P|109:98|131:46,1,97.4999955368044
230,14,84865,2,0,P|234:57|212:109,1,97.4999955368044,8|0,0:0|0:0,0:0:0:0:
113,141,85279,1,0,0:0:0:0:
61,235,85486,1,0,0:0:0:0:
114,328,85693,2,0,P|138:343|210:343,1,97.4999955368044,8|0,0:0|0:0,0:0:0:0:
326,246,86107,6,2,P|332:207|85:48,2,389.999982147218,2|2|2,0:0|0:0|0:0,0:0:0:0:
239,309,87969,1,0,0:0:0:0:
217,203,88176,2,0,P|206:166|136:136,1,97.4999955368044,8|0,0:0|0:0,0:0:0:0:
59,92,88590,2,0,P|43:74|37:49,2,48.7499977684022
63,199,89003,1,8,0:0:0:0:
132,280,89210,2,0,L|129:331,1,48.7499977684022
128,344,89417,6,0,P|173:336|232:344,1,97.4999955368044
330,358,89831,2,0,P|373:364|434:349,1,97.4999955368044,8|0,0:0|0:0,0:0:0:0:
500,272,90245,1,0,0:0:0:0:
488,164,90452,1,0,0:0:0:0:
408,232,90658,1,8,0:0:0:0:
304,264,90865,1,0,0:0:0:0:
328,160,91072,6,0,L|305:63,1,97.4999955368044
204,36,91486,1,0,0:0:0:0:
140,124,91693,1,0,0:0:0:0:
33,127,91900,2,0,P|9:159|15:222,1,97.4999955368044
18,227,92210,1,0,0:0:0:0:
25,239,92314,2,0,P|64:264|124:256,1,97.4999955368044,8|0,0:0|0:0,0:0:0:0:
180,212,92727,5,4,0:0:0:0:
140,284,99348,6,0,P|144:252|140:204,1,75,4|0,0:0|0:0,0:0:0:0:
116,132,99762,1,8,0:0:0:0:
76,60,99969,1,0,0:0:0:0:
148,20,100176,2,0,P|219:11|287:58,1,150,0|8,0:0|0:0,0:0:0:0:
340,204,101003,2,0,P|269:213|201:166,1,150,0|8,0:0|0:0,0:0:0:0:
176,96,101624,1,0,0:0:0:0:
256,108,101831,2,0,P|281:128|336:113,1,75
437,62,102245,1,8,0:0:0:0:
363,25,102452,1,0,0:0:0:0:
375,106,102658,6,0,L|386:193,1,75
460,280,103072,2,0,L|452:200,1,75,8|0,0:0|0:0,0:0:0:0:
376,173,103486,2,0,B|280:173|316:221|212:221,1,150,0|8,0:0|0:0,0:0:0:0:
172,168,104107,1,0,0:0:0:0:
120,232,104314,2,0,P|83:246|36:240,1,75
72,164,104727,2,0,P|32:163|-7:139,1,75,8|0,0:0|0:0,0:0:0:0:
55,83,105141,2,0,P|31:51|19:11,1,75
102,13,105555,2,0,P|126:45|138:85,1,75,8|0,0:0|0:0,0:0:0:0:
56,84,105969,6,0,P|80:140|183:144,1,150,0|8,0:0|0:0,0:0:0:0:
231,111,106590,1,0,0:0:0:0:
291,55,106796,2,0,P|331:51|371:59,1,75
492,116,107210,2,0,P|452:120|412:112,1,75,8|0,0:0|0:0,0:0:0:0:
342,149,107624,2,0,L|362:317,1,150,0|8,0:0|0:0,0:0:0:0:
397,372,108245,1,0,0:0:0:0:
315,361,108452,2,0,P|247:353|159:365,1,150,0|8,0:0|0:0,0:0:0:0:
84,358,109072,6,0,B|78:334|78:334|84:309|84:309|74:282|74:282|81:257|81:257|75:238|75:238|73:210|73:210,1,150,4|0,0:0|0:0,0:0:0:0:
46,134,109693,2,0,P|58:98|86:70,1,75,8|0,0:0|0:0,0:0:0:0:
165,85,110107,2,0,P|153:121|125:149,1,75
45,134,110521,1,8,0:0:0:0:
264,28,110934,2,0,P|304:32|348:28,1,75
384,100,111348,2,0,P|336:108|300:108,1,75,8|0,0:0|0:0,0:0:0:0:
264,176,111762,2,0,P|296:184|344:184,1,75
420,176,112176,1,8,0:0:0:0:
392,256,112383,1,0,0:0:0:0:
412,336,112590,6,0,P|368:332|252:348,1,150,0|8,0:0|0:0,0:0:0:0:
136,364,113210,1,0,0:0:0:0:
188,300,113417,2,0,P|192:252|188:216,1,75
160,148,113831,1,8,0:0:0:0:
84,116,114038,1,0,0:0:0:0:
84,116,114245,2,0,P|112:80|148:68,1,75,0|0,0:0|0:0,0:0:0:0:
220,88,114658,2,0,P|240:116|240:160,1,75,8|0,0:0|0:0,0:0:0:0:
196,224,115072,1,0,0:0:0:0:
216,304,115279,2,0,L|292:308,2,75,0|8|0,0:0|0:0|0:0,0:0:0:0:
136,284,115900,5,4,0:0:0:0:
60,36,116314,1,8,0:0:0:0:
124,88,116521,1,0,0:0:0:0:
204,80,116727,2,0,P|252:72|356:88,1,150,0|8,0:0|0:0,0:0:0:0:
432,60,117348,1,0,0:0:0:0:
412,140,117555,2,0,P|404:184|412:288,1,150,0|8,0:0|0:0,0:0:0:0:
358,351,118176,2,0,B|320:340|320:340|258:355|258:355|208:344,1,150,0|8,0:0|0:0,0:0:0:0:
132,368,118796,1,0,0:0:0:0:
109,288,119003,1,0,0:0:0:0:
188,264,119210,6,0,L|168:188,1,75
98,147,119624,1,8,0:0:0:0:
164,98,119831,1,0,0:0:0:0:
94,64,120038,2,0,P|66:52|12:57,1,75
164,98,120452,2,0,P|196:105|250:100,1,75,8|0,0:0|0:0,0:0:0:0:
313,69,120865,2,0,P|351:58|467:70,2,150,0|8|0,0:0|0:0|0:0,0:0:0:0:
250,123,121900,1,0,0:0:0:0:
282,198,122107,2,0,P|303:231|305:278,1,75,8|0,0:0|0:0,0:0:0:0:
224,260,122521,6,0,P|203:227|201:180,1,75,0|0,0:0|0:0,0:0:0:0:
181,116,122934,2,0,P|171:69|77:33,1,150,8|0,0:0|0:0,0:0:0:0:
98,112,123555,1,0,0:0:0:0:
124,192,123762,2,0,L|117:269,1,75,8|0,0:0|0:0,0:0:0:0:
44,306,124176,6,0,P|65:331|179:317,1,150,0|8,0:0|0:0,0:0:0:0:
209,251,124796,1,0,0:0:0:0:
304,233,125003,1,0,0:0:0:0:
388,224,125210,1,0,0:0:0:0:
438,158,125417,2,0,P|450:119|448:72,1,75,8|0,0:0|0:0,0:0:0:0:
388,224,125831,6,0,P|376:263|378:310,1,75,0|0,0:0|0:0,0:0:0:0:
408,372,126245,1,8,0:0:0:0:
328,360,126452,1,0,0:0:0:0:
248,340,126658,2,0,L|161:344,1,75
140,268,127072,2,0,L|224:264,1,75,8|0,0:0|0:0,0:0:0:0:
297,255,127486,6,0,P|325:235|361:123,1,150,0|8,0:0|0:0,0:0:0:0:
388,52,128107,1,0,0:0:0:0:
304,60,128314,2,0,P|272:64|224:56,1,75
151,31,128727,2,0,P|113:32|77:43,1,75,8|0,0:0|0:0,0:0:0:0:
20,103,129141,5,4,0:0:0:0:
256,192,129245,12,8,130383,0:0:0:0:
