osu file format v13

[General]
AudioFilename: notInfected Mushroom - Smashing the Opponent (feat. Jonathan Davis).mp3
AudioLeadIn: 0
PreviewTime: 66344
Countdown: 0
SampleSet: Normal
StackLeniency: 0.7
Mode: 0
LetterboxInBreaks: 0
WidescreenStoryboard: 0

[Editor]
DistanceSpacing: 1.1
BeatDivisor: 4
GridSize: 4
TimelineZoom: 1

[Metadata]
Title:Smashing the Opponent (feat. Jonathan Davis)
TitleUnicode:Smashing the Opponent (feat. Jonathan Davis)
Artist:Infected Mushroom
ArtistUnicode:Infected Mushroom
Creator:-Bakari-
Version:Easy
Source:
Tags:Korn ThoomyyxD psy-trance goa legend of black shawarma
BeatmapID:268233
BeatmapSetID:98907

[Difficulty]
HPDrainRate:2
CircleSize:3
OverallDifficulty:2
ApproachRate:3
SliderMultiplier:0.9
SliderTickRate:2

[Events]
//Background and Video events
0,0,"gdfgdgdfgdfgdf.jpg",0,0
//Break Periods
2,92927,97908
//Storyboard Layer 0 (Background)
//Storyboard Layer 1 (Fail)
//Storyboard Layer 2 (Pass)
//Storyboard Layer 3 (Foreground)
//Storyboard Sound Samples
//Background Colour Transformations
3,100,163,162,255

[TimingPoints]
16590,413.793103448276,4,3,1,45,1,0
31486,-100,4,3,1,35,0,0
33141,-100,4,1,1,29,0,0
48038,-100,4,2,0,35,0,0
49693,-100,4,1,1,35,0,0
66245,-100,4,1,1,65,0,1
79279,-100,4,1,1,65,0,0
79486,-100,4,1,1,65,0,1
92727,-100,4,2,0,45,0,0
99348,-100,4,1,1,45,0,0
125831,-100,4,1,1,35,0,0
127072,-100,4,1,1,25,0,0
127900,-100,4,1,1,20,0,0
129141,-100,4,1,1,20,0,0

[Colours]
Combo1 : 111,68,68
Combo2 : 153,174,158
Combo3 : 88,85,106
Combo4 : 136,136,136

[HitObjects]
144,308,16590,6,0,P|110:258|102:230,1,90,4|2,1:0|0:0,0:0:0:0:
100,132,17417,2,0,P|108:104|144:52,1,90,0|2,0:0|0:0,0:0:0:0:
240,44,18245,1,0,0:0:0:0:
306,116,18658,2,0,P|330:79|333:17,2,90,2|0|2,0:0|0:0|0:0,0:0:0:0:
212,136,19900,6,0,P|180:160|160:208,1,90,0|2,0:0|0:0,0:0:0:0:
148,304,20727,2,0,P|128:352|84:376,1,90,0|2,0:0|0:0,0:0:0:0:
52,284,21555,2,0,L|32:184,1,90,0|2,0:0|0:0,0:0:0:0:
92,112,22383,2,0,L|76:20,1,90,0|2,0:0|0:0,0:0:0:0:
172,4,23210,5,0,0:0:0:0:
256,60,23624,2,0,L|352:56,2,90,2|0|2,0:0|0:0|0:0,0:0:0:0:
192,136,24865,1,0,0:0:0:0:
200,236,25279,2,0,P|212:288|332:312,1,180,2|2,0:0|0:0,0:0:0:0:
420,348,26521,5,0,0:0:0:0:
476,268,26934,2,0,L|484:84,1,180,2|2,0:0|0:0,0:0:0:0:
404,32,28176,1,0,0:0:0:0:
324,92,28590,2,0,L|232:96,1,90,2|0,0:0|0:0,0:0:0:0:
164,28,29417,1,2,0:0:0:0:
88,88,29831,5,0,0:0:0:0:
152,164,30245,2,0,L|136:364,1,180,2|2,0:0|0:0,0:0:0:0:
228,384,31486,5,0,0:0:0:0:
284,304,31900,2,0,B|300:260|300:260|284:220|284:220|304:176|304:176|288:124,1,180,2|2,0:0|0:0,0:0:0:0:
304,36,33141,5,4,0:0:0:0:
212,76,33555,2,0,B|176:100|136:84|136:84|80:64|36:100,1,180,8|8,0:0|0:0,0:0:0:0:
28,196,34796,1,0,0:0:0:0:
92,272,35210,2,0,P|100:316|80:368,2,90,8|0|8,0:0|0:0|0:0,0:0:0:0:
148,192,36452,5,0,0:0:0:0:
236,260,36865,2,0,P|280:272|328:264,1,90,8|0,0:0|0:0,0:0:0:0:
348,168,37693,1,8,0:0:0:0:
440,136,38107,2,0,P|463:88|459:44,1,90,0|8,0:0|0:0,0:0:0:0:
364,72,38934,2,0,P|316:72|276:104,1,90,0|8,0:0|0:0,0:0:0:0:
256,192,39762,5,0,0:0:0:0:
180,256,40176,2,0,P|103:282|20:221,1,180,0|8,0:0|0:0,0:0:0:0:
112,180,41417,1,0,0:0:0:0:
48,104,41831,2,0,P|124:80|202:139,1,180,8|8,0:0|0:0,0:0:0:0:
264,212,43072,5,0,0:0:0:0:
340,272,43486,2,0,L|432:264,2,90,8|0|8,0:0|0:0|0:0,0:0:0:0:
260,328,44727,1,0,0:0:0:0:
184,263,45141,1,8,0:0:0:0:
267,210,45555,2,0,P|279:170|271:118,1,90,0|8,0:0|0:0,0:0:0:0:
256,192,46383,12,0,48038,0:0:0:0:
172,272,49693,6,0,P|136:264|76:276,2,90,4|8|0,0:0|0:0|0:0,0:0:0:0:
228,356,50934,1,8,0:0:0:0:
312,308,51348,1,0,0:0:0:0:
412,304,51762,2,0,P|464:308|496:196,1,180,8|8,0:0|0:0,0:0:0:0:
424,144,53003,5,0,0:0:0:0:
332,176,53417,2,0,P|236:204|152:164,1,180,8|8,0:0|0:0,0:0:0:0:
92,112,54658,1,0,0:0:0:0:
64,208,55072,2,0,L|56:304,2,90,8|0|8,0:0|0:0|0:0,0:0:0:0:
0,136,56314,5,0,0:0:0:0:
72,72,56727,2,0,P|112:56|256:48,1,180,8|8,0:0|0:0,0:0:0:0:
344,72,57969,1,0,0:0:0:0:
408,148,58383,2,0,P|420:204|380:320,1,180,8|8,0:0|0:0,0:0:0:0:
292,360,59624,6,0,L|196:356,1,90,0|8,0:0|0:0,0:0:0:0:
132,284,60452,1,0,0:0:0:0:
220,236,60865,2,0,L|208:132,2,90,8|0|8,0:0|0:0|0:0,0:0:0:0:
304,288,62107,1,0,0:0:0:0:
400,316,62521,1,8,0:0:0:0:
256,192,62934,12,0,64590,0:0:0:0:
384,316,66245,6,0,P|416:264|352:76,2,270,4|8|0,0:0|0:0|0:0,0:0:0:0:
284,328,69141,1,8,0:0:0:0:
328,240,69555,6,0,P|332:200|296:144,1,90,4|8,0:0|0:0,0:0:0:0:
228,212,70383,1,0,0:0:0:0:
144,160,70796,1,8,0:0:0:0:
68,224,71210,2,0,P|48:184|52:124,1,90,4|8,0:0|0:0,0:0:0:0:
72,44,72038,1,0,0:0:0:0:
168,72,72452,1,8,0:0:0:0:
268,72,72865,6,0,P|376:71|393:218,2,270,4|8|0,0:0|0:0|0:0,0:0:0:0:
324,152,75762,1,8,0:0:0:0:
268,232,76176,5,4,0:0:0:0:
188,288,76590,2,0,L|92:284,2,90,8|0|8,0:0|0:0|0:0,0:0:0:0:
268,344,77831,1,4,0:0:0:0:
360,308,78245,2,0,L|452:312,2,90,8|0|8,0:0|0:0|0:0,0:0:0:0:
288,240,79486,6,0,P|272:184|416:64,2,270,4|8|0,0:0|0:0|0:0,0:0:0:0:
296,340,82383,1,8,0:0:0:0:
204,304,82796,6,0,P|160:292|108:296,1,90,4|8,0:0|0:0,0:0:0:0:
28,344,83624,1,0,0:0:0:0:
24,244,84038,2,0,P|16:188|20:148,1,90,8|4,0:0|0:0,0:0:0:0:
56,64,84865,2,0,P|104:40|240:44,1,180,8|8,0:0|0:0,0:0:0:0:
328,56,86107,6,0,P|372:64|428:52,2,90,4|8|0,0:0|0:0|0:0,0:0:0:0:
240,104,87348,1,8,0:0:0:0:
288,192,87762,2,0,L|296:292,1,90,4|8,0:0|0:0,0:0:0:0:
232,360,88590,1,0,0:0:0:0:
136,340,89003,1,8,0:0:0:0:
40,360,89417,6,0,P|28:312|32:268,1,90,4|8,0:0|0:0,0:0:0:0:
56,176,90245,2,0,P|68:128|64:88,1,90,0|8,0:0|0:0,0:0:0:0:
152,44,91072,1,4,0:0:0:0:
204,128,91486,2,0,P|248:144|392:104,1,180,8|8,0:0|0:0,0:0:0:0:
428,36,92727,5,2,0:0:0:0:
168,252,99348,6,0,P|120:256|72:240,1,90,4|8,0:0|0:0,0:0:0:0:
40,152,100176,2,0,P|88:148|136:164,1,90,0|8,0:0|0:0,0:0:0:0:
168,252,101003,1,0,0:0:0:0:
244,312,101417,2,0,P|296:336|416:312,1,180,8|8,0:0|0:0,0:0:0:0:
448,224,102658,5,0,0:0:0:0:
408,132,103072,2,0,L|420:36,2,90,8|0|8,0:0|0:0|0:0,0:0:0:0:
337,202,104314,1,0,0:0:0:0:
267,271,104727,2,0,L|255:367,2,90,8|0|8,0:0|0:0|0:0,0:0:0:0:
184,220,105969,5,0,0:0:0:0:
112,152,106383,2,0,P|120:100|244:76,1,180,8|8,0:0|0:0,0:0:0:0:
312,120,107624,2,0,P|356:128|404:120,1,90,0|8,0:0|0:0,0:0:0:0:
484,68,108452,1,0,0:0:0:0:
488,168,108865,1,8,0:0:0:0:
500,268,109279,6,0,P|508:308|496:368,1,90,0|8,0:0|0:0,0:0:0:0:
408,320,110107,2,0,P|400:280|416:224,1,90,0|8,0:0|0:0,0:0:0:0:
484,164,110934,2,0,P|504:128|504:72,2,90,0|8|0,0:0|0:0|0:0,0:0:0:0:
408,104,112176,1,8,0:0:0:0:
312,124,112590,5,0,0:0:0:0:
220,92,113003,2,0,P|144:84|68:164,1,180,8|8,0:0|0:0,0:0:0:0:
72,252,114245,1,0,0:0:0:0:
128,332,114658,2,0,P|192:352|316:352,1,180,8|8,0:0|0:0,0:0:0:0:
396,320,115900,5,4,0:0:0:0:
372,224,116314,2,0,L|392:124,1,90,8|0,0:0|0:0,0:0:0:0:
424,44,117141,1,8,0:0:0:0:
328,64,117555,1,0,0:0:0:0:
232,36,117969,2,0,P|184:32|52:68,1,180,8|8,0:0|0:0,0:0:0:0:
12,152,119210,6,0,P|4:184|12:248,1,90,0|8,0:0|0:0,0:0:0:0:
44,332,120038,1,0,0:0:0:0:
120,276,120452,2,0,L|220:284,2,90,8|0|8,0:0|0:0|0:0,0:0:0:0:
92,180,121693,1,0,0:0:0:0:
184,140,122107,1,8,0:0:0:0:
284,144,122521,6,0,P|308:152|356:200,1,90,0|8,0:0|0:0,0:0:0:0:
412,276,123348,1,0,0:0:0:0:
452,184,123762,2,0,L|480:84,2,90,8|0|8,0:0|0:0|0:0,0:0:0:0:
352,196,125003,2,0,L|324:296,1,90,0|8,0:0|0:0,0:0:0:0:
264,360,125831,6,0,P|204:360|104:200,1,270,0|8,0:0|0:0,0:0:0:0:
112,100,127486,1,0,0:0:0:0:
184,32,127900,1,8,0:0:0:0:
272,76,128314,2,0,L|372:72,1,90,0|8,0:0|0:0,0:0:0:0:
256,192,129141,12,8,130383,2:0:0:0:
