osu file format v14

[General]
AudioFilename: Infected Mushroom - Savant on Mushrooms (feat. Savant).mp3
AudioLeadIn: 0
PreviewTime: 75158
Countdown: 0
SampleSet: Soft
StackLeniency: 0.8
Mode: 0
LetterboxInBreaks: 1
WidescreenStoryboard: 0

[Editor]
Bookmarks: 44515,75372,102801,116515,130229,157658,185086,198801,212086,226229,239944,267372,281086,308515,322229,335944,349658,353086
DistanceSpacing: 1
BeatDivisor: 6
GridSize: 4
TimelineZoom: 2.100006

[Metadata]
Title:Savant on Mushrooms (feat. Savant)
TitleUnicode:Savant on Mushrooms (feat. Savant)
Artist:Infected Mushroom
ArtistUnicode:Infected Mushroom
Creator:NISSAN001
Version:Infected
Source:
Tags:friends psytrance glitchhop electro edm psystep kelsykarter pegboardnerds trance
BeatmapID:606541
BeatmapSetID:266145

[Difficulty]
HPDrainRate:5
CircleSize:4
OverallDifficulty:8
ApproachRate:9.3
SliderMultiplier:1.6
SliderTickRate:4

[Events]
//Background and Video events
0,0,"bg.jpg",0,0
//Break Periods
2,103001,114201
2,157858,170772
2,171572,184486
2,199001,211486
//Storyboard Layer 0 (Background)
//Storyboard Layer 1 (Fail)
//Storyboard Layer 2 (Pass)
//Storyboard Layer 3 (Foreground)
//Storyboard Sound Samples

[TimingPoints]
-56,428.571428571429,4,2,1,100,1,0
68515,-100,4,2,1,20,0,0
75372,-90.9090909090909,4,2,1,70,0,1
76229,-83.3333333333333,4,2,1,70,0,1
77086,-66.6666666666667,4,2,1,70,0,1
88229,-90.9090909090909,4,2,1,70,0,0
89086,-66.6666666666667,4,2,1,70,0,1
90801,-66.6666666666667,4,2,1,70,0,1
91979,-100,4,2,1,70,0,1
92515,-66.6666666666667,4,2,1,70,0,1
94229,-66.6666666666667,4,2,1,70,0,1
95086,-66.6666666666667,4,2,1,70,0,1
97658,-66.6666666666667,4,2,1,70,0,1
102801,-90.9090909090909,4,2,1,70,0,0
126801,-133.333333333333,4,2,1,70,0,0
129801,-66.6666666666667,4,2,1,70,0,0
130229,-90.9090909090909,4,2,1,70,0,1
146515,-90.9090909090909,4,2,1,30,0,1
147372,-90.9090909090909,4,2,1,70,0,1
157444,-90.9090909090909,4,2,1,20,0,1
157658,-90.9090909090909,4,2,1,70,0,0
171372,-90.9090909090909,4,2,2,70,0,0
171479,-90.9090909090909,4,2,1,70,0,0
185086,-100,4,2,1,70,0,0
198694,-100,4,2,1,20,0,0
212086,-100,4,2,1,70,0,0
239944,-66.6666666666667,4,2,1,70,0,1
246801,-66.6666666666667,4,2,1,70,0,1
251086,-200,4,2,1,70,0,1
251658,-66.6666666666667,4,2,1,70,0,1
263515,-100,4,2,1,70,0,1
263944,-66.6666666666667,4,2,1,70,0,1
267372,-80,4,2,1,70,0,0
281086,-66.6666666666667,4,2,1,70,0,1
293944,-100,4,2,1,70,0,0
294801,-66.6666666666667,4,2,1,70,0,1
305086,-100,4,2,1,70,0,0
305372,-83.3333333333333,4,2,1,70,0,0
305658,-71.4285714285714,4,2,1,70,0,0
305944,-68.9655172413793,4,2,1,70,0,0
306229,-66.6666666666667,4,2,1,70,0,0
306515,-50,4,2,1,70,0,0
308194,-66.6666666666667,4,2,1,20,0,0
308515,-133.333333333333,4,2,1,70,0,1
308622,-133.333333333333,4,2,1,70,0,0
313229,-66.6666666666667,4,1,1,50,0,0
313444,-133.333333333333,4,2,1,70,0,0
314729,-66.6666666666667,4,1,2,70,0,0
315372,-133.333333333333,4,2,1,70,0,0
320086,-133.333333333333,4,1,1,50,0,0
320515,-133.333333333333,4,2,1,70,0,0
322229,-133.333333333333,4,2,1,70,0,1
322336,-133.333333333333,4,2,1,70,0,0
326944,-66.6666666666667,4,1,1,50,0,0
327158,-133.333333333333,4,2,1,70,0,0
349658,-200,4,2,1,70,0,0
352765,-200,4,2,1,20,0,0
353086,-133.333333333333,4,2,1,70,0,1
353194,-133.333333333333,4,2,1,70,0,0
359515,-133.333333333333,4,1,2,70,0,0
359944,-133.333333333333,4,2,1,70,0,0
364658,-133.333333333333,4,1,1,70,0,0
364872,-133.333333333333,4,2,1,20,0,0
366801,-133.333333333333,4,1,1,70,0,1
366854,-133.333333333333,4,2,1,70,0,0

[Colours]
Combo1 : 254,121,1
Combo2 : 179,254,1
Combo3 : 231,80,41
Combo4 : 2,142,142
SliderBorder : 100,100,100

[HitObjects]
348,288,44515,6,0,L|328:172,1,80,2|0,0:0|0:0,0:0:0:0:
200,128,44944,2,0,L|220:244,1,80
288,92,45372,1,8,0:0:0:0:
172,44,45586,1,0,0:0:0:0:
124,192,45801,1,0,0:0:0:0:
248,24,46015,1,0,0:0:0:0:
264,288,46229,6,0,B|336:296|336:296|436:272,1,160,2|0,0:0|0:0,0:0:0:0:
264,196,46872,1,0,0:0:0:0:
447,284,47086,1,8,0:0:0:0:
248,308,47301,1,0,0:0:0:0:
344,160,47515,2,0,P|312:124|248:112,1,80
332,248,47944,6,0,P|400:228|424:124,1,160,2|0,0:0|0:0,0:0:0:0:
256,40,48586,1,0,0:0:0:0:
184,188,48801,2,0,P|136:140|128:92,1,80,8|0,0:0|0:0,0:0:0:0:
88,240,49229,2,0,P|136:288|144:336,1,80
232,304,49658,6,0,L|272:204,1,80,2|0,0:0|3:0,0:0:0:0:
292,204,49979,1,0,3:0:0:0:
320,172,50087,1,0,3:0:0:0:
332,132,50194,1,0,3:0:0:0:
188,296,50515,5,0,3:0:0:0:
180,272,50622,1,0,3:0:0:0:
144,256,50729,1,0,3:0:0:0:
120,236,50836,1,0,3:0:0:0:
108,204,50944,1,0,3:0:0:0:
96,168,51051,1,0,3:0:0:0:
76,152,51158,1,0,3:0:0:0:
64,124,51265,1,0,3:0:0:0:
72,92,51372,6,0,P|120:96|232:52,1,160,2|0,0:0|0:0,0:0:0:0:
264,160,52015,1,0,0:0:0:0:
372,104,52229,1,8,0:0:0:0:
232,268,52444,1,0,0:0:0:0:
224,56,52658,1,0,0:0:0:0:
320,248,52872,1,0,0:0:0:0:
176,200,53086,6,0,L|96:160,1,80
368,184,53515,2,0,L|448:224,1,80
264,136,53944,2,0,P|256:196|328:292,1,160,8|0,0:0|0:0,0:0:0:0:
84,188,54586,1,0,0:0:0:0:
148,268,54801,6,0,L|72:312,1,80,2|0,0:0|0:0,0:0:0:0:
152,104,55229,2,0,L|196:180,1,80
256,256,55658,2,0,P|296:196|264:96,1,160,8|0,0:0|0:0,0:0:0:0:
152,104,56301,2,0,P|112:164|144:264,1,160,0|0,0:0|3:0,0:0:0:0:
144,272,56836,1,0,3:0:0:0:
168,296,56944,1,0,3:0:0:0:
180,328,57051,1,0,3:0:0:0:
264,304,57372,5,0,3:0:0:0:
256,288,57479,1,0,3:0:0:0:
248,276,57586,1,0,3:0:0:0:
240,268,57694,1,0,3:0:0:0:
228,256,57801,1,0,3:0:0:0:
216,240,57908,1,0,3:0:0:0:
208,228,58015,1,0,3:0:0:0:
196,216,58122,1,0,3:0:0:0:
188,204,58229,6,0,P|224:152|336:140,2,160,2|2|8,0:0|0:0|0:0,0:0:0:0:
128,296,59301,1,0,0:0:0:0:
320,304,59515,1,0,0:0:0:0:
140,200,59729,1,0,0:0:0:0:
232,272,59944,5,8,0:0:0:0:
40,256,60158,1,2,0:0:0:0:
52,224,60265,1,2,0:0:0:0:
80,204,60372,1,2,0:0:0:0:
224,176,60586,1,0,0:0:0:0:
148,328,60801,5,8,0:0:0:0:
72,184,61015,1,0,0:0:0:0:
232,184,61229,1,2,0:0:0:0:
140,324,61444,1,2,0:0:0:0:
80,176,61658,6,0,P|104:136|72:16,1,160
228,72,62301,1,0,0:0:0:0:
364,220,62515,2,0,L|332:128,1,80,8|0,0:0|0:0,0:0:0:0:
188,240,62944,2,0,L|220:332,1,80,0|0,0:0|0:0,0:0:0:0:
232,332,63265,1,0,0:0:0:0:
264,172,63586,5,0,3:0:0:0:
236,148,63694,1,0,3:0:0:0:
196,136,63801,1,0,3:0:0:0:
156,144,63908,1,0,3:0:0:0:
120,164,64015,1,0,3:0:0:0:
100,200,64122,1,0,3:0:0:0:
92,240,64229,5,0,3:0:0:0:
112,280,64336,1,0,3:0:0:0:
144,304,64444,1,0,3:0:0:0:
184,312,64551,1,0,3:0:0:0:
224,300,64658,2,0,P|264:272|272:220,1,80,0|0,3:0|3:0,3:0:0:0:
168,200,65086,6,0,P|120:156|112:44,1,160,2|0,0:0|0:0,0:0:0:0:
220,96,65729,1,0,0:0:0:0:
324,224,65944,2,0,P|324:176|300:124,1,80,8|0,0:0|0:0,0:0:0:0:
300,324,66372,2,0,P|348:324|400:300,1,80
420,208,66801,6,0,P|396:156|276:136,1,160,2|0,0:0|0:0,0:0:0:0:
204,176,67444,2,0,P|148:184|72:104,1,160,2|0,0:0|0:0,0:0:0:0:
20,224,68086,1,2,0:0:0:0:
256,192,68515,12,2,71944,0:0:0:0:
256,192,73658,12,0,75158,0:0:0:0:
72,64,75372,6,0,P|120:112|156:120,1,88.000002685547,8|0,0:3|0:0,0:0:0:0:
240,136,75694,1,0,0:0:0:0:
176,224,75801,2,0,L|108:320,1,88.000002685547
352,312,76229,6,0,L|404:328,1,47.9999985351563,0|0,1:0|0:0,0:0:0:0:
468,300,76444,2,0,L|420:288,1,47.9999985351563
360,228,76658,2,0,L|408:240,1,47.9999985351563
476,204,76872,2,0,L|412:192,1,47.9999985351563
476,84,77086,6,0,B|416:68|416:68|352:84,1,120.000004577637,2|2,0:3|0:3,0:0:0:0:
252,140,77408,1,0,0:0:0:0:
148,196,77515,2,0,B|88:212|88:212|31:197,1,120.000004577637,2|2,0:3|0:3,0:0:0:0:
160,96,77944,6,0,P|184:56|216:40,2,60.0000022888184,2|2|0,0:3|0:3|0:0,0:0:0:0:
160,96,78265,2,0,L|248:200,1,120.000004577637,2|0,0:3|0:0,0:0:0:0:
316,264,78586,2,0,L|344:196,1,60.0000022888184
368,92,78801,6,0,P|312:68|220:84,1,120.000004577637,8|0,0:3|0:0,0:0:0:0:
188,152,79122,2,0,L|156:224,2,60.0000022888184
188,152,79444,1,0,0:0:0:0:
188,152,79551,1,0,0:0:0:0:
272,164,79658,6,0,P|348:164|416:212,1,120.000004577637,0|0,1:0|0:0,0:0:0:0:
316,264,79979,2,0,L|344:336,1,60.0000022888184
216,268,80194,2,0,L|236:184,1,60.0000022888184
200,108,80408,1,0,0:0:0:0:
80,224,80515,6,0,L|52:304,1,60.0000022888184,2|0,0:3|0:3,0:3:0:0:
160,220,80729,2,0,P|148:180|120:156,1,60.0000022888184,2|0,0:3|0:3,0:3:0:0:
164,300,80944,2,0,P|204:288|228:260,1,60.0000022888184,2|0,0:3|0:3,0:3:0:0:
268,160,81158,2,0,P|236:196|232:224,1,60.0000022888184,2|0,0:3|0:0,0:0:0:0:
144,136,81372,6,0,B|112:88|112:88|40:56,1,120.000004577637
55,62,81640,2,0,L|56:24,3,30.0000011444092
272,64,82015,1,0,0:0:0:0:
288,100,82122,1,0,0:0:0:0:
280,144,82229,6,0,B|228:172|228:172|188:232,1,120.000004577637,8|0,0:3|0:0,0:0:0:0:
120,240,82551,2,0,B|132:300|132:300|200:364,1,120.000004577637
400,320,83086,6,0,L|416:244,1,60.0000022888184,0|0,1:0|0:0,0:0:0:0:
364,188,83301,2,0,L|292:212,1,60.0000022888184
172,156,83515,2,0,L|232:188,1,60.0000022888184
48,192,83729,2,0,L|104:148,1,60.0000022888184
228,80,83944,6,0,L|308:52,3,60.0000022888184,2|0|2|0,0:3|0:0|0:3|0:0,0:3:0:0:
180,176,84372,2,0,L|216:256,3,60.0000022888184,2|0|2|0,0:3|0:0|0:3|0:0,0:3:0:0:
280,292,84801,6,0,B|320:240|364:312|320:240|388:232,1,120.000004577637,2|0,0:3|0:0,0:0:0:0:
352,136,85122,1,2,0:3:0:0:
276,24,85229,2,0,B|256:68|256:68|248:72|248:72|256:80|256:80|248:84|248:84|220:144,1,120.000004577637,2|0,0:3|0:0,0:0:0:0:
232,208,85551,1,2,0:3:0:0:
140,244,85658,6,0,L|12:216,1,120.000004577637,8|0,0:3|0:0,0:0:0:0:
108,44,85979,2,0,L|136:184,1,120.000004577637
220,284,86301,2,0,L|304:296,1,60.0000022888184
368,240,86515,6,0,B|356:180|356:180|396:96,1,120.000004577637,0|0,1:0|0:0,0:0:0:0:
260,108,86836,2,0,L|288:256,1,120.000004577637
272,240,87158,1,0,0:0:0:0:
264,252,87265,1,0,0:0:0:0:
88,172,87372,6,0,L|64:92,1,60.0000022888184,2|0,0:3|0:0,0:0:0:0:
164,196,87586,2,0,L|128:252,1,60.0000022888184,2|0,0:3|0:0,0:0:0:0:
148,120,87801,2,0,L|224:124,1,60.0000022888184,2|0,0:3|0:0,0:0:0:0:
328,172,88015,2,0,L|252:168,1,60.0000022888184,2|0,0:3|0:0,0:0:0:0:
192,244,88229,2,0,L|152:292,1,44.0000013427735,2|0,0:3|0:0,0:0:0:0:
308,124,88586,6,0,L|372:168,1,73.3333355712891
336,324,88979,1,0,0:0:0:0:
216,296,89086,6,0,P|156:296|96:328,1,120.000004577637,4|0,1:0|0:0,0:0:0:0:
128,204,89408,2,0,L|192:72,1,120.000004577637
188,80,89729,1,0,0:0:0:0:
196,64,89836,1,0,0:0:0:0:
284,76,89944,6,0,L|360:56,1,60.0000022888184,0|0,1:0|0:0,0:0:0:0:
352,156,90158,2,0,L|312:208,1,60.0000022888184
424,288,90372,2,0,L|384:224,1,60.0000022888184
312,332,90586,2,0,L|328:264,1,60.0000022888184
232,168,90801,5,2,0:3:0:0:
88,96,91015,1,2,0:3:0:0:
104,268,91229,1,2,0:3:0:0:
216,28,91444,1,2,0:3:0:0:
104,268,91658,2,0,L|68:336,1,60.0000022888184,2|2,0:3|0:3,0:0:0:0:
220,276,91979,6,0,P|252:220|360:204,1,160,2|0,0:3|0:0,0:0:0:0:
436,132,92515,6,0,L|472:32,1,60.0000022888184,8|0,3:0|0:0,0:0:0:0:
288,120,92729,2,0,L|348:76,1,60.0000022888184
356,200,92944,2,0,P|292:228|204:188,1,120.000004577637
192,132,93265,1,0,0:0:0:0:
60,52,93372,2,0,L|132:88,1,60.0000022888184,0|0,1:0|0:0,0:0:0:0:
60,204,93586,2,0,L|132:168,1,60.0000022888184
260,52,93801,2,0,P|296:112|248:228,1,180.000006866455
152,308,94229,6,0,P|120:280|112:240,1,60.0000022888184,2|0,0:3|0:3,0:3:0:0:
196,164,94444,2,0,P|208:208|192:240,1,60.0000022888184,2|0,0:3|0:3,0:3:0:0:
96,172,94658,2,0,P|92:132|104:96,1,60.0000022888184,2|0,0:3|0:3,0:3:0:0:
192,60,94872,2,0,L|252:32,1,60.0000022888184,2|0,0:3|0:3,0:3:0:0:
256,196,95086,6,0,L|384:200,1,120.000004577637
408,176,95372,1,0,0:0:0:0:
408,176,95444,1,0,0:0:0:0:
408,176,95515,6,0,L|448:56,1,120.000004577637
292,96,95944,6,0,L|352:44,2,60.0000022888184,8|0|0,0:3|0:0|0:0,0:0:0:0:
204,96,96265,2,0,B|200:156|200:156|136:232,1,120.000004577637
168,336,96586,2,0,L|148:272,1,60.0000022888184
88,232,96801,6,0,L|16:216,1,60.0000022888184,0|0,1:0|0:0,0:0:0:0:
80,120,97015,2,0,L|96:48,1,60.0000022888184
188,116,97229,2,0,L|260:132,1,60.0000022888184
256,156,97444,1,0,0:0:0:0:
256,156,97551,1,0,0:0:0:0:
320,224,97658,5,2,0:3:0:0:
408,64,97872,1,2,0:3:0:0:
312,220,98086,1,2,0:3:0:0:
320,32,98301,1,2,0:3:0:0:
304,216,98515,2,0,P|268:292|304:376,1,180.000006866455,2|2,0:3|0:3,0:0:0:0:
376,300,98944,2,0,L|456:304,1,60.0000022888184,2|0,0:3|0:0,0:0:0:0:
472,208,99158,2,0,L|392:204,1,60.0000022888184,2|0,0:3|0:0,0:0:0:0:
312,112,99372,6,0,B|252:128|252:128|188:204,1,120.000004577637,8|0,0:3|0:0,0:0:0:0:
108,248,99694,2,0,B|92:188|92:188|16:124,1,120.000004577637
112,72,100015,2,0,L|160:112,1,60.0000022888184
196,248,100229,6,0,L|200:168,1,60.0000022888184,0|0,1:0|0:0,0:0:0:0:
300,88,100444,2,0,L|216:132,1,60.0000022888184
240,332,100658,2,0,L|304:296,1,60.0000022888184
384,188,100872,2,0,L|320:224,1,60.0000022888184
220,160,101086,6,0,P|176:160|124:176,2,60.0000022888184,8|0|0,0:3|0:0|0:0,0:0:0:0:
308,140,101408,2,0,P|344:88|408:64,2,120.000004577637,8|8|0,0:3|0:3|0:0,0:0:0:0:
280,224,101944,2,0,L|304:320,2,60.0000022888184,0|0|0,1:0|0:0|0:0,0:0:0:0:
244,200,102211,1,0,0:0:0:0:
208,196,102265,1,0,0:0:0:0:
180,220,102319,1,0,0:0:0:0:
168,252,102372,6,0,L|188:376,1,120.000004577637,0|0,1:0|0:0,0:0:0:0:
72,288,102801,1,4,0:0:0:0:
256,192,114801,12,0,116301,0:0:0:0:
136,72,116515,6,0,L|92:176,1,88.000002685547,8|0,0:0|0:0,0:0:0:0:
220,288,116944,2,0,L|264:184,1,88.000002685547
364,64,117372,2,0,P|396:120|392:184,1,88.000002685547,0|2,0:0|0:3,0:0:0:0:
384,176,117694,1,0,0:0:0:0:
368,208,117801,2,0,P|424:240|488:236,1,88.000002685547,0|2,0:0|0:3,0:0:0:0:
232,260,118229,6,0,P|200:208|164:176,1,88.000002685547,0|2,0:0|0:3,0:0:0:0:
184,156,118551,1,0,0:0:0:0:
192,116,118658,2,0,P|244:84|276:48,1,88.000002685547,0|2,0:0|0:3,0:0:0:0:
432,96,119086,2,0,P|436:140|448:204,1,88.000002685547,0|2,0:0|0:3,0:0:0:0:
424,216,119408,1,0,0:0:0:0:
396,244,119515,2,0,P|400:288|412:352,1,88.000002685547
407,331,119944,5,0,0:0:0:0:
407,331,120372,1,0,0:0:0:0:
220,284,120801,2,0,L|240:192,1,88.000002685547,0|2,0:0|0:3,0:0:0:0:
216,172,121122,1,0,0:0:0:0:
204,132,121229,2,0,L|104:104,1,88.000002685547,0|2,0:0|0:3,0:0:0:0:
300,100,121658,6,0,P|312:156|340:212,1,88.000002685547,0|2,0:0|0:3,0:0:0:0:
356,220,121979,2,0,P|412:208|468:180,1,88.000002685547,0|2,0:0|0:3,0:0:0:0:
456,152,122301,2,0,P|444:96|416:40,1,88.000002685547,0|2,0:0|0:3,0:0:0:0:
432,67,122944,1,0,0:0:0:0:
256,76,123372,5,2,0:0:0:0:
228,92,123479,1,0,0:0:0:0:
212,124,123586,1,0,0:0:0:0:
216,160,123694,1,0,0:0:0:0:
244,184,123801,5,2,0:0:0:0:
280,176,123908,1,0,0:0:0:0:
300,144,124015,1,0,0:0:0:0:
332,128,124122,1,0,0:0:0:0:
368,140,124229,5,2,0:0:0:0:
388,172,124336,1,0,0:0:0:0:
384,208,124444,1,0,0:0:0:0:
360,240,124551,1,0,0:0:0:0:
352,272,124658,5,2,0:0:0:0:
368,312,124765,1,0,0:0:0:0:
404,324,124872,1,0,0:0:0:0:
440,300,124979,1,0,0:0:0:0:
448,264,125086,5,2,0:0:0:0:
420,228,125194,1,0,0:0:0:0:
388,224,125301,1,0,0:0:0:0:
352,244,125408,1,0,0:0:0:0:
320,252,125515,5,2,0:0:0:0:
288,236,125622,1,0,0:0:0:0:
264,204,125729,1,0,0:0:0:0:
256,168,125836,1,0,0:0:0:0:
276,132,125944,5,2,0:0:0:0:
312,120,126051,1,0,0:0:0:0:
340,92,126158,1,0,0:0:0:0:
340,56,126265,1,0,0:0:0:0:
312,24,126372,5,2,0:0:0:0:
276,20,126479,1,0,0:0:0:0:
244,44,126586,1,0,0:0:0:0:
228,76,126694,1,0,0:0:0:0:
192,96,126801,6,0,P|132:108|64:96,1,120.000004577637
128,28,127444,1,0,0:0:0:0:
160,184,127658,2,0,P|164:240|160:312,1,120.000004577637
264,304,128301,1,0,0:0:0:0:
272,88,128515,6,0,L|332:144,1,60.0000022888184,2|0,0:0|0:0,0:0:0:0:
424,228,128944,2,0,L|364:172,1,60.0000022888184,2|0,0:0|0:0,0:0:0:0:
372,64,129372,1,2,0:0:0:0:
248,188,129586,1,0,0:0:0:0:
192,288,129801,2,0,L|136:236,1,60.0000022888184,0|0,1:0|0:0,0:0:0:0:
40,144,130015,2,0,L|96:196,1,60.0000022888184,0|0,1:0|1:0,0:0:0:0:
192,288,130229,6,0,P|268:300|332:256,1,132.00000402832,2|2,0:0|0:0,0:0:0:0:
352,84,130872,1,0,0:0:0:0:
352,84,130979,1,0,0:0:0:0:
352,84,131086,2,0,L|392:188,1,88.000002685547,8|0,0:3|0:0,0:0:0:0:
100,272,131515,2,0,L|60:168,1,88.000002685547,8|0,0:3|0:0,0:0:0:0:
256,192,131944,6,0,P|228:144|232:80,1,88.000002685547
168,56,132265,2,0,L|96:192,1,132.00000402832
192,280,132801,1,0,0:0:0:0:
192,280,132908,1,0,0:0:0:0:
192,280,133015,2,0,P|256:304|312:300,1,88.000002685547
332,268,133336,1,0,0:0:0:0:
361,207,133444,1,0,0:0:0:0:
364,140,133551,1,0,0:0:0:0:
328,80,133658,6,0,P|228:120|196:128,1,132.00000402832,2|0,0:0|0:0,0:0:0:0:
100,164,134301,2,2,P|148:220|260:220,1,176.000005371094
337,341,134944,2,0,B|369:314|369:314|383:263|383:263|417:238,1,132.00000402832,2|0,0:0|0:0,0:0:0:0:
320,96,135586,1,0,0:0:0:0:
320,96,135801,6,0,P|272:136|212:144,1,88.000002685547
248,143,136069,2,0,L|240:171,2,22.0000006713867,2|2|2,0:0|0:0|0:0,0:0:0:0:
248,143,136229,6,0,P|292:175|320:251,1,132.00000402832
340,264,136658,1,0,0:0:0:0:
364,256,136765,1,0,0:0:0:0:
388,256,136872,1,0,0:0:0:0:
440,96,137086,6,0,B|388:128|388:128|292:140,1,132.00000402832
196,244,137729,2,2,P|140:196|136:88,1,176.000005371094
131,98,138265,1,0,0:0:0:0:
131,98,138373,6,0,P|136:188|156:216,1,88.000002685547
280,240,138801,2,0,P|288:156|268:120,1,88.000002685547
96,248,139229,2,0,P|88:332|108:368,1,88.000002685547
232,296,139658,5,0,0:0:0:0:
232,296,139765,1,0,0:0:0:0:
232,296,139872,2,0,L|280:192,1,88.000002685547
236,72,140301,1,0,0:0:0:0:
192,88,140408,1,0,0:0:0:0:
160,124,140515,6,0,P|148:188|184:276,1,132.00000402832,2|0,0:0|0:0,0:0:0:0:
292,204,141158,2,2,B|352:188|352:188|416:92,1,176.000005371094
104,120,141801,6,0,P|76:220|96:280,1,132.00000402832,2|0,0:0|0:0,0:0:0:0:
208,296,142336,1,0,0:0:0:0:
208,296,142444,2,0,P|284:300|324:300,2,88.000002685547,0|0|0,0:0|0:0|0:0,0:0:0:0:
168,268,142979,1,0,0:0:0:0:
140,232,143086,6,2,P|156:192|148:76,1,132.00000402832
224,52,143515,2,0,P|260:96|364:144,1,132.00000402832
372,200,143944,6,0,L|408:292,1,88.000002685547
216,192,144372,1,2,0:0:0:0:
216,192,144586,6,0,P|144:204|64:176,1,132.00000402832,2|0,0:0|0:0,0:0:0:0:
120,60,145015,2,0,L|152:120,1,44.0000013427735
152,128,145229,2,0,L|156:288,1,132.00000402832
240,312,145658,6,0,P|288:268|316:240,1,88.000002685547
176,112,146086,2,0,P|120:160|100:184,1,88.000002685547
272,184,146515,5,2,0:2:0:0:
336,124,146756,1,2,0:2:0:0:
352,200,146970,1,2,0:2:0:0:
260,104,147185,1,2,0:2:0:0:
144,80,147372,6,0,P|76:112|48:184,1,132.00000402832,2|2,0:0|0:0,0:0:0:0:
144,304,148015,2,2,B|240:248|240:248|304:240,1,176.000005371094
388,224,148658,6,0,P|320:156|260:168,1,132.00000402832,2|2,0:0|0:0,0:0:0:0:
176,224,149301,2,2,P|116:192|100:88,1,176.000005371094
192,128,149944,6,2,B|256:124|256:124|384:152,1,176.000005371094
280,276,150801,6,0,P|216:300|120:276,1,132.00000402832,2|2,0:0|0:0,0:0:0:0:
204,172,151444,2,0,L|252:80,1,88.000002685547
292,84,151765,6,0,L|328:48,2,44.0000013427735,0|0|0,0:0|0:0|0:0,0:0:0:0:
332,148,152086,2,0,B|400:168|400:168|452:252,1,132.00000402832
432,219,152515,6,0,P|436:156|432:108,1,88.000002685547
136,176,152944,2,0,P|132:239|136:287,1,88.000002685547
216,56,153372,5,2,0:3:0:0:
208,160,153586,1,2,0:3:0:0:
104,64,153801,1,0,0:0:0:0:
92,64,153872,1,0,0:0:0:0:
80,64,153944,1,0,0:0:0:0:
68,64,154015,1,0,0:0:0:0:
288,252,154229,6,0,P|344:252|420:208,1,132.00000402832,2|0,0:0|0:0,0:0:0:0:
352,76,154872,2,2,B|276:112|276:112|168:108,1,176.000005371094
132,244,155515,6,0,P|80:184|76:120,1,132.00000402832,2|0,0:0|0:0,0:0:0:0:
228,288,156158,2,2,P|320:272|392:224,1,176.000005371094
352,144,156801,2,2,P|292:192|224:204,1,132.00000402832
208,204,157229,6,2,L|120:204,1,88.000002685547
120,204,157658,1,4,0:1:0:0:
256,192,171372,5,4,0:0:0:0:
116,124,185086,6,0,L|216:108,1,80,2|0,0:0|0:0,0:0:0:0:
292,228,185515,2,0,L|192:244,1,80
344,72,185944,1,8,0:0:0:0:
440,232,186158,1,0,0:0:0:0:
300,144,186372,1,0,0:0:0:0:
416,116,186586,1,0,0:0:0:0:
188,264,186801,6,0,P|220:304|272:324,1,80
368,320,187229,2,0,P|408:288|428:236,1,80
232,192,187658,1,8,0:0:0:0:
184,120,187872,1,0,0:0:0:0:
136,264,188086,1,0,0:0:0:0:
188,40,188301,1,0,0:0:0:0:
188,40,188408,1,0,0:0:0:0:
188,40,188515,6,0,L|296:64,1,80,2|0,0:0|0:0,0:0:0:0:
160,188,188944,2,0,L|268:212,1,80,0|0,0:0|0:0,0:0:0:0:
160,188,189372,2,0,P|152:140|48:76,1,160,8|0,0:0|0:0,0:0:0:0:
188,40,190015,1,0,0:0:0:0:
232,108,190229,6,0,L|332:80,1,80,0|2,0:0|0:3,0:0:0:0:
309,86,190551,1,2,0:3:0:0:
309,86,190658,1,2,0:3:0:0:
309,86,190765,1,2,0:3:0:0:
244,296,191086,1,2,0:3:0:0:
224,268,191193,1,2,0:3:0:0:
224,232,191300,1,2,0:3:0:0:
240,200,191408,1,2,0:3:0:0:
264,180,191515,2,0,L|336:128,1,80,2|2,0:3|0:3,0:0:0:0:
256,192,191944,12,0,198801,0:0:0:0:
256,192,212086,5,0,0:0:0:0:
256,192,212229,1,0,0:0:0:0:
256,192,212372,1,0,0:0:0:0:
136,176,212515,6,0,L|100:228,2,53.3333333333333,8|0|0,0:3|0:0|0:0,0:0:0:0:
236,104,212944,2,0,L|272:52,2,53.3333333333333
200,328,213372,1,0,0:0:0:0:
416,176,213801,5,0,0:0:0:0:
352,124,213944,1,0,0:0:0:0:
348,44,214086,1,0,0:0:0:0:
196,68,214229,6,0,L|136:112,1,53.3333333333333,8|0,0:3|0:0,0:0:0:0:
416,176,214515,1,0,0:0:0:0:
304,112,214658,2,0,L|348:172,1,53.3333333333333
396,56,214944,1,0,0:0:0:0:
196,68,215086,1,0,0:0:0:0:
368,240,215515,5,0,0:0:0:0:
384,152,215658,1,0,0:0:0:0:
280,272,215801,1,0,0:0:0:0:
232,104,215944,6,0,L|172:64,2,53.3333333333333,8|0|0,0:3|0:0|0:0,0:0:0:0:
168,216,216372,2,0,L|128:276,2,53.3333333333333
104,124,216801,1,0,0:0:0:0:
424,280,217229,5,0,0:0:0:0:
416,200,217372,1,0,0:0:0:0:
224,120,217515,1,0,0:0:0:0:
368,80,217658,6,0,L|340:136,1,53.3333333333333,8|0,0:3|0:0,0:0:0:0:
324,244,217944,1,0,0:0:0:0:
144,304,218086,2,0,L|172:248,1,53.3333333333333
188,140,218372,1,0,0:0:0:0:
460,40,218515,1,0,0:0:0:0:
456,196,219372,6,0,L|452:132,1,53.3333333333333,8|0,0:3|0:0,0:0:0:0:
384,84,219658,1,0,0:0:0:0:
252,196,219801,2,0,L|248:268,1,53.3333333333333
196,100,220086,1,8,0:3:0:0:
416,156,220229,1,0,0:0:0:0:
200,308,220658,5,0,0:0:0:0:
112,260,220801,1,0,0:0:0:0:
248,168,220944,1,0,0:0:0:0:
292,276,221086,6,0,L|352:244,1,53.3333333333333,8|0,0:3|0:0,0:0:0:0:
148,160,221372,1,0,0:0:0:0:
204,96,221515,2,0,L|208:28,1,53.3333333333333
192,232,221801,1,8,0:3:0:0:
76,200,221944,1,0,0:0:0:0:
352,68,222372,5,0,0:0:0:0:
264,132,222515,1,0,0:0:0:0:
164,88,222658,1,0,0:0:0:0:
188,200,222801,6,0,L|132:216,1,53.3333333333333,8|0,0:3|0:0,0:0:0:0:
236,272,223086,1,0,0:0:0:0:
360,248,223229,2,0,L|384:176,1,53.3333333333333
136,308,223515,1,8,0:3:0:0:
96,136,223658,1,0,0:0:0:0:
404,96,224086,5,0,0:0:0:0:
312,56,224229,1,0,0:0:0:0:
328,160,224372,1,0,0:0:0:0:
240,116,224515,6,0,L|200:68,2,53.3333333333333,8|0|0,0:3|0:3|0:3,0:3:0:0:
208,180,224944,2,0,L|148:144,2,53.3333333333333,0|0|8,0:0|0:0|0:3,0:0:0:0:
280,52,225372,1,0,0:0:0:0:
376,232,225801,5,0,0:0:0:0:
312,164,225944,1,0,0:0:0:0:
288,252,226086,1,0,0:0:0:0:
324,216,226229,5,12,0:3:0:0:
324,216,226658,1,8,0:3:0:0:
324,216,227086,1,8,0:3:0:0:
180,160,227372,1,8,0:3:0:0:
248,104,227515,5,8,0:3:0:0:
248,104,227944,1,8,0:3:0:0:
248,104,228372,1,8,0:3:0:0:
248,104,228801,1,8,0:3:0:0:
404,160,229229,1,8,0:3:0:0:
368,228,229372,1,8,0:3:0:0:
292,248,229515,1,8,0:3:0:0:
224,208,229658,5,8,0:3:0:0:
296,76,230086,1,8,0:3:0:0:
132,200,230515,1,8,0:3:0:0:
88,76,230944,1,8,0:3:0:0:
164,52,231086,1,8,0:3:0:0:
220,104,231229,1,8,0:3:0:0:
220,184,231372,5,8,0:3:0:0:
104,272,231801,1,8,0:3:0:0:
104,272,232229,1,8,0:3:0:0:
416,80,233086,5,8,0:3:0:0:
384,152,233229,1,8,0:3:0:0:
416,224,233372,1,8,0:3:0:0:
372,288,233515,1,8,0:3:0:0:
212,248,233658,1,8,0:3:0:0:
244,176,233801,1,8,0:3:0:0:
164,184,233944,1,8,0:3:0:0:
188,48,234372,5,8,0:3:0:0:
88,112,234515,1,8,0:3:0:0:
188,156,234658,1,8,0:3:0:0:
88,224,234801,5,8,0:3:0:0:
188,156,234944,1,8,0:3:0:0:
192,256,235086,1,8,0:3:0:0:
188,156,235229,1,8,0:3:0:0:
280,216,235372,1,8,0:3:0:0:
188,156,235515,1,8,0:3:0:0:
288,112,235658,1,8,0:3:0:0:
432,180,236086,5,8,0:3:0:0:
432,180,236229,1,8,0:3:0:0:
432,180,236372,1,8,0:3:0:0:
384,60,236515,5,8,0:3:0:0:
272,192,236658,1,8,0:3:0:0:
152,72,236801,1,8,0:3:0:0:
388,244,236944,1,8,0:3:0:0:
160,232,237086,1,8,0:3:0:0:
272,192,237229,1,8,0:3:0:0:
272,192,237372,1,8,0:3:0:0:
268,72,237801,5,8,0:3:0:0:
168,124,237944,1,8,0:3:0:0:
96,216,238086,1,8,0:3:0:0:
144,328,238229,1,8,0:3:0:0:
272,296,238372,1,8,0:3:0:0:
336,184,238515,1,8,0:3:0:0:
416,300,238658,1,8,0:3:0:0:
268,72,238801,1,8,0:3:0:0:
60,324,238944,1,8,0:3:0:0:
240,212,239086,5,8,0:3:0:0:
172,136,239944,6,0,P|148:176|144:236,1,80.0000030517579,4|0,0:1|0:0,0:0:0:0:
244,212,240230,1,2,0:0:0:0:
320,140,240373,1,2,0:0:0:0:
172,136,240515,1,2,0:0:0:0:
336,228,240658,1,2,0:0:0:0:
336,228,240801,2,0,P|380:204|328:44,1,240,8|0,0:3|0:0,0:0:0:0:
236,56,241372,2,0,L|132:56,1,80.0000030517579
84,300,241657,5,8,0:3:0:0:
336,228,242086,1,8,0:3:0:0:
144,216,242372,2,0,P|176:248|184:296,1,80.0000030517579,0|8,0:3|0:3,0:0:0:0:
84,300,242658,1,0,0:0:0:0:
92,144,242801,1,0,0:0:0:0:
260,224,242944,2,0,P|228:176|132:112,1,160.000006103516,8|0,0:3|0:0,0:0:0:0:
320,68,243372,5,2,0:0:0:0:
392,144,243515,1,2,0:0:0:0:
424,244,243658,1,2,0:0:0:0:
400,344,243801,1,2,0:0:0:0:
480,156,243944,2,0,P|472:104|444:76,1,80.0000030517579,0|0,0:0|0:3,0:0:0:0:
336,216,244229,2,0,P|336:256|368:304,2,80.0000030517579,8|0|0,0:3|0:0|0:0,0:0:0:0:
248,160,244658,1,8,0:3:0:0:
312,76,244801,1,8,0:3:0:0:
400,132,244944,1,8,0:3:0:0:
336,216,245086,5,2,0:0:0:0:
336,216,245229,1,2,0:0:0:0:
336,216,245372,1,0,0:0:0:0:
248,160,245515,1,2,0:0:0:0:
248,160,245658,1,2,0:0:0:0:
248,160,245801,2,0,P|244:216|260:264,1,80.0000030517579,0|8,0:0|0:3,0:0:0:0:
176,92,246086,1,0,0:0:0:0:
176,92,246229,2,0,P|156:164|156:196,2,80.0000030517579,0|0|0,0:0|0:0|0:0,0:0:0:0:
60,292,246658,2,0,P|56:232|64:184,1,80.0000030517579,2|0,0:0|0:0,0:0:0:0:
64,112,246944,5,2,0:0:0:0:
248,160,247087,1,2,0:0:0:0:
168,88,247230,1,2,0:0:0:0:
412,128,247373,1,2,0:0:0:0:
312,88,247515,1,2,0:0:0:0:
476,72,247658,2,0,P|492:108|420:216,1,160.000006103516,8|0,0:3|0:0,0:0:0:0:
332,172,248086,5,8,0:3:0:0:
336,276,248229,1,8,0:3:0:0:
424,224,248372,1,8,0:3:0:0:
256,108,248515,1,2,0:0:0:0:
256,108,248658,1,2,0:0:0:0:
256,108,248801,1,0,0:0:0:0:
32,204,248943,1,2,0:0:0:0:
84,116,249086,1,2,0:0:0:0:
172,160,249229,6,0,P|220:200|272:200,1,80.0000030517579,0|8,0:0|0:3,0:0:0:0:
368,76,249515,2,0,P|328:124|328:176,1,80.0000030517579
348,260,249801,2,0,L|196:324,1,160.000006103516,8|0,0:3|0:0,0:0:0:0:
424,224,250229,5,2,0:0:0:0:
408,120,250372,1,2,0:0:0:0:
316,72,250515,1,2,0:0:0:0:
72,160,250658,1,2,0:0:0:0:
92,264,250801,1,2,0:0:0:0:
192,296,250944,1,2,0:0:0:0:
296,264,251086,6,0,L|272:236,1,26.6666666666667,2|0,0:3|0:0,0:0:0:0:
212,96,251372,2,0,L|232:128,1,26.6666666666667,2|0,0:3|0:0,0:0:0:0:
280,244,251658,1,2,0:3:0:0:
225,119,251801,1,0,0:0:0:0:
323,85,251944,6,0,L|406:87,2,80.0000030517579,2|2|0,0:0|0:0|0:0,0:0:0:0:
197,272,252372,2,0,L|103:273,2,80.0000030517579,2|2|0,0:0|0:0|0:0,0:0:0:0:
277,338,252801,1,8,0:3:0:0:
316,241,252944,2,0,L|410:242,1,80.0000030517579
244,148,253229,1,0,0:0:0:0:
160,84,253372,2,0,L|64:84,1,80.0000030517579
80,84,253658,1,4,0:0:0:0:
124,184,253801,5,2,0:0:0:0:
36,240,253944,1,2,0:0:0:0:
216,240,254086,1,2,0:0:0:0:
16,156,254229,1,2,0:0:0:0:
124,280,254372,1,2,0:0:0:0:
240,156,254515,1,2,0:0:0:0:
240,156,254944,6,0,P|284:188|296:232,1,80.0000030517579,2|2,0:0|0:0,0:0:0:0:
216,240,255229,1,2,0:0:0:0:
204,336,255372,2,0,P|152:308|124:260,2,80.0000030517579,4|2|8,0:0|0:0|0:3,0:0:0:0:
288,296,255801,2,0,P|308:232|296:192,2,80.0000030517579,4|2|8,0:0|0:0|0:3,0:0:0:0:
216,240,256229,1,0,0:0:0:0:
120,200,256372,2,0,P|152:152|160:104,1,80.0000030517579,8|0,0:3|0:0,0:0:0:0:
368,36,256658,2,0,P|344:92|352:144,1,80.0000030517579,8|0,0:3|0:0,0:0:0:0:
368,156,256872,1,0,0:0:0:0:
408,192,256944,1,0,0:0:0:0:
412,244,257015,1,0,0:0:0:0:
396,292,257086,5,2,0:0:0:0:
312,228,257229,1,2,0:0:0:0:
212,260,257372,1,2,0:0:0:0:
208,208,257444,1,2,0:0:0:0:
232,160,257515,1,2,0:0:0:0:
312,228,257658,5,2,0:0:0:0:
144,116,257801,1,2,0:0:0:0:
144,316,257944,1,2,0:0:0:0:
476,224,258086,1,0,0:0:0:0:
476,224,258229,1,0,0:0:0:0:
296,100,258372,1,8,0:3:0:0:
100,216,258515,1,8,0:3:0:0:
292,316,258658,1,8,0:3:0:0:
232,232,258801,5,8,0:3:0:0:
232,232,258944,2,0,P|288:216|384:256,1,160.000006103516,8|0,0:3|0:0,0:0:0:0:
420,256,259301,2,0,P|464:236|468:128,1,160.000006103516,8|0,0:3|0:0,0:0:0:0:
448,104,259658,2,0,L|332:104,1,80.0000030517579,2|2,0:0|0:0,0:0:0:0:
268,132,259944,1,2,0:0:0:0:
292,316,260086,1,2,0:0:0:0:
232,232,260229,1,2,0:0:0:0:
136,188,260372,2,0,P|124:232|132:268,2,80.0000030517579,0|2|2,0:0|0:0|0:0,0:0:0:0:
68,108,260801,5,2,0:0:0:0:
232,232,260944,1,2,0:0:0:0:
268,132,261086,1,2,0:0:0:0:
292,316,261229,1,2,0:0:0:0:
136,188,261372,2,0,P|160:72|40:16,1,240.000009155274,8|8,0:3|0:3,0:0:0:0:
68,108,261944,1,8,0:3:0:0:
44,208,262086,1,8,0:3:0:0:
120,280,262229,6,0,L|48:344,2,80.0000030517579,2|2|0,0:0|0:0|0:0,0:0:0:0:
384,120,262658,2,0,L|444:68,2,80.0000030517579,2|2|0,0:0|0:0|0:0,0:0:0:0:
312,192,263086,1,2,0:0:0:0:
220,140,263229,2,0,L|112:140,1,80.0000030517579,2|0,0:0|0:0,0:0:0:0:
84,52,263515,2,0,P|56:88|60:204,1,160.000006103516,8|0,0:3|0:0,0:0:0:0:
92,236,264015,5,0,0:0:0:0:
132,272,264086,1,2,0:0:0:0:
180,288,264158,1,2,0:0:0:0:
232,288,264229,1,2,0:0:0:0:
192,192,264372,1,2,0:0:0:0:
292,224,264515,1,2,0:0:0:0:
324,124,264658,1,2,0:0:0:0:
228,84,264801,2,0,L|144:84,2,80.0000030517579,2|2|0,0:3|0:3|0:0,0:0:0:0:
376,288,265229,2,0,L|464:288,2,80.0000030517579,2|2|0,0:3|0:3|0:0,0:0:0:0:
384,184,265658,5,0,1:0:0:0:
244,264,265801,1,0,1:0:0:0:
328,176,265944,1,0,1:0:0:0:
188,252,266086,1,0,1:0:0:0:
284,140,266229,1,0,1:0:0:0:
336,284,266372,1,0,1:0:0:0:
204,340,266515,5,0,1:0:0:0:
164,336,266586,1,0,1:0:0:0:
128,316,266658,1,0,1:0:0:0:
112,280,266729,1,0,1:0:0:0:
104,240,266801,1,0,1:0:0:0:
284,140,266944,1,0,1:0:0:0:
288,296,267086,1,0,1:0:0:0:
120,196,267229,1,0,1:0:0:0:
120,196,267301,1,0,1:0:0:0:
120,196,267372,6,0,P|124:140|112:112,2,66.6666666666667,0|0|0,1:0|0:0|0:0,0:0:0:0:
212,264,267801,2,0,B|244:248|244:248|260:204,2,66.6666666666667,0|0|0,1:0|0:0|0:0,0:0:0:0:
208,96,268229,1,0,1:0:0:0:
296,196,268372,1,0,0:0:0:0:
188,68,268515,1,0,0:0:0:0:
312,220,268658,2,0,L|244:204,1,66.6666666666667,0|0,1:0|0:0,0:0:0:0:
112,228,268944,1,0,0:0:0:0:
140,112,269086,6,0,L|157:40,2,66.6666666666667,0|0|0,1:0|0:0|0:0,0:0:0:0:
108,256,269515,2,0,L|91:328,2,66.6666666666667,0|0|0,1:0|0:0|0:0,0:0:0:0:
200,200,269944,1,0,1:0:0:0:
304,200,270086,1,0,0:0:0:0:
380,260,270229,1,0,0:0:0:0:
408,68,270372,2,0,P|384:112|388:144,1,66.6666666666667,0|0,1:0|0:0,0:0:0:0:
400,232,270658,1,0,0:0:0:0:
252,320,270801,6,0,L|168:304,1,66.6666666666667,0|0,1:0|0:0,0:0:0:0:
72,280,271086,1,0,0:0:0:0:
188,244,271229,2,0,L|272:228,1,66.6666666666667,0|0,1:0|0:0,0:0:0:0:
368,204,271514,1,0,0:0:0:0:
268,76,271658,2,0,P|276:128|300:156,2,66.6666666666667,0|0|0,1:0|0:0|0:0,0:0:0:0:
383,267,272086,2,0,P|375:215|351:187,2,66.6666666666667,0|0|0,1:0|0:0|0:0,0:0:0:0:
288,316,272515,5,0,1:0:0:0:
180,232,272658,1,0,0:0:0:0:
160,364,272801,1,0,0:0:0:0:
176,216,272944,2,0,P|132:184|104:180,1,66.6666666666667,0|0,1:0|0:0,0:0:0:0:
84,288,273229,1,0,0:0:0:0:
292,328,273372,2,0,P|336:360|364:364,1,66.6666666666667,0|0,1:0|0:0,0:0:0:0:
384,264,273658,1,0,0:0:0:0:
284,132,273801,1,0,1:0:0:0:
204,272,273944,1,0,0:0:0:0:
400,276,274086,1,0,0:0:0:0:
280,112,274229,6,0,L|264:32,2,66.6666666666667,0|0|0,1:0|0:0|0:0,0:0:0:0:
192,280,274658,2,0,L|128:331,2,66.6666666666667,0|0|0,1:0|0:0|0:0,0:0:0:0:
160,176,275086,1,0,1:0:0:0:
168,48,275229,1,0,0:0:0:0:
156,304,275372,1,0,0:0:0:0:
136,112,275515,2,0,L|72:56,1,66.6666666666667,0|0,1:0|0:0,0:0:0:0:
188,240,275801,1,0,0:0:0:0:
224,84,275944,5,0,1:0:0:0:
272,236,276086,2,0,L|296:312,1,66.6666666666667
316,88,276372,1,0,1:0:0:0:
364,240,276514,2,0,L|388:316,1,66.6666666666667
132,184,276801,2,0,P|104:216|96:256,2,66.6666666666667,0|0|0,1:0|0:0|0:0,0:0:0:0:
264,172,277229,2,0,P|292:140|300:100,2,66.6666666666667,0|0|0,1:0|0:0|0:0,0:0:0:0:
332,316,277658,5,0,1:0:0:0:
392,200,277801,1,0,0:0:0:0:
260,208,277944,1,0,0:0:0:0:
373,274,278086,1,0,1:0:0:0:
376,143,278229,1,0,0:0:0:0:
260,208,278372,1,0,0:0:0:0:
104,80,278515,6,0,L|76:160,1,66.6666666666667,0|0,1:0|0:0,0:0:0:0:
152,296,278801,1,0,0:0:0:0:
224,136,278944,2,0,L|196:56,1,66.6666666666667,0|0,1:0|0:0,0:0:0:0:
152,296,279229,1,0,0:0:0:0:
320,288,279372,5,0,1:0:0:0:
328,292,279515,1,0,0:0:0:0:
336,296,279658,1,0,0:0:0:0:
344,300,279801,2,0,P|396:240|384:168,1,133.333333333333,0|0,1:0|0:0,0:0:0:0:
224,64,280229,1,0,1:0:0:0:
196,256,280372,1,0,1:0:0:0:
184,68,280515,1,0,1:0:0:0:
220,272,280658,1,0,1:0:0:0:
312,336,280801,1,0,1:0:0:0:
416,264,280944,1,0,1:0:0:0:
400,104,281086,6,0,P|440:68|480:40,2,80.0000030517579,2|2|2,1:0|0:1|0:1,0:0:0:0:
312,120,281515,1,2,1:1:0:0:
372,192,281658,1,2,0:1:0:0:
460,168,281801,1,2,0:1:0:0:
136,64,281944,6,0,L|80:152,2,80.0000030517579,2|0|0,1:0|0:0|0:0,0:0:0:0:
176,192,282372,1,0,1:0:0:0:
208,32,282515,1,0,0:0:0:0:
232,112,282658,1,0,0:0:0:0:
128,288,282801,6,0,P|96:256|72:216,2,80.0000030517579,0|0|0,1:0|0:0|0:0,0:0:0:0:
304,304,283229,1,0,1:0:0:0:
332,184,283372,1,0,0:0:0:0:
208,220,283515,1,0,0:0:0:0:
400,260,283658,6,0,L|456:200,1,80.0000030517579,0|0,1:0|0:0,0:0:0:0:
308,84,283944,2,0,L|252:144,1,80.0000030517579,0|0,0:0|1:0,0:0:0:0:
316,220,284229,2,0,L|372:160,1,80.0000030517579
172,112,284515,6,2,L|96:188,2,80.0000030517579,2|2|2,1:1|0:1|0:1,0:1:0:0:
272,136,284944,1,2,1:1:0:0:
360,104,285086,1,2,0:1:0:0:
428,156,285229,1,2,0:1:0:0:
256,296,285372,6,0,P|200:284|144:288,2,80.0000030517579,2|0|0,1:0|0:0|0:0,0:0:0:0:
204,212,285801,1,0,1:0:0:0:
108,304,285944,1,0,0:0:0:0:
328,336,286086,1,0,0:0:0:0:
180,128,286229,6,0,P|116:144|72:128,2,80.0000030517579,0|0|0,1:0|0:0|0:0,0:0:0:0:
264,84,286658,1,0,1:0:0:0:
260,176,286801,1,0,0:0:0:0:
188,40,286944,1,0,0:0:0:0:
136,240,287086,6,0,L|64:320,2,80.0000030517579,0|0|0,1:0|0:0|0:0,0:0:0:0:
220,260,287515,1,0,1:0:0:0:
364,212,287658,1,0,1:0:0:0:
296,280,287801,1,0,1:0:0:0:
192,176,287944,6,0,P|140:120|164:24,1,160.000006103516,6|2,1:1|0:1,0:1:0:0:
236,88,288372,1,2,1:1:0:0:
308,136,288515,1,2,0:1:0:0:
388,140,288658,1,2,0:1:0:0:
176,304,288801,6,0,L|112:248,2,80.0000030517579,2|0|0,1:1|0:1|0:1,0:1:0:0:
104,160,289229,1,0,1:0:0:0:
296,240,289372,1,0,0:0:0:0:
216,168,289515,1,0,0:0:0:0:
156,100,289658,6,0,P|120:76|92:44,2,80.0000030517579,0|0|0,1:0|0:0|0:0,0:0:0:0:
276,184,290086,1,0,1:0:0:0:
336,64,290229,1,0,0:0:0:0:
200,68,290372,1,0,0:0:0:0:
372,192,290515,2,0,P|404:224|452:260,1,80.0000030517579,0|0,1:0|0:0,0:0:0:0:
464,92,290801,2,0,P|432:60|384:24,1,80.0000030517579,0|0,0:0|1:0,0:0:0:0:
268,268,291086,2,0,P|300:300|348:336,1,80.0000030517579
320,176,291372,5,2,1:1:0:0:
276,56,291515,1,2,0:1:0:0:
180,148,291658,1,2,0:1:0:0:
318,171,291801,1,2,1:1:0:0:
266,54,291944,1,2,0:1:0:0:
177,153,292087,1,2,0:1:0:0:
317,167,292229,5,2,1:1:0:0:
256,54,292372,1,0,0:0:0:0:
174,159,292515,1,0,0:0:0:0:
315,163,292658,1,0,1:0:0:0:
247,54,292801,1,0,0:0:0:0:
172,164,292944,1,0,0:0:0:0:
80,192,293086,6,0,L|80:284,2,80.0000030517579,0|0|0,1:0|0:0|0:0,0:0:0:0:
148,112,293515,2,0,L|148:20,2,80.0000030517579,0|0|0,1:0|0:0|0:0,0:0:0:0:
224,240,293944,5,0,1:0:0:0:
408,288,294086,1,0,1:0:0:0:
464,104,294229,1,0,1:0:0:0:
284,56,294372,1,0,1:0:0:0:
304,312,294515,1,0,0:0:0:0:
488,208,294658,1,0,1:0:0:0:
104,56,294801,6,2,P|72:124|68:156,1,80.0000030517579,6|2,1:1|0:1,0:1:0:0:
152,176,295086,1,2,0:1:0:0:
368,144,295229,1,2,1:1:0:0:
232,28,295372,1,2,0:1:0:0:
268,228,295515,1,2,0:1:0:0:
436,284,295658,6,0,L|460:200,1,80.0000030517579,2|0,1:1|0:1,0:1:0:0:
340,120,295944,1,0,0:0:0:0:
152,232,296086,1,0,1:0:0:0:
336,296,296229,1,0,0:0:0:0:
176,88,296372,1,0,0:0:0:0:
64,240,296515,6,0,P|92:296|136:312,1,80.0000030517579,0|0,1:0|0:0,0:0:0:0:
280,268,296801,1,0,0:0:0:0:
304,76,296944,1,0,1:0:0:0:
96,56,297086,1,0,0:0:0:0:
84,252,297229,1,0,0:0:0:0:
360,244,297372,6,0,L|432:180,1,80.0000030517579,0|0,1:0|0:0,0:0:0:0:
260,124,297658,2,0,P|228:92|200:68,3,80.0000030517579,0|0|0|0,0:0|1:0|0:0|0:0,0:0:0:0:
388,116,298229,6,2,L|460:48,1,80.0000030517579,2|2,1:1|0:1,0:1:0:0:
300,212,298515,1,2,0:1:0:0:
216,284,298658,1,2,1:1:0:0:
96,292,298801,1,2,0:1:0:0:
16,220,298944,1,2,0:1:0:0:
144,108,299086,6,2,L|88:36,1,80.0000030517579,2|0,1:1|0:1,0:1:0:0:
304,96,299372,1,0,0:0:0:0:
396,200,299515,1,0,1:0:0:0:
336,320,299658,1,0,0:0:0:0:
212,348,299801,1,0,0:0:0:0:
100,288,299944,6,0,P|124:244|128:212,1,80.0000030517579,0|0,1:0|0:0,0:0:0:0:
372,188,300229,1,0,0:0:0:0:
324,44,300372,1,0,1:0:0:0:
480,76,300515,1,0,0:0:0:0:
356,184,300658,1,0,0:0:0:0:
340,48,300801,5,0,1:0:0:0:
480,92,300944,1,0,0:0:0:0:
336,180,301086,1,0,0:0:0:0:
356,52,301229,1,0,1:0:0:0:
480,104,301372,1,0,1:0:0:0:
316,176,301515,1,0,1:0:0:0:
176,112,301658,6,2,L|88:144,1,80.0000030517579,6|2,1:1|0:1,0:1:0:0:
192,284,301944,1,2,0:1:0:0:
264,92,302086,1,2,1:1:0:0:
104,236,302229,1,2,0:1:0:0:
320,256,302372,1,2,0:1:0:0:
400,112,302515,6,2,L|328:56,1,80.0000030517579,2|0,1:1|0:1,0:1:0:0:
140,172,302801,1,0,0:0:0:0:
296,316,302944,1,0,1:0:0:0:
304,124,303086,1,0,0:0:0:0:
152,284,303229,1,0,0:0:0:0:
72,120,303372,6,0,L|56:212,1,80.0000030517579,0|0,1:0|0:0,0:0:0:0:
224,336,303658,1,0,0:0:0:0:
424,184,303801,1,0,1:0:0:0:
216,72,303944,1,0,0:0:0:0:
120,216,304086,1,0,0:0:0:0:
364,288,304229,6,0,L|440:340,1,80.0000030517579,0|0,1:0|0:0,0:0:0:0:
312,224,304515,1,0,0:0:0:0:
280,200,304658,1,0,1:0:0:0:
256,168,304801,1,0,0:0:0:0:
256,128,304944,1,0,0:0:0:0:
48,32,305086,6,0,L|48:100,1,53.3333333333333,6|0,0:0|0:0,0:0:0:0:
88,336,305372,2,0,L|88:260,1,63.9999980468751,6|0,0:0|0:0,0:0:0:0:
356,28,305658,2,0,L|360:128,1,74.6666643880209,6|0,0:0|0:0,0:0:0:0:
400,344,305944,2,0,L|400:232,1,77.3333356933594,6|0,0:0|0:0,0:0:0:0:
108,36,306229,2,0,L|108:140,1,80.0000030517579,6|0,0:0|0:0,0:0:0:0:
336,328,306515,2,0,L|336:208,1,106.666666666667,6|0,0:0|0:0,0:0:0:0:
256,192,306801,12,0,308301,0:0:0:0:
92,68,308515,6,0,L|88:144,1,60.0000022888184,4|0,0:0|0:0,0:0:0:0:
180,228,308944,2,0,L|184:152,1,60.0000022888184,0|0,0:0|0:0,0:0:0:0:
280,96,309372,1,0,1:0:0:0:
388,64,309586,1,0,0:0:0:0:
380,204,309801,2,0,P|420:176|436:156,1,60.0000022888184,8|0,0:3|0:0,0:0:0:0:
276,244,310229,2,0,P|304:284|324:300,1,60.0000022888184
292,136,310658,2,0,P|243:127|218:130,1,60.0000022888184,8|8,0:3|0:3,0:0:0:0:
116,160,311086,2,0,P|112:108|156:40,1,120.000004577637,0|0,1:0|0:0,0:0:0:0:
143,49,311729,1,0,0:0:0:0:
336,172,311944,6,0,P|368:183|400:192,1,60.0000022888184,8|0,0:3|0:0,0:0:0:0:
264,80,312372,2,0,P|231:68|200:60,1,60.0000022888184
232,184,312801,1,0,1:0:0:0:
136,240,313015,1,0,0:0:0:0:
108,140,313229,2,0,L|72:96,4,30.0000011444092,0|0|0|0|0,0:0|0:0|0:0|0:0|0:0,0:0:0:0:
248,284,313658,6,0,L|312:288,1,60.0000022888184,8|0,0:3|0:0,0:0:0:0:
384,200,314086,2,0,L|388:136,1,60.0000022888184
272,68,314515,1,0,1:0:0:0:
136,144,314729,2,0,P|120:200|136:264,1,120.000004577637,0|0,2:3|0:0,2:0:0:0:
133,259,315051,1,0,0:0:0:0:
133,259,315158,1,0,0:0:0:0:
133,259,315265,1,0,0:0:0:0:
292,224,315372,6,0,P|336:196|288:36,1,240.000009155274,8|0,0:3|0:0,0:0:0:0:
264,128,316658,1,0,0:0:0:0:
264,128,316872,2,0,B|144:64|144:176|24:112,1,240.000009155274,8|0,0:3|0:0,0:0:0:0:
128,272,318158,2,0,L|112:260,2,15.0000005722046
208,280,318372,1,0,0:0:0:0:
180,200,318586,1,0,0:0:0:0:
96,192,318801,6,0,L|40:152,1,60.0000022888184,8|0,0:3|0:0,0:0:0:0:
144,48,319229,2,0,L|200:88,2,60.0000022888184,0|0|0,0:0|0:0|1:0,0:0:0:0:
332,80,319872,1,0,0:0:0:0:
332,80,320086,2,0,L|336:104,8,15.0000005722046,0|0|0|0|0|0|0|0|0,0:0|0:0|0:0|0:0|0:0|0:0|0:0|0:0|0:0,0:0:0:0:
256,192,320622,12,0,322015,0:0:0:0:
108,96,322229,6,0,L|168:124,1,60.0000022888184,4|0,0:0|0:0,0:0:0:0:
256,96,322658,2,0,L|284:36,1,60.0000022888184
368,100,323086,2,0,L|396:40,1,60.0000022888184,0|0,1:0|0:0,0:0:0:0:
256,96,323515,2,0,L|228:156,1,60.0000022888184
292,236,323944,6,0,P|240:256|164:236,1,120.000004577637,0|0,0:0|0:0,0:0:0:0:
92,112,324586,1,0,0:0:0:0:
108,108,324801,2,0,B|172:92|172:92|252:92,1,120.000004577637,0|0,1:0|0:0,0:0:0:0:
316,140,325444,1,0,0:0:0:0:
108,280,325658,6,0,L|112:204,1,60.0000022888184
216,208,326086,2,0,L|212:284,1,60.0000022888184
320,212,326515,1,0,1:0:0:0:
320,212,326729,1,0,0:0:0:0:
320,212,326944,2,0,L|344:192,4,30.0000011444092,0|0|0|0|0,0:0|0:0|0:0|0:0|0:0,0:0:0:0:
168,104,327372,6,0,L|112:68,1,60.0000022888184
320,212,327801,2,0,L|376:248,1,60.0000022888184
228,248,328229,2,0,P|220:212|268:124,1,120.000004577637,0|0,1:0|0:0,0:0:0:0:
432,288,329086,6,0,L|356:292,1,60.0000022888184,0|0,1:0|0:0,0:0:0:0:
308,224,329515,2,0,L|232:228,1,60.0000022888184
152,132,329944,2,0,P|232:120|292:120,1,120.000004577637,0|0,1:0|1:0,0:0:0:0:
360,144,330586,2,0,P|360:88|304:32,1,120.000004577637,0|0,1:0|0:0,0:0:0:0:
360,144,331229,2,0,L|420:192,1,60.0000022888184
348,268,331658,2,0,P|276:272|200:192,1,180.000006866455,0|0,1:0|0:0,0:0:0:0:
332,100,332515,6,0,L|404:72,1,60.0000022888184,0|0,1:0|0:0,0:0:0:0:
436,188,332944,2,0,L|364:216,1,60.0000022888184
280,240,333372,2,0,P|328:288|352:308,1,90.0000034332277,0|0,1:0|0:0,0:0:0:0:
280,240,333801,2,0,L|256:244,4,15.0000005722046,0|0|0|0|0,1:0|1:0|1:0|1:0|1:0,1:0:0:0:
256,192,334229,12,0,335729,0:0:0:0:
116,72,335944,6,0,L|80:132,1,60.0000022888184
60,248,336372,2,0,P|92:228|104:192,1,60.0000022888184
192,144,336801,1,0,0:0:0:0:
304,168,337015,1,0,0:0:0:0:
224,264,337229,1,0,0:0:0:0:
116,228,337444,1,0,0:0:0:0:
192,144,337658,6,0,L|212:76,1,60.0000022888184
224,264,338086,2,0,L|204:332,1,60.0000022888184
116,228,338515,1,0,0:0:0:0:
304,168,338729,1,0,0:0:0:0:
412,276,339158,1,0,0:0:0:0:
296,260,339372,6,0,P|264:296|236:312,1,60.0000022888184
188,232,339801,2,0,P|152:200|136:172,1,60.0000022888184
272,152,340229,1,0,0:0:0:0:
204,340,340444,1,0,0:0:0:0:
108,288,340658,1,0,0:0:0:0:
184,92,340872,1,0,0:0:0:0:
188,224,341086,6,0,P|152:196|64:192,1,120.000004577637
52,164,341622,2,0,L|20:136,2,30.0000011444092
52,252,341944,2,0,L|96:240,1,30.0000011444092
148,284,342158,2,0,L|184:312,1,30.0000011444092
252,272,342372,2,0,P|268:240|264:196,1,60.0000022888184
320,88,342801,6,0,L|356:148,1,60.0000022888184
360,256,343229,2,0,L|300:292,1,60.0000022888184
216,216,343658,1,0,0:0:0:0:
88,84,343872,1,0,0:0:0:0:
128,200,344086,1,0,0:0:0:0:
36,156,344301,1,0,0:0:0:0:
40,268,344515,6,0,P|72:300|108:308,1,60.0000022888184
212,140,344944,2,0,P|180:108|144:100,1,60.0000022888184
128,200,345372,1,0,0:0:0:0:
224,244,345586,2,0,L|264:248,2,30.0000011444092
36,156,346015,1,0,0:0:0:0:
176,64,346229,6,0,P|216:80|244:72,1,60.0000022888184
280,156,346658,2,0,P|240:172|212:164,1,60.0000022888184
120,152,347086,2,0,L|108:280,1,120.000004577637
208,80,347729,1,0,0:0:0:0:
220,184,347944,2,0,P|280:152|308:92,1,120.000004577637
304,108,348801,1,0,0:0:0:0:
400,68,349658,6,0,P|348:200|204:144,1,320
256,192,351444,12,0,352872,0:0:0:0:
124,100,353086,6,0,P|156:116|184:144,1,60.0000022888184,4|0,0:0|0:0,0:0:0:0:
144,276,353515,2,0,P|160:244|188:216,1,60.0000022888184
248,176,353944,2,0,P|292:168|320:152,2,60.0000022888184,0|0|0,1:0|0:0|0:0,0:0:0:0:
96,184,354586,1,0,0:0:0:0:
180,96,354801,1,0,0:0:0:0:
272,252,355015,1,0,0:0:0:0:
76,80,355229,1,0,0:0:0:0:
172,272,355444,1,0,0:0:0:0:
268,156,355658,1,0,1:0:0:0:
208,204,356086,1,0,0:0:0:0:
416,276,356515,6,0,L|436:216,1,60.0000022888184
312,180,356944,2,0,L|292:240,1,60.0000022888184
384,124,357372,2,0,P|336:88|264:104,1,120.000004577637,0|0,1:0|0:0,0:0:0:0:
256,124,357854,2,0,L|244:144,3,15.0000005722046
140,116,358229,6,0,L|100:64,1,60.0000022888184
244,84,358657,2,0,L|204:32,1,60.0000022888184
308,152,359086,2,0,P|304:208|236:264,1,120.000004577637,0|0,1:0|0:0,0:0:0:0:
263,254,359622,1,0,0:0:0:0:
263,254,359729,1,0,0:0:0:0:
263,254,359836,1,0,0:0:0:0:
152,168,359944,6,0,L|108:124,1,60.0000022888184
196,52,360372,2,0,L|240:96,1,60.0000022888184
248,208,360801,1,0,1:0:0:0:
196,304,361015,1,0,0:0:0:0:
320,308,361229,2,0,L|368:256,1,60.0000022888184
360,152,361658,2,0,L|308:104,1,60.0000022888184
92,212,362086,1,0,0:0:0:0:
200,48,362301,1,0,0:0:0:0:
248,208,362515,1,0,1:0:0:0:
252,216,362944,1,0,0:0:0:0:
412,92,363372,6,0,P|388:120|380:156,1,60.0000022888185
364,264,363801,2,0,P|336:240|300:232,1,60.0000022888185
140,124,364229,1,0,1:0:0:0:
160,260,364444,1,0,0:0:0:0:
292,112,364658,2,0,L|304:96,4,15.0000005722046
256,192,365086,5,0,0:0:0:0:
160,224,365515,2,0,P|156:172|200:108,2,120.000004577637
256,192,366801,1,4,0:0:0:0:
