osu file format v13

[General]
AudioFilename: Infected Mushroom Savant on Mushrooms (feat. Savant).mp3
AudioLeadIn: 0
PreviewTime: 58212
Countdown: 0
SampleSet: Normal
StackLeniency: 0.7
Mode: 0
LetterboxInBreaks: 0
WidescreenStoryboard: 0

[Editor]
Bookmarks: 131176
DistanceSpacing: 1.1
BeatDivisor: 4
GridSize: 4
TimelineZoom: 1.9

[Metadata]
Title:Savant on Mushrooms (feat. Savant)
TitleUnicode:Savant on Mushrooms (feat. Savant)
Artist:Infected Mushroom
ArtistUnicode:Infected Mushroom
Creator:AlexaBM
Version:Easy
Source:
Tags:Shadren Friends on Mushrooms featuring Aleksander Vinter halfstep dubstep drumstep trap
BeatmapID:481343
BeatmapSetID:203737

[Difficulty]
HPDrainRate:2
CircleSize:3
OverallDifficulty:2
ApproachRate:3
SliderMultiplier:0.8
SliderTickRate:1

[Events]
//Background and Video events
0,0,"bg.jpg",0,0
//Break Periods
2,55091,56605
2,85948,98022
//Storyboard Layer 0 (Background)
//Storyboard Layer 1 (Fail)
//Storyboard Layer 2 (Pass)
//Storyboard Layer 3 (Foreground)
//Storyboard Sound Samples
//Background Colour Transformations
3,100,163,162,255

[TimingPoints]
34,428.571428571429,4,1,1,60,1,0
27462,-100,4,2,1,60,0,0
54891,-100,4,1,1,20,0,0
58319,-100,4,1,1,50,0,1
85748,-100,4,1,1,65,0,0
113176,-100,4,1,1,50,0,1
140605,-100,4,1,1,60,0,0

[Colours]
Combo1 : 73,205,152
Combo2 : 32,193,182
Combo3 : 65,139,72
Combo4 : 214,74,7
Combo5 : 224,180,24

[HitObjects]
292,84,27462,5,4,3:0:0:0:
213,127,27891,2,0,P|174:136|136:128,2,80,0|8|2,0:0|0:0|0:0,0:0:0:0:
292,84,29176,2,0,L|464:80,2,160,4|8|4,3:0|0:0|3:0,0:0:0:0:
204,92,31319,5,0,0:0:0:0:
140,152,31748,2,0,L|120:244,1,80,8|2,0:0|0:0,0:0:0:0:
152,312,32605,2,0,P|192:324|228:316,1,80,0|4,0:0|0:0,0:0:0:0:
304,272,33462,2,0,P|341:260|380:268,1,80,4|8,0:0|0:0,0:0:0:0:
432,340,34319,6,0,B|436:224|436:224|416:176,1,160,4|8,3:0|0:0,0:0:0:0:
352,128,35605,1,0,0:0:0:0:
276,172,36034,2,0,L|264:252,1,80,0|8,0:0|0:0,0:0:0:0:
232,332,36891,1,8,0:0:0:0:
144,336,37319,1,2,0:0:0:0:
84,272,37748,6,0,B|52:216|52:216|60:112,1,160,4|8,0:0|0:0,0:0:0:0:
100,44,39034,1,0,0:0:0:0:
188,32,39462,2,0,B|228:40|254:76|254:76|288:90|336:60,1,160,0|8,0:0|0:0,0:0:0:0:
412,32,40748,1,0,0:0:0:0:
476,92,41176,6,0,L|448:264,1,160,4|8,3:0|0:0,0:0:0:0:
288,320,42891,2,0,L|313:162,1,160,4|12,0:0|0:0,0:0:0:0:
324,76,44176,1,0,0:0:0:0:
248,28,44605,6,0,P|204:28|164:44,1,80,4|0,3:0|0:0,0:0:0:0:
132,120,45462,2,0,P|94:132|54:132,1,80,8|0,0:0|0:0,0:0:0:0:
4,60,46319,2,0,B|26:179|26:179|56:224,1,160,4|4,0:0|0:0,0:0:0:0:
108,276,47605,1,0,0:0:0:0:
184,232,48034,6,0,B|246:205|299:245|299:245|353:288|415:256,1,240,2|0,0:0|0:0,0:0:0:0:
464,188,49748,2,0,L|452:104,1,80,2|2,0:0|0:0,0:0:0:0:
384,52,50605,2,0,P|336:48|292:68,1,80,0|8,0:0|0:0,0:0:0:0:
256,192,51462,12,0,54891,2:0:0:0:
64,218,58319,6,0,P|132:266|208:242,1,160,4|0,0:0|1:2,0:0:0:0:
268,190,59605,1,0,0:0:0:0:
340,242,60034,2,2,L|352:336,2,80,8|8|4,0:2|0:0|0:2,0:0:0:0:
320,68,61748,6,0,B|282:78|264:120|264:120|230:80|180:90,1,160,4|12,3:0|0:2,0:0:0:0:
112,124,63034,1,0,0:0:0:0:
60,196,63462,2,2,B|48:236|48:236|60:284,1,80,4|4,0:2|0:2,0:0:0:0:
120,336,64319,2,0,B|160:348|160:348|208:336,1,80,10|0,0:0|0:0,0:0:0:0:
268,288,65176,6,0,P|344:252|416:296,1,160,2|4,3:0|0:2,0:0:0:0:
488,128,66891,2,2,L|500:48,2,80,8|0|6,0:0|0:0|0:2,0:0:0:0:
460,212,68176,1,6,0:2:0:0:
408,284,68605,6,0,P|356:292|328:284,1,80,4|2,0:0|0:0,0:0:0:0:
264,228,69462,2,0,L|168:224,1,80,4|0,0:0|0:0,0:0:0:0:
96,212,70319,2,2,B|40:188|40:188|8:140|36:84,1,160,4|4,0:2|0:2,0:0:0:0:
199,39,72034,6,0,L|279:43,1,80,4|0,0:0|0:0,0:0:0:0:
348,92,72891,2,0,P|385:103|423:92,1,80,4|4,0:2|0:2,0:0:0:0:
492,36,73748,2,2,P|460:115|472:204,1,160,4|4,0:0|0:0,0:0:0:0:
495,273,75034,1,0,0:0:0:0:
436,340,75462,6,0,P|356:356|268:340,1,160,4|4,0:0|0:2,0:0:0:0:
208,296,76748,1,0,0:0:0:0:
156,224,77176,2,2,B|137:188|137:188|152:151|152:151|138:113|138:113|162:72,1,160,4|4,0:0|0:0,0:0:0:0:
224,20,78462,1,12,0:2:0:0:
308,52,78891,6,0,B|344:73|340:120|340:120|336:168|377:199,1,160,4|8,0:0|0:0,0:0:0:0:
440,244,80176,1,0,0:0:0:0:
384,312,80605,2,0,B|308:336|308:336|228:320,1,160,2|8,0:0|3:0,0:0:0:0:
148,292,81891,1,8,3:0:0:0:
160,204,82319,6,0,B|173:164|220:159|220:159|267:153|290:108,1,160,4|4,3:0|0:0,0:0:0:0:
432,24,84034,2,0,P|468:60|472:96,1,80,4|0,0:0|0:0,0:0:0:0:
460,176,84891,2,0,P|434:206|396:216,1,80,4|4,3:0|3:0,0:0:0:0:
316,188,85748,5,4,0:2:0:0:
124,156,99462,5,4,0:0:0:0:
196,208,99891,2,0,P|237:220|280:212,1,80,0|0,1:0|1:0,0:0:0:0:
360,204,100748,2,0,L|380:292,2,80,0|0|4,1:0|1:0|1:2,0:0:0:0:
312,132,102034,1,0,1:0:0:0:
226,112,102462,1,2,0:1:0:0:
144,148,102891,6,0,P|120:186|120:236,1,80,4|4,3:0|1:2,0:0:0:0:
156,300,103748,2,0,B|181:332|181:332|232:348,1,80,0|0,1:0|1:0,0:0:0:0:
308,340,104605,2,0,B|392:352,2,80,0|0|4,1:0|1:0|1:3,0:0:0:0:
224,316,105891,1,2,0:1:0:0:
256,192,106319,12,4,109748,3:0:0:0:
140,308,111462,5,4,3:0:0:0:
220,344,111891,2,0,P|264:348|308:336,2,80,0|4|4,0:0|3:0|0:2,0:0:0:0:
140,308,113176,6,0,B|112:288|104:256|104:256|120:200|88:164,1,160,4|12,1:0|1:2,0:0:0:0:
20,112,114462,1,0,0:0:0:0:
80,48,114891,2,0,B|110:34|136:32|136:32|184:41|184:41|216:28|252:36,1,160,4|4,3:0|0:2,0:0:0:0:
320,56,116176,1,4,0:0:0:0:
405,36,116605,6,0,B|433:60|433:88|433:88|401:136|409:200,1,160,4|12,0:0|1:2,0:0:0:0:
453,257,117891,2,0,L|511:233,2,60,4|4|8,3:0|3:0|0:0,0:0:0:0:
427,293,118748,2,0,P|380:302|347:296,1,80,12|4,1:2|1:2,0:0:0:0:
293,129,120034,6,0,P|201:133|141:185,1,160,4|8,0:0|0:0,0:0:0:0:
112,252,121319,1,4,0:2:0:0:
149,331,121748,1,4,3:0:0:0:
236,312,122176,2,0,L|328:320,1,80,4|8,0:0|0:0,0:0:0:0:
386,372,123034,1,12,1:2:0:0:
464,332,123462,6,0,B|492:308|492:280|492:280|460:232|468:168,1,160,4|12,0:0|1:2,0:0:0:0:
488,100,124748,2,0,P|499:65|500:32,2,60,4|4|8,3:0|3:0|0:0,0:0:0:0:
444,104,125605,2,0,L|360:88,1,80,12|4,1:2|1:2,0:0:0:0:
279,67,126462,1,0,2:0:0:0:
191,60,126891,5,4,1:0:0:0:
112,104,127319,2,0,B|87:136|87:136|68:184,1,80,0|12,0:0|0:2,0:0:0:0:
56,260,128176,1,6,0:3:0:0:
124,316,128605,2,0,B|162:322|162:322|201:309,1,80,4|4,0:0|3:0,0:0:0:0:
280,268,129462,2,0,B|319:255|319:255|372:264,1,80,4|0,0:2|3:0,0:0:0:0:
425,316,130319,5,4,0:0:0:0:
377,146,131176,2,0,P|356:89|283:56,2,140,12|4|2,0:2|3:0|0:0,0:0:0:0:
354,184,132891,2,0,P|312:198|267:192,1,80,12|0,0:0|0:0,0:0:0:0:
208,139,133748,6,0,L|118:139,1,80,4|0,1:0|0:0,0:0:0:0:
60,200,134605,1,12,0:2:0:0:
15,275,135034,1,4,0:3:0:0:
71,342,135462,2,0,P|115:346|155:330,1,80,4|4,0:0|3:0,0:0:0:0:
215,278,136319,2,0,P|252:265|292:270,1,80,12|2,1:2|0:0,0:0:0:0:
359,326,137176,6,0,B|418:350|418:350|519:322,2,160,4|12|12,0:0|0:2|0:2,0:0:0:0:
295,266,139319,1,4,0:0:0:0:
231,206,139748,2,0,B|211:170|227:130|227:130|223:90|187:62,1,160,4|4,0:0|0:0,0:0:0:0:
