osu file format v12

[General]
AudioFilename: Infected_Mushroom_-_Pink_Nightmares.mp3
AudioLeadIn: 1000
PreviewTime: 54388
Countdown: 0
SampleSet: Normal
StackLeniency: 0.7
Mode: 0
LetterboxInBreaks: 1

[Editor]
DistanceSpacing: 0.6
BeatDivisor: 4
GridSize: 4

[Metadata]
Title:Pink Nightmares
TitleUnicode:Pink Nightmares
Artist:Infected Mushroom
ArtistUnicode:Infected Mushroom
Creator:RLC
Version:Insane
Source:
Tags:beatmap contest
BeatmapID:281977
BeatmapSetID:107639

[Difficulty]
HPDrainRate:6
CircleSize:4
OverallDifficulty:7
ApproachRate:8
SliderMultiplier:1.9
SliderTickRate:2

[Events]
//Background and Video events
0,0,"bg.jpg",0,0
//Break Periods
2,107556,119848
//Storyboard Layer 0 (Background)
//Storyboard Layer 1 (Fail)
//Storyboard Layer 2 (Pass)
//Storyboard Layer 3 (Foreground)
//Storyboard Sound Samples
//Background Colour Transformations
3,100,163,162,255

[TimingPoints]
1420,413.813080631479,4,2,0,50,1,0
1420,-133.333333333333,4,2,0,50,0,0
11558,-133.333333333333,4,3,0,30,0,0
11765,-133.333333333333,4,2,0,50,0,0
13834,-117.647058823529,4,2,0,50,0,0
14662,-100,4,2,0,50,0,0
15903,-100,4,1,0,50,0,0
16317,-100,4,2,0,50,0,0
22524,-100,4,1,0,50,0,0
22938,-100,4,2,0,50,0,0
24179,-100,4,1,0,50,0,0
24593,-100,4,2,0,50,0,0
25834,-100,4,1,0,50,0,0
26248,-100,4,2,0,50,0,0
27490,-100,4,1,0,50,0,0
27904,-100,4,2,0,50,0,0
28835,-100,4,1,0,50,0,0
29559,-100,4,2,0,50,0,0
30490,-100,4,1,0,50,0,0
31214,-100,4,2,0,50,0,0
35766,-100,4,1,0,50,0,0
36180,-100,4,2,0,50,0,0
37421,-100,4,1,0,50,0,0
37835,-100,4,2,0,50,0,0
39076,-100,4,1,0,50,0,0
39490,-100,4,2,0,50,0,0
41559,-200,4,2,0,50,0,0
53560,-133.333333333333,4,2,0,50,0,0
54388,-100,4,1,0,50,0,1
80872,-200,4,2,0,35,0,0
94114,-200,4,2,0,35,0,0
120598,-117.647058823529,4,2,0,40,0,0
145426,-200,4,3,0,40,0,0
147082,-100,4,2,0,50,0,0
158668,-50,4,2,0,50,0,0
158694,-50,4,2,0,20,0,0
158772,-50,4,2,0,10,0,0
158798,-50,4,2,0,20,0,0
158875,-50,4,2,0,15,0,0
158901,-50,4,2,0,40,0,0
158979,-50,4,2,0,20,0,0
159005,-50,4,2,0,40,0,0
159082,-50,4,2,0,25,0,0
159108,-50,4,2,0,60,0,0
159186,-50,4,2,0,30,0,0
159212,-50,4,2,0,60,0,0
159289,-50,4,2,0,35,0,0
159315,-50,4,2,0,80,0,0
159393,-50,4,2,0,40,0,0
159496,-100,4,2,0,50,0,0
160324,-100,4,1,0,50,0,0
172738,-133.333333333333,4,1,0,50,0,0
173566,-100,4,1,0,50,0,1
182670,-100,4,2,0,50,0,1
182695,-100,4,2,0,100,0,1
182980,-100,4,2,0,50,0,1
183109,-100,4,2,0,100,0,1
183290,-100,4,2,0,50,0,1
183497,-100,4,1,0,50,0,1
185980,-100,4,2,0,50,0,1
186006,-100,4,2,0,100,0,1
186290,-100,4,2,0,50,0,1
186420,-100,4,2,0,100,0,1
186601,-100,4,2,0,50,0,1
186808,-100,4,1,0,50,0,1
189291,-100,4,2,0,50,0,1
189317,-100,4,2,0,100,0,1
189601,-100,4,2,0,50,0,1
189730,-100,4,2,0,100,0,1
189911,-100,4,2,0,50,0,1
190118,-100,4,1,0,50,0,1
195912,-100,4,1,0,35,0,1
196119,-100,4,1,0,50,0,1
196739,-100,4,2,0,30,0,0

[Colours]
Combo1 : 255,38,255
Combo2 : 128,128,128
Combo3 : 255,88,100
Combo4 : 103,180,180
Combo5 : 0,255,0
Combo6 : 128,64,64
Combo7 : 255,160,66
Combo8 : 0,189,95

[HitObjects]
119,40,1420,38,0,P|101:108|121:175,1,142.500005435944,0|0,0:3|0:0,0:0:0:0:
187,231,2040,1,0,0:0:0:0:
228,106,2247,2,0,L|357:94,2,106.875004076958,2|0|0,0:0|0:0|0:0,0:0:0:0:
302,198,3075,54,0,P|349:186|445:222,1,142.500005435944
489,281,3695,1,0,0:0:0:0:
374,344,3902,2,0,L|284:336,1,71.2500027179719,2|0,0:0|0:0,0:0:0:0:
282,345,4213,2,0,P|269:305|282:235,1,106.875004076958,2|0,0:0|0:0,0:0:0:0:
181,352,4730,54,0,P|122:359|38:291,1,142.500005435944
27,235,5351,1,0,0:0:0:0:
152,169,5558,2,0,L|166:56,2,106.875004076958,2|0|0,0:0|0:0|0:0,0:0:0:0:
128,273,6385,54,0,P|178:273|209:261,1,71.2500027179719
289,144,6799,2,0,P|262:177|250:217,1,71.2500027179719
319,342,7213,2,0,P|300:308|265:276,1,71.2500027179719,2|0,0:0|0:0,0:0:0:0:
256,280,7523,2,0,L|370:261,1,106.875004076958,2|0,0:0|0:0,0:0:0:0:
486,160,8041,54,0,P|468:114|367:76,1,142.500005435944
325,131,8661,1,0,0:0:0:0:
205,49,8868,2,0,P|151:60|76:67,1,106.875004076958,2|2,0:0|0:0,0:0:0:0:
99,65,9282,2,0,P|89:103|86:143,1,71.2500027179719,0|2,0:0|0:0,0:0:0:0:
199,231,9696,54,0,P|192:178|178:141,1,71.2500027179719
279,103,10110,2,0,L|359:78,1,71.2500027179719
298,193,10523,2,0,L|384:181,1,71.2500027179719,2|2,0:0|0:0,0:0:0:0:
386,170,10834,2,0,L|371:297,1,106.875004076958,2|2,0:0|0:0,0:0:0:0:
311,335,11351,53,0,0:0:0:0:
458,238,11558,2,0,L|483:226,4,17.812500679493
401,369,11972,1,0,0:0:0:0:
311,335,12179,2,0,P|260:327|186:344,1,106.875004076958,2|2,0:0|0:0,0:0:0:0:
205,335,12592,2,0,P|201:301|198:249,1,71.2500027179719,0|2,0:0|0:0,0:0:0:0:
311,158,13006,54,0,P|305:211|295:248,1,71.2500027179719
239,87,13420,2,0,P|289:61|386:93,1,142.500005435944
483,197,14041,1,2,0:0:0:0:
459,202,14144,2,0,L|364:219,1,80.750001540184,2|0,0:0|0:0,0:0:0:0:
355,220,14455,2,0,L|343:290,1,40.375000770092
208,359,14662,70,0,L|232:208,1,142.5,4|0,1:0|0:0,0:0:0:0:
146,264,15075,2,0,L|99:295,2,47.5,0|0|0,1:0|0:0|0:0,0:0:0:0:
301,160,15489,1,2,0:0:0:0:
301,160,15593,2,0,P|302:98|276:56,1,95,2|0,0:0|0:0,0:0:0:0:
263,54,15903,2,2,L|152:67,1,95,0|0,2:0|2:1,0:0:0:0:
46,182,16317,54,0,P|112:163|159:179,1,95,0|0,0:0|0:0,0:0:0:0:
136,167,16627,1,0,0:0:0:0:
136,167,16731,1,0,1:0:0:0:
313,260,16937,2,0,L|194:247,1,95,8|0,0:3|0:0,0:0:0:0:
86,280,17248,2,0,B|110:281|139:264|139:264|144:316|224:339,1,142.5,4|0,0:3|1:0,0:0:0:0:
218,250,17662,2,0,L|206:193,2,47.5,2|4|2,0:0|0:2|0:0,0:0:0:0:
286,185,17972,54,0,P|258:135|209:115,1,95
198,111,18282,2,0,L|310:85,1,95
400,88,18593,1,0,0:0:0:0:
400,88,18696,1,0,0:0:0:0:
400,88,18800,2,0,L|404:199,1,95,0|2,0:0|0:0,0:0:0:0:
496,294,19213,6,2,B|449:282|449:282|399:312|354:291|354:291|336:248|336:248|281:238|281:238|238:264,1,285,0|0,0:0|0:0,0:0:0:0:
251,255,20041,1,0,1:0:0:0:
25,358,20248,37,0,0:0:0:0:
25,358,20351,2,0,L|31:246,1,95
32,234,20662,2,0,L|34:186,3,31.6666666666667,2|0|0|0,0:0|0:0|0:0|1:0,0:0:0:0:
251,255,21076,1,2,0:0:0:0:
37,98,21283,54,0,P|75:63|201:56,1,142.5,4|0,0:2|0:0,0:0:0:0:
188,55,21696,1,0,1:0:0:0:
149,253,21903,2,0,L|131:141,1,95
280,46,22317,1,2,0:0:0:0:
279,45,22524,2,2,L|307:188,1,142.5,0|0,1:0|2:0,0:0:0:0:
312,213,22938,53,0,0:0:0:0:
402,171,23145,1,0,0:0:0:0:
402,171,23248,1,0,0:0:0:0:
402,171,23352,1,0,1:0:0:0:
392,265,23558,2,0,P|341:300|282:299,1,95,0|0,0:0|0:0,0:0:0:0:
286,322,23869,2,0,P|229:298|208:244,1,95,2|2,0:0|0:0,0:0:0:0:
208,193,24179,2,2,P|203:248|133:306,1,142.5,0|0,1:0|2:0,0:0:0:0:
112,299,24593,53,0,1:0:0:0:
72,199,24800,1,8,0:3:0:0:
72,199,24903,2,0,L|59:96,1,95,4|0,0:3|0:0,0:0:0:0:
135,56,25214,2,0,L|144:120,1,47.5,4|2,0:3|0:0,0:0:0:0:
236,114,25421,2,0,L|227:58,1,47.5,8|2,0:3|0:0,0:0:0:0:
313,28,25628,2,0,L|322:85,1,47.5,4|2,0:3|0:0,0:0:0:0:
404,49,25834,2,2,L|441:41,5,31.6666666666667,0|0|0|0|0|0,3:0|3:0|3:0|3:0|3:0|3:0,0:0:0:0:
491,107,26248,54,0,L|372:132,1,95,0|0,0:2|0:0,0:0:0:0:
370,134,26559,1,0,0:0:0:0:
342,142,26662,2,0,P|326:198|324:247,1,95,0|0,1:0|0:0,0:0:0:0:
333,261,26972,1,0,0:0:0:0:
427,295,27179,2,0,P|431:240|395:173,1,95,2|2,0:2|0:0,0:0:0:0:
333,261,27490,2,2,L|184:284,1,142.5,0|2,2:3|2:1,0:0:0:0:
70,308,27904,53,4,1:2:0:0:
425,51,28214,1,2,0:0:0:0:
425,51,28317,2,0,L|431:130,1,47.5,0|0,1:0|0:0,0:0:0:0:
317,167,28524,2,0,L|335:62,1,95,2|0,0:0|0:0,0:0:0:0:
224,192,28835,2,2,P|171:200|104:160,1,95,0|2,2:0|2:0,0:0:0:0:
77,114,29145,1,2,1:0:0:0:
277,276,29559,54,0,P|321:235|424:234,1,142.5
478,251,29973,2,0,L|462:359,1,95,0|0,1:0|0:0,0:0:0:0:
384,366,30283,1,0,0:0:0:0:
262,154,30490,2,2,P|350:152|384:130,1,95,0|2,2:0|2:0,0:0:0:0:
351,63,30800,2,0,L|296:71,2,47.5,2|0|0,1:0|2:0|2:0,0:0:0:0:
483,147,31214,54,0,P|505:200|507:245,1,95
507,237,31524,1,0,0:0:0:0:
507,237,31628,1,0,1:0:0:0:
270,293,31835,2,0,L|333:285,1,47.5
407,218,32042,2,0,L|387:325,1,95
83,253,32455,6,2,B|150:244|150:244|177:223|177:223|275:213,1,190,0|0,0:0|0:0,0:0:0:0:
216,312,33076,2,2,B|191:329|191:329|117:341,1,95,0|0,0:0|1:0,0:0:0:0:
83,253,33421,6,0,L|91:173,1,63.3333333333333,0|0,0:0|1:0,0:0:0:0:
185,165,33697,2,0,L|197:78,2,63.3333333333333,0|0|0,0:0|1:0|0:0,0:0:0:0:
109,60,34111,2,0,P|162:14|266:27,1,142.5,0|0,1:0|0:0,0:0:0:0:
291,141,34525,85,4,1:2:0:0:
451,348,34835,1,0,0:0:0:0:
451,348,34938,2,0,L|466:273,1,47.5,0|0,1:0|0:0,0:0:0:0:
393,208,35145,2,0,L|372:314,1,95,4|2,0:3|0:2,0:0:0:0:
299,338,35456,2,0,L|247:342,2,47.5,4|0|2,0:3|0:0|0:2,0:0:0:0:
253,248,35766,2,2,P|196:260|141:348,1,142.5,0|2,2:0|2:0,0:0:0:0:
66,229,36180,54,0,L|47:116,1,95,0|0,1:0|0:0,0:0:0:0:
50,135,36490,1,0,0:0:0:0:
50,135,36594,1,0,1:0:0:0:
218,37,36801,2,0,P|226:86|209:139,1,95,4|2,0:3|0:2,0:0:0:0:
197,152,37111,2,0,L|304:137,1,95,4|2,0:3|0:0,0:0:0:0:
376,188,37421,2,2,P|438:181|506:97,1,142.5,0|2,1:0|2:0,0:0:0:0:
435,45,37835,53,0,1:0:0:0:
376,188,38042,2,0,L|352:252,1,47.5
349,259,38249,1,0,1:0:0:0:
89,329,38456,1,4,0:3:0:0:
89,329,38559,1,8,0:3:0:0:
89,329,38663,2,0,P|77:293|78:268,1,47.5
222,330,38870,2,0,P|192:358|170:365,1,47.5,4|0,0:3|0:0,0:0:0:0:
161,276,39076,2,2,L|171:233,5,31.6666666666667,0|0|0|0|0|2,1:0|3:0|3:0|3:0|3:0|3:2,0:0:0:0:
109,188,39490,54,0,L|101:66,2,95,0|0|0,1:0|0:0|1:0,0:0:0:0:
251,249,40111,2,0,P|314:239|365:268,1,95,4|2,0:3|0:0,0:0:0:0:
386,319,40421,2,0,P|323:329|272:300,1,95,4|2,0:3|0:0,0:0:0:0:
217,325,40732,2,0,L|162:335,1,47.5,0|2,1:0|0:2,0:0:0:0:
128,265,40939,2,0,L|75:276,1,47.5,0|2,0:0|0:2,0:0:0:0:
25,96,41146,37,4,1:2:0:0:
25,96,41559,2,0,B|100:48|135:120|220:65,1,190,0|0,3:0|3:0,0:0:0:0:
303,66,42801,54,0,P|315:106|312:151,1,71.25
309,158,43215,2,0,P|354:171|417:166,1,95,0|0,3:0|0:0,0:0:0:0:
477,162,43835,1,0,0:0:0:0:
458,235,44042,2,0,L|443:340,1,95,0|4,3:0|0:3,0:0:0:0:
236,368,44663,53,4,0:3:0:0:
236,368,44870,2,0,L|226:269,2,95,0|0|0,3:0|0:0|3:0,0:0:0:0:
236,368,45904,1,0,0:0:0:0:
309,282,46111,54,0,L|340:236,1,47.5
150,298,46525,2,0,L|88:271,1,47.5,0|0,3:0|0:0,0:0:0:0:
202,85,46939,2,0,P|216:120|211:194,1,95,0|0,0:0|3:0,0:0:0:0:
216,176,47560,1,0,0:0:0:0:
76,144,47767,53,4,0:3:0:0:
114,57,48180,1,0,3:0:0:0:
204,85,48594,1,0,0:0:0:0:
297,70,49008,1,0,3:0:0:0:
297,70,49215,1,0,0:0:0:0:
297,70,49422,53,0,0:0:0:0:
338,148,49629,2,0,L|437:141,2,95
338,148,50663,1,0,3:0:0:0:
480,328,51077,54,0,P|458:296|348:267,1,142.5,8|0,0:3|0:0,0:0:0:0:
258,298,51905,2,0,P|163:265|141:233,1,142.5,8|0,0:3|0:0,0:0:0:0:
219,101,52732,54,0,P|241:154|233:198,1,95,4|0,0:3|3:0,0:0:0:0:
155,160,53353,1,0,0:0:0:0:
286,37,53560,2,0,P|312:71|330:177,1,142.500005435944,4|4,0:3|3:2,0:0:0:0:
312,250,54181,1,4,3:2:0:0:
72,145,54388,38,2,P|120:109|233:88,1,142.5,4|2,0:0|0:2,0:0:0:0:
198,87,54801,2,0,P|256:108|315:113,1,95,0|2,0:0|0:0,0:0:0:0:
504,167,55215,1,2,0:0:0:0:
504,167,55319,2,0,P|447:173|366:205,1,142.5,2|0,0:2|0:0,0:0:0:0:
272,361,55836,53,2,0:2:0:0:
272,361,55939,1,2,0:2:0:0:
272,361,56043,2,2,P|278:289|274:197,1,142.5,0|2,0:0|0:2,0:0:0:0:
276,218,56457,2,2,L|153:232,1,95,0|2,0:0|0:2,0:0:0:0:
2,131,56870,1,6,0:2:0:0:
2,131,56974,2,2,L|118:115,1,95,2|2,0:2|0:2,0:0:0:0:
119,114,57284,1,8,0:3:0:0:
142,110,57388,1,4,0:3:0:0:
165,106,57491,1,4,0:3:0:0:
457,111,57698,54,2,P|395:107|326:69,1,142.5,4|2,0:0|0:2,0:0:0:0:
326,69,58112,2,0,P|302:123|292:174,1,95,0|2,0:0|0:0,0:0:0:0:
399,348,58526,1,2,0:0:0:0:
399,348,58629,2,0,P|399:280|376:191,1,142.5,2|2,0:2|0:2,0:0:0:0:
262,347,59146,53,2,0:2:0:0:
262,347,59250,1,2,0:2:0:0:
262,347,59353,2,0,L|159:360,1,95,2|2,0:0|0:2,0:0:0:0:
285,262,59767,2,0,L|182:224,1,95,2|2,0:0|0:2,0:0:0:0:
346,193,60181,2,2,L|244:73,1,142.5,4|0,0:2|0:0,0:0:0:0:
237,67,60595,1,8,0:3:0:0:
219,51,60698,1,4,0:3:0:0:
202,34,60802,1,4,0:3:0:0:
22,195,61009,54,2,P|93:200|171:149,1,142.5,4|2,0:0|0:3,0:0:0:0:
154,167,61422,2,0,L|162:267,1,95,0|2,0:0|0:3,0:0:0:0:
385,309,61836,1,4,0:2:0:0:
385,309,61940,2,2,P|363:255|271:206,1,142.5,2|2,0:3|0:3,0:0:0:0:
222,110,62457,1,2,0:3:0:0:
308,24,62664,54,2,P|367:45|448:41,1,142.5,0|2,0:0|0:3,0:0:0:0:
445,41,63078,2,0,P|461:91|462:145,1,95,0|2,0:0|0:3,0:0:0:0:
324,248,63491,1,4,0:2:0:0:
324,248,63595,2,2,P|328:183|338:143,1,95,2|2,0:3|0:3,0:0:0:0:
334,154,63905,1,6,0:3:0:0:
465,228,64112,1,6,0:3:0:0:
389,342,64319,53,8,0:3:0:0:
365,343,64423,1,4,0:3:0:0:
341,344,64526,1,4,0:3:0:0:
142,314,64733,2,0,L|241:307,1,95,2|2,0:3|0:3,0:0:0:0:
370,236,65147,1,4,0:3:0:0:
370,236,65250,1,4,0:3:0:0:
370,236,65354,1,4,0:3:0:0:
300,142,65561,1,2,0:3:0:0:
165,222,65767,1,2,0:3:0:0:
300,142,65974,54,2,L|284:21,1,95,4|2,0:2|0:3,0:0:0:0:
383,164,66388,2,2,L|453:87,1,95,4|2,0:2|0:3,0:0:0:0:
415,239,66802,1,4,0:2:0:0:
415,239,66905,2,2,L|509:243,1,95,2|2,0:3|0:3,0:0:0:0:
496,321,67216,2,0,L|439:318,2,47.5
300,348,67630,54,2,P|226:340|176:297,1,142.5,4|2,0:0|0:3,0:0:0:0:
176,297,68043,2,0,P|127:327|102:363,1,95,0|2,0:3|0:3,0:0:0:0:
17,175,68457,1,4,0:2:0:0:
17,175,68561,2,2,P|81:180|149:153,1,95,2|2,0:3|0:3,0:0:0:0:
110,172,68871,1,2,0:2:0:0:
174,76,69078,1,2,0:2:0:0:
266,152,69285,54,2,P|292:248|284:305,1,142.5,4|2,0:0|0:3,0:0:0:0:
287,289,69699,2,0,P|231:282|166:284,1,95,0|2,0:0|0:3,0:0:0:0:
351,350,70112,1,6,0:2:0:0:
378,358,70216,1,2,0:3:0:0:
406,359,70319,1,2,0:3:0:0:
512,250,70526,1,2,0:2:0:0:
426,128,70733,1,2,0:2:0:0:
296,158,70940,54,2,P|232:151|157:95,1,142.5,4|2,0:0|0:3,0:0:0:0:
167,108,71354,1,0,0:0:0:0:
10,214,71561,2,0,P|66:189|112:183,1,95,2|4,0:3|0:2,0:0:0:0:
98,183,71871,2,2,L|121:289,1,95,2|2,0:3|0:3,0:0:0:0:
118,276,72182,1,2,0:2:0:0:
208,316,72388,1,2,0:2:0:0:
242,226,72595,54,2,L|264:126,1,95,4|2,0:0|0:3,0:0:0:0:
367,260,73009,2,2,L|353:151,1,95,0|2,0:0|0:3,0:0:0:0:
485,219,73423,2,2,L|426:81,1,142.5,4|2,0:0|0:3,0:0:0:0:
414,63,73837,1,8,0:3:0:0:
399,38,73940,1,4,0:3:0:0:
387,11,74044,1,4,0:3:0:0:
164,208,74251,54,2,P|141:159|144:97,1,95,4|10,0:0|0:3,0:0:0:0:
341,212,74664,2,2,P|291:248|240:251,1,95,4|10,0:3|0:3,0:0:0:0:
251,126,75078,2,2,P|302:83|380:81,1,142.5,4|2,0:2|0:3,0:0:0:0:
375,79,75492,2,0,P|427:97|480:103,1,95,2|2,0:2|0:2,0:0:0:0:
492,213,75906,53,4,0:0:0:0:
429,318,76113,1,10,0:3:0:0:
429,318,76216,1,10,0:3:0:0:
429,318,76320,2,2,P|372:320|319:341,1,95,4|10,0:3|0:3,0:0:0:0:
248,295,76733,1,4,0:2:0:0:
248,295,76837,2,2,L|237:190,1,95,2|2,0:3|0:3,0:0:0:0:
238,200,77147,1,2,0:2:0:0:
149,166,77354,1,2,0:2:0:0:
121,256,77561,53,8,0:3:0:0:
121,256,77665,1,4,0:3:0:0:
121,256,77768,1,4,0:3:0:0:
55,156,77975,2,0,L|36:49,1,95,4|10,0:2|0:3,0:0:0:0:
230,67,78389,1,8,0:3:0:0:
230,67,78493,1,4,0:3:0:0:
230,67,78596,1,4,0:3:0:0:
296,167,78803,2,0,L|315:274,1,95,4|10,0:2|0:3,0:0:0:0:
318,76,79216,54,0,L|508:40,2,190,4|0|0,0:0|0:0|0:0,0:0:0:0:
318,76,80458,1,4,0:2:0:0:
254,172,80665,1,4,0:2:0:0:
437,236,80872,37,2,2:2:0:0:
437,236,81285,2,0,L|426:346,2,95
115,338,82527,53,2,0:0:0:0:
115,338,82941,2,0,L|99:229,2,95
464,179,84182,53,2,0:0:0:0:
464,179,84596,2,0,L|470:278,2,95
136,65,85837,53,2,0:0:0:0:
136,65,86251,2,0,L|128:167,1,95
115,254,87079,1,2,0:0:0:0:
340,330,87493,53,2,0:0:0:0:
340,330,87906,2,0,P|396:319|444:324,2,95
195,337,89148,53,2,0:0:0:0:
195,337,89562,2,0,P|139:336|95:311,2,95
340,230,90803,54,0,L|354:115,1,95,2|0,0:0|0:0,0:0:0:0:
456,207,91631,2,0,L|442:322,1,95
172,230,92458,54,0,L|158:115,1,95,2|0,0:0|0:0,0:0:0:0:
56,207,93286,2,0,L|70:322,1,95,0|2,0:0|0:0,0:0:0:0:
343,339,94114,54,0,L|405:334,1,47.5,0|2,0:0|0:0,0:0:0:0:
347,249,94527,2,0,L|285:253,1,47.5,0|2,0:0|0:0,0:0:0:0:
434,233,94941,2,0,P|459:192|459:128,1,95,2|0,0:0|0:0,0:0:0:0:
463,146,95562,1,0,0:0:0:0:
352,101,95769,54,0,L|368:164,1,47.5,0|2,0:0|0:0,0:0:0:0:
264,135,96183,2,0,L|264:194,1,47.5,0|2,0:0|0:0,0:0:0:0:
172,114,96597,2,0,L|152:170,1,47.5,2|0,0:0|0:0,0:0:0:0:
105,52,97010,2,0,L|51:92,1,47.5,2|2,0:0|0:0,0:0:0:0:
36,174,97424,53,0,0:0:0:0:
36,174,97631,1,2,0:0:0:0:
104,238,97838,2,0,P|114:282|120:347,1,95,0|2,0:0|0:0,0:0:0:0:
200,361,98459,1,2,0:0:0:0:
251,292,98666,1,2,0:0:0:0:
454,176,99079,54,0,L|458:223,1,47.5,0|2,0:0|0:0,0:0:0:0:
375,160,99493,2,0,L|358:222,1,47.5,0|2,0:0|0:0,0:0:0:0:
309,114,99907,2,0,L|239:202,1,95,2|2,0:0|0:0,0:0:0:0:
249,188,100528,1,2,0:0:0:0:
190,113,100735,54,0,P|198:78|199:46,1,47.5,0|2,0:0|0:0,0:0:0:0:
140,187,101148,2,0,P|135:226|137:248,1,47.5,0|2,0:0|0:0,0:0:0:0:
73,134,101562,2,0,P|82:91|76:32,1,95,2|2,0:0|0:0,0:0:0:0:
78,40,102183,1,2,0:0:0:0:
45,220,102390,54,0,P|48:256|57:284,1,47.5,0|2,0:0|0:0,0:0:0:0:
204,212,102804,2,0,P|181:178|160:164,1,47.5,0|2,0:0|0:0,0:0:0:0:
148,303,103218,2,0,P|185:316|251:302,1,95,2|2,0:0|0:0,0:0:0:0:
239,308,103838,1,2,0:0:0:0:
322,337,104045,54,0,P|358:311|418:306,1,95,2|0,0:0|0:0,0:0:0:0:
473,248,104666,1,2,0:0:0:0:
435,171,104873,2,0,L|424:65,1,95,2|2,0:0|0:0,0:0:0:0:
256,192,105700,12,0,107356,0:0:0:0:
60,101,120598,6,0,P|112:83|160:78,1,80.750001540184,0|0,3:0|0:0,0:0:0:0:
137,79,120908,2,0,L|155:171,1,80.750001540184,0|0,3:0|0:0,0:0:0:0:
106,231,121218,2,0,L|124:321,1,80.750001540184,0|0,3:0|0:0,0:0:0:0:
121,310,121529,2,0,L|29:301,1,80.750001540184,0|0,3:0|0:0,0:0:0:0:
198,257,121839,2,0,L|326:265,1,121.125002310276,0|2,3:0|0:0,0:0:0:0:
318,264,122253,102,0,P|328:323|326:359,1,80.750001540184,0|2,0:0|0:0,0:0:0:0:
399,261,122563,2,0,L|418:210,2,40.375000770092,2|0|2,0:0|0:0|0:0,0:0:0:0:
346,179,122874,1,2,0:0:0:0:
346,179,122977,1,0,0:0:0:0:
346,179,123081,2,0,P|343:120|350:86,1,80.750001540184,2|0,0:0|0:0,0:0:0:0:
346,98,123391,2,0,P|408:104|431:104,1,80.750001540184,2|0,0:0|0:0,0:0:0:0:
495,80,123701,1,2,0:0:0:0:
252,131,123908,6,0,P|241:177|235:225,1,80.750001540184,0|0,3:3|0:0,0:0:0:0:
236,210,124219,2,0,L|146:196,1,80.750001540184,0|0,3:0|0:0,0:0:0:0:
64,213,124529,2,0,P|65:263|77:298,1,80.750001540184,0|0,3:0|0:0,0:0:0:0:
74,291,124839,2,0,L|159:277,1,80.750001540184,0|0,3:0|0:0,0:0:0:0:
228,304,125150,2,0,L|357:283,1,121.125002310276,0|2,3:0|0:0,0:0:0:0:
347,284,125563,102,0,P|377:327|391:360,1,80.750001540184,0|2,0:0|0:0,0:0:0:0:
308,209,125874,2,0,P|332:171|365:138,1,80.750001540184,2|2,0:0|0:0,0:0:0:0:
226,218,126184,2,0,P|166:201|106:131,2,121.125002310276,2|2|2,0:0|0:0|0:0,0:0:0:0:
212,106,127012,5,2,0:0:0:0:
212,106,127115,1,2,0:0:0:0:
212,106,127219,2,0,L|313:90,1,80.750001540184,0|0,3:0|0:0,0:0:0:0:
291,93,127529,2,0,P|312:137|318:178,1,80.750001540184,0|0,3:0|0:0,0:0:0:0:
385,243,127839,2,0,P|403:197|408:142,1,80.750001540184,0|0,3:0|0:0,0:0:0:0:
407,166,128150,2,0,L|494:165,1,80.750001540184,0|0,3:0|0:0,0:0:0:0:
439,301,128460,2,0,P|398:283|300:299,1,121.125002310276,0|2,3:0|0:0,0:0:0:0:
323,287,128874,102,0,L|306:367,1,80.750001540184,0|2,0:0|0:0,0:0:0:0:
242,261,129184,2,0,L|230:209,2,40.375000770092,2|0|2,0:0|0:0|0:0,0:0:0:0:
192,324,129495,1,2,0:0:0:0:
192,324,129598,1,0,0:0:0:0:
192,324,129702,2,0,P|144:327|92:317,1,80.750001540184,2|0,0:0|0:0,0:0:0:0:
111,322,130012,2,0,L|100:228,1,80.750001540184,2|0,0:0|0:0,0:0:0:0:
109,169,130322,1,2,0:0:0:0:
196,52,130529,6,0,L|180:147,1,80.750001540184,0|0,3:0|0:0,0:0:0:0:
182,131,130840,2,0,L|281:113,1,80.750001540184,0|0,3:0|0:0,0:0:0:0:
421,114,131150,2,0,L|334:129,1,80.750001540184,0|0,3:0|0:0,0:0:0:0:
341,127,131460,2,0,P|326:175|329:222,1,80.750001540184,0|0,3:0|0:0,0:0:0:0:
418,201,131771,2,0,P|430:245|423:332,1,121.125002310276,0|2,3:0|0:0,0:0:0:0:
426,319,132184,102,0,L|336:336,1,80.750001540184,0|2,0:0|0:0,0:0:0:0:
278,283,132495,2,0,L|308:188,1,80.750001540184,2|2,0:0|0:0,0:0:0:0:
157,185,132805,2,0,L|196:315,2,121.125002310276,2|2|2,0:0|0:0|0:0,0:0:0:0:
245,102,133633,5,2,0:0:0:0:
245,102,133736,1,2,0:0:0:0:
245,102,133840,2,0,P|258:147|254:197,1,80.750001540184,0|2,3:0|0:0,0:0:0:0:
257,180,134150,2,0,P|318:181|363:166,1,80.750001540184,0|2,3:0|0:0,0:0:0:0:
476,99,134460,2,0,P|426:125|401:160,1,80.750001540184,0|2,3:0|0:0,0:0:0:0:
410,142,134771,2,0,L|418:227,1,80.750001540184,0|2,3:0|0:0,0:0:0:0:
417,223,135081,2,0,P|378:259|293:263,1,121.125002310276,0|2,3:2|0:0,0:0:0:0:
312,268,135495,1,4,3:2:0:0:
213,338,135702,38,0,P|169:314|121:305,1,80.750001540184,0|2,3:0|0:0,0:0:0:0:
139,306,136012,2,0,L|149:222,1,80.750001540184,0|2,3:0|0:0,0:0:0:0:
68,87,136323,2,0,L|78:185,1,80.750001540184,0|2,3:0|0:0,0:0:0:0:
77,168,136633,2,0,P|128:148|180:142,1,80.750001540184,0|2,3:0|0:0,0:0:0:0:
153,144,136943,1,4,3:2:0:0:
198,292,137150,70,0,P|247:306|304:295,1,80.750001540184,4|2,3:2|0:0,0:0:0:0:
276,303,137461,2,0,L|286:211,1,80.750001540184,0|2,3:0|0:0,0:0:0:0:
366,171,137771,2,0,P|404:169|445:177,1,80.750001540184,0|2,3:0|0:0,0:0:0:0:
446,178,138081,2,0,L|435:262,1,80.750001540184,0|2,3:0|0:0,0:0:0:0:
436,258,138392,2,0,P|387:266|327:313,1,121.125002310276,0|2,3:0|0:0,0:0:0:0:
330,308,138805,1,4,3:2:0:0:
50,267,139012,38,0,L|141:289,1,80.750001540184,0|2,3:0|0:0,0:0:0:0:
158,206,139323,2,0,L|179:115,1,80.750001540184,0|2,3:0|0:0,0:0:0:0:
271,96,139633,2,0,L|246:206,1,80.750001540184,0|2,3:0|0:0,0:0:0:0:
341,189,139943,2,0,L|447:207,1,80.750001540184,0|2,3:0|0:0,0:0:0:0:
420,202,140254,1,4,3:2:0:0:
493,66,140461,70,0,P|445:67|396:94,1,80.750001540184,4|2,3:2|0:3,0:0:0:0:
347,38,140771,2,0,P|324:80|318:124,1,80.750001540184,0|2,3:0|0:2,0:0:0:0:
252,172,141081,2,0,P|192:162|148:128,1,80.750001540184,0|2,3:0|0:3,0:0:0:0:
86,210,141392,2,0,P|84:151|105:102,1,80.750001540184,0|2,3:0|0:0,0:0:0:0:
5,62,141702,2,0,P|50:38|130:34,1,121.125002310276,0|2,3:3|0:3,0:0:0:0:
118,32,142116,1,4,3:2:0:0:
192,266,142323,38,0,L|176:351,1,80.750001540184,0|2,3:0|0:2,0:0:0:0:
276,306,142633,2,0,L|365:323,1,80.750001540184,0|2,3:0|0:3,0:0:0:0:
294,216,142944,2,0,L|318:127,1,80.750001540184,0|2,3:0|0:2,0:0:0:0:
214,173,143254,2,0,L|127:154,1,80.750001540184,0|2,3:0|0:3,0:0:0:0:
135,155,143564,1,4,3:2:0:0:
400,69,143771,70,0,P|435:85|467:133,1,80.750001540184,4|2,3:2|0:3,0:0:0:0:
386,162,144082,2,0,P|405:196|408:245,1,80.750001540184,0|2,3:0|0:0,0:0:0:0:
324,229,144392,2,0,P|317:274|273:323,1,80.750001540184,0|2,3:0|0:3,0:0:0:0:
217,188,144702,2,0,P|224:143|268:94,1,80.750001540184,0|2,3:0|0:0,0:0:0:0:
243,114,145013,1,0,3:0:0:0:
176,349,145220,101,2,0:0:0:0:
176,349,145323,1,2,0:0:0:0:
176,349,145426,2,0,B|195:302|195:302|179:256|126:249|126:249|87:286|31:261|31:261|13:171,1,332.5,0|0,2:3|2:0,0:0:0:0:
61,109,147082,38,0,P|114:105|166:91,1,95,4|0,1:0|0:0,0:0:0:0:
154,94,147392,2,0,P|177:153|186:209,1,95,2|0,0:0|0:0,0:0:0:0:
183,184,147702,1,2,0:0:0:0:
143,309,147909,1,8,0:3:0:0:
297,206,148116,1,4,0:3:0:0:
143,309,148323,2,0,L|36:299,1,95,4|0,0:2|0:0,0:0:0:0:
395,347,148737,53,4,1:0:0:0:
462,268,148944,1,0,0:0:0:0:
462,268,149047,2,0,P|468:208|462:164,1,95,2|0,0:0|0:0,0:0:0:0:
464,173,149358,1,2,0:0:0:0:
304,45,149565,2,0,P|297:105|307:249,1,190,4|4,0:3|0:2,0:0:0:0:
98,358,150185,53,2,0:0:0:0:
98,358,150289,1,2,0:0:0:0:
98,358,150392,2,0,P|99:299|88:248,1,95,4|0,1:0|0:0,0:0:0:0:
92,263,150703,2,0,L|195:253,1,95,2|0,0:0|0:0,0:0:0:0:
187,253,151013,1,2,0:0:0:0:
262,179,151220,1,8,0:3:0:0:
224,344,151427,1,4,0:3:0:0:
262,179,151634,2,0,L|250:69,1,95,4|2,0:2|0:0,0:0:0:0:
322,345,152047,53,4,1:0:0:0:
424,264,152254,1,0,0:0:0:0:
424,264,152358,2,0,P|432:321|422:361,1,95,2|0,0:0|0:0,0:0:0:0:
423,356,152668,1,2,0:0:0:0:
367,195,152875,86,2,B|406:165|459:181|459:181|505:138|493:75,1,190,0|2,0:0|0:2,0:0:0:0:
495,98,153496,1,2,0:2:0:0:
336,342,153703,86,0,P|281:349|192:309,1,142.5,4|2,1:0|0:0,0:0:0:0:
201,317,154117,2,0,P|204:268|214:208,1,95,0|2,1:0|0:0,0:0:0:0:
131,49,154530,2,0,P|149:106|155:159,1,95,4|2,1:2|0:0,0:0:0:0:
1,276,154944,2,0,P|47:246|146:218,1,142.5,0|2,1:0|0:0,0:0:0:0:
287,225,155358,54,0,P|356:241|437:218,1,142.5,4|2,1:0|0:0,0:0:0:0:
424,224,155772,2,0,P|430:170|443:115,1,95,0|2,1:0|0:0,0:0:0:0:
496,311,156186,1,6,1:2:0:0:
496,311,156289,1,2,0:0:0:0:
496,311,156392,1,2,0:0:0:0:
496,311,156496,1,2,0:0:0:0:
496,311,156599,2,0,P|440:328|342:327,1,142.5,0|2,1:0|0:0,0:0:0:0:
182,329,157013,54,0,L|170:291,14,23.75,4|0|0|0|2|0|2|0|0|0|0|0|2|0|2,1:0|0:0|0:0|0:0|0:0|0:0|0:0|0:0|1:0|0:0|0:0|0:0|0:0|0:0|0:0,0:0:0:0:
247,265,157841,2,0,L|259:227,14,23.75,4|0|0|0|2|0|2|0|0|0|0|0|2|0|2,1:2|0:0|0:0|0:0|0:0|0:0|0:0|0:0|1:0|0:0|0:0|0:0|0:0|0:0|0:0,0:0:0:0:
176,216,158668,54,0,L|168:176,28,23.75,4|0|0|0|0|0|0|0|0|0|0|0|0|0|0|0|0|0|0|0|0|0|0|0|0|0|0|0|0,0:0|0:0|0:0|0:0|1:0|0:0|0:0|0:0|1:0|0:0|0:0|0:0|1:0|0:0|0:0|0:0|1:0|0:0|0:0|0:0|1:0|0:0|0:0|0:0|1:0|0:0|0:0|0:0|1:0,0:0:0:0:
243,155,159496,2,0,P|253:125|253:89,1,47.5,2|2,0:0|0:0,0:0:0:0:
96,116,159703,2,0,P|101:150|115:177,1,47.5,2|2,0:0|0:0,0:0:0:0:
175,111,159910,2,0,P|157:60|66:41,1,142.5,4|0,0:3|0:0,0:0:0:0:
37,188,160324,54,0,P|47:245|57:306,1,95,4|2,0:0|0:2,0:0:0:0:
53,281,160634,2,0,B|114:261|213:273,1,142.5,2|2,0:2|0:2,0:0:0:0:
403,333,161151,2,2,P|343:330|280:306,1,95,0|2,0:0|0:0,0:0:0:0:
287,134,161565,2,0,P|286:195|274:249,1,95,2|0,0:0|0:0,0:0:0:0:
100,91,161979,54,0,L|209:73,1,95,0|2,0:0|0:2,0:0:0:0:
193,75,162289,2,0,P|239:37|336:48,1,142.5,2|2,0:2|0:2,0:0:0:0:
350,261,162807,1,4,0:2:0:0:
379,144,163014,1,2,0:2:0:0:
350,261,163220,2,0,L|369:365,1,95,4|2,0:2|0:2,0:0:0:0:
487,249,163634,54,0,L|458:107,1,142.5,0|2,0:0|0:2,0:0:0:0:
458,109,164048,2,0,P|405:99|349:108,1,95,0|2,0:0|0:2,0:0:0:0:
262,262,164462,2,2,P|297:220|317:167,1,95,0|2,0:0|0:0,0:0:0:0:
229,19,164876,2,0,P|246:70|282:114,1,95,2|0,0:0|0:0,0:0:0:0:
186,194,165289,54,0,P|121:193|59:150,1,142.5,0|2,0:0|0:2,0:0:0:0:
59,150,165703,2,0,P|41:204|38:268,1,95,0|2,0:0|0:2,0:0:0:0:
91,349,166117,1,4,0:2:0:0:
192,307,166324,1,8,0:2:0:0:
192,307,166531,1,8,0:2:0:0:
464,71,166945,54,0,P|438:116|423:164,1,95,4|2,0:0|0:2,0:0:0:0:
424,156,167255,2,0,P|354:181|259:186,1,142.5,4|0,0:2|0:0,0:0:0:0:
88,120,167772,2,2,P|149:129|189:156,1,95,0|2,0:0|0:0,0:0:0:0:
364,66,168186,2,0,P|315:94|273:103,1,95,2|0,0:0|0:0,0:0:0:0:
85,272,168600,54,0,P|126:245|186:233,1,95,0|2,0:0|0:2,0:0:0:0:
170,233,168910,2,0,L|208:375,1,142.5,4|0,0:2|0:0,0:0:0:0:
286,201,169428,2,0,L|294:306,1,95,2|0,0:0|0:0,0:0:0:0:
398,157,169841,2,2,L|383:260,1,95,0|2,0:0|0:0,0:0:0:0:
334,97,170255,54,0,P|268:74|204:99,1,142.5,0|2,0:0|0:2,0:0:0:0:
204,99,170669,2,0,L|217:204,1,95,4|2,0:2|0:2,0:0:0:0:
392,353,171083,2,2,L|411:246,1,95,0|2,0:0|0:0,0:0:0:0:
260,297,171497,2,0,L|168:321,1,95,2|0,0:0|0:0,0:0:0:0:
40,229,171910,54,0,P|32:169|59:78,1,142.5,0|2,0:0|0:2,0:0:0:0:
52,90,172324,1,4,0:2:0:0:
166,62,172531,1,0,0:0:0:0:
187,172,172738,5,8,2:3:0:0:
187,172,173152,1,4,2:3:0:0:
187,172,173566,6,2,L|304:154,1,95,4|2,0:0|0:0,0:0:0:0:
280,157,173876,2,2,P|293:207|285:261,1,95,4|2,0:2|0:0,0:0:0:0:
288,250,174186,1,4,0:2:0:0:
385,337,174393,1,4,0:2:0:0:
490,263,174600,1,8,0:2:0:0:
451,133,174807,1,8,0:2:0:0:
393,225,175014,85,0,0:0:0:0:
393,225,175118,1,0,0:0:0:0:
393,225,175221,2,2,P|346:223|280:211,1,95,4|2,0:0|0:0,0:0:0:0:
298,215,175531,2,2,P|277:274|268:328,1,95,4|2,0:2|0:0,0:0:0:0:
270,306,175842,1,4,0:2:0:0:
117,255,176049,1,4,0:2:0:0:
117,255,176152,1,0,0:0:0:0:
117,255,176256,1,8,0:2:0:0:
117,255,176359,1,0,0:0:0:0:
117,255,176462,2,0,L|106:363,1,95,8|4,0:2|0:3,0:0:0:0:
37,193,176876,22,2,L|43:86,1,95,4|2,0:0|0:0,0:0:0:0:
42,98,177187,2,2,P|100:95|196:35,1,142.5,4|6,0:2|0:2,0:0:0:0:
382,67,177704,2,0,P|321:71|267:106,1,95,4|8,0:2|0:2,0:0:0:0:
119,174,178118,2,0,B|169:172|220:138,1,95,8|0,0:2|0:0,0:0:0:0:
447,183,178531,86,2,P|386:159|331:153,1,95,4|2,0:0|0:0,0:0:0:0:
357,154,178842,2,2,P|349:236|336:309,1,142.5,4|6,0:2|0:2,0:0:0:0:
235,349,179359,1,4,0:2:0:0:
235,349,179463,2,0,P|229:300|228:246,1,95,4|4,0:3|0:3,0:0:0:0:
227,254,179773,1,4,0:3:0:0:
227,254,180187,22,2,L|120:266,1,95,4|2,0:0|0:0,0:0:0:0:
27,179,180601,2,2,L|138:169,1,95,0|12,0:2|0:2,0:0:0:0:
272,92,181014,1,4,0:2:0:0:
319,246,181221,1,8,0:2:0:0:
272,92,181428,1,8,0:2:0:0:
209,224,181635,1,0,0:0:0:0:
378,135,181842,86,2,L|370:21,1,95,4|2,0:0|0:0,0:0:0:0:
371,40,182152,2,2,P|427:32|477:44,1,95,0|2,0:0|0:0,0:0:0:0:
464,39,182463,1,12,0:2:0:0:
491,281,182670,86,2,P|434:281|348:229,1,142.5,4|2,1:2|1:2,0:0:0:0:
338,222,183083,2,2,L|315:333,1,95,12|2,1:2|1:2,0:0:0:0:
131,298,183497,54,2,P|203:291|251:267,1,95,4|2,0:0|0:0,0:0:0:0:
223,282,183808,2,2,L|209:180,1,95,0|2,0:0|0:0,0:0:0:0:
210,188,184118,1,8,0:2:0:0:
134,113,184325,1,0,0:0:0:0:
311,156,184532,1,8,0:2:0:0:
134,113,184739,2,0,P|176:85|231:80,1,95,8|0,0:2|0:0,0:0:0:0:
407,154,185153,86,2,P|405:200|401:257,1,95,4|2,0:0|0:0,0:0:0:0:
401,248,185463,2,2,P|453:258|497:284,1,95,0|2,0:0|0:0,0:0:0:0:
490,278,185773,1,8,0:2:0:0:
315,269,185980,86,2,P|269:312|172:329,1,142.5,4|2,1:2|1:2,0:0:0:0:
174,309,186394,2,2,P|123:300|58:302,1,95,12|2,1:2|1:2,0:0:0:0:
25,158,186808,54,2,P|79:158|133:143,1,95,4|2,0:0|0:2,0:0:0:0:
118,148,187118,1,2,0:2:0:0:
118,148,187222,1,8,0:2:0:0:
198,43,187428,1,2,0:2:0:0:
296,119,187635,2,2,L|287:226,1,95,8|8,0:3|0:2,0:0:0:0:
160,340,188049,2,0,L|169:233,1,95,8|4,0:2|0:3,0:0:0:0:
392,217,188463,86,2,L|383:324,1,95,4|2,0:0|0:2,0:0:0:0:
384,311,188773,1,2,0:2:0:0:
384,311,188877,1,8,0:2:0:0:
480,162,189084,85,2,0:2:0:0:
480,162,189187,1,2,0:2:0:0:
480,162,189291,2,2,P|424:166|315:141,1,142.5,4|2,1:2|1:2,0:0:0:0:
332,123,189704,2,2,P|277:144|212:156,1,95,12|2,1:2|1:2,0:0:0:0:
64,95,190118,54,2,B|113:103|163:139,1,95,4|2,0:0|0:2,0:0:0:0:
151,130,190429,1,2,0:2:0:0:
151,130,190532,1,8,0:2:0:0:
191,231,190739,1,2,0:2:0:0:
106,312,190946,2,2,L|83:257,2,47.5,8|0|8,0:3|0:0|0:2,0:0:0:0:
256,329,191360,2,0,L|233:384,2,47.5,8|0|4,0:2|0:0|0:3,0:0:0:0:
370,275,191774,86,2,P|340:228|272:205,1,95,4|2,0:0|0:2,0:0:0:0:
306,209,192084,1,2,0:2:0:0:
306,209,192187,1,8,0:2:0:0:
189,248,192394,1,2,0:2:0:0:
122,143,192601,1,8,0:3:0:0:
122,143,192705,1,4,0:3:0:0:
122,143,192808,1,4,0:3:0:0:
203,50,193015,1,8,0:2:0:0:
454,293,193429,22,2,L|475:194,1,95,4|2,0:0|0:2,0:0:0:0:
350,293,193843,2,2,L|335:185,1,95,8|2,0:2|0:2,0:0:0:0:
260,339,194256,2,2,L|197:245,1,95,4|8,0:0|0:2,0:0:0:0:
29,198,194670,1,10,0:2:0:0:
29,198,194774,1,2,0:2:0:0:
29,198,194877,1,2,0:2:0:0:
29,198,194981,1,2,0:2:0:0:
29,198,195084,86,2,P|98:208|188:154,1,142.5,4|2,0:0|0:2,0:0:0:0:
163,180,195498,2,2,P|190:237|198:277,1,95,8|2,0:2|0:2,0:0:0:0:
330,320,195912,1,2,0:0:0:0:
404,198,196119,1,2,0:2:0:0:
314,88,196325,1,8,0:2:0:0:
43,340,196739,69,2,0:2:0:0:
256,192,196843,12,0,198395,0:0:0:0:
