osu file format v12

[General]
AudioFilename: Infected_Mushroom_-_Pink_Nightmares.mp3
AudioLeadIn: 1000
PreviewTime: 54388
Countdown: 0
SampleSet: Normal
StackLeniency: 0.7
Mode: 0
LetterboxInBreaks: 1

[Editor]
DistanceSpacing: 1.1
BeatDivisor: 4
GridSize: 4

[Metadata]
Title:Pink Nightmares
TitleUnicode:Pink Nightmares
Artist:Infected Mushroom
ArtistUnicode:Infected Mushroom
Creator:RLC
Version:Hard
Source:
Tags:beatmap contest
BeatmapID:281976
BeatmapSetID:107639

[Difficulty]
HPDrainRate:4
CircleSize:4
OverallDifficulty:5
ApproachRate:7
SliderMultiplier:1.4
SliderTickRate:2

[Events]
//Background and Video events
0,0,"bg.jpg",0,0
//Break Periods
2,107556,119698
//Storyboard Layer 0 (Background)
//Storyboard Layer 1 (Fail)
//Storyboard Layer 2 (Pass)
//Storyboard Layer 3 (Foreground)
//Storyboard Sound Samples
//Background Colour Transformations
3,100,163,162,255

[TimingPoints]
1420,413.813080631479,4,2,0,50,1,0
15593,-100,4,1,0,50,0,0
15903,-100,4,2,0,50,0,0
17248,-100,4,1,0,50,0,0
17558,-100,4,2,0,50,0,0
20558,-100,4,1,0,50,0,0
20869,-100,4,2,0,50,0,0
22214,-100,4,1,0,50,0,0
22524,-100,4,2,0,50,0,0
23869,-100,4,1,0,50,0,0
24179,-100,4,2,0,50,0,0
27179,-100,4,1,0,50,0,0
27490,-100,4,2,0,50,0,0
28835,-100,4,1,0,50,0,0
29145,-100,4,2,0,50,0,0
37111,-100,4,1,0,50,0,0
37421,-100,4,2,0,50,0,0
40421,-100,4,1,0,50,0,0
40732,-100,4,2,0,50,0,0
41559,-200,4,2,0,50,0,0
52732,-133.333333333333,4,2,0,50,0,0
53974,-100,4,1,0,50,0,0
54388,-100,4,1,0,50,0,1
80872,-133.333333333333,4,2,0,50,0,0
120598,-133.333333333333,4,2,0,40,0,0
140771,-133.333333333333,4,2,0,20,0,0
141081,-133.333333333333,4,2,0,40,0,0
141392,-133.333333333333,4,2,0,30,0,0
141702,-133.333333333333,4,2,0,40,0,0
142012,-133.333333333333,4,2,0,35,0,0
142323,-133.333333333333,4,2,0,40,0,0
145426,-133.333333333333,4,3,0,40,0,0
147082,-100,4,2,0,40,0,0
158668,-66.6666666666667,4,2,0,40,0,0
160324,-100,4,1,0,40,0,0
173566,-100,4,1,0,40,0,1
196739,-100,4,2,0,40,0,0

[Colours]
Combo1 : 255,38,255
Combo2 : 128,128,128
Combo3 : 255,88,100
Combo4 : 103,180,180
Combo5 : 0,255,0
Combo6 : 128,64,64
Combo7 : 255,160,66
Combo8 : 0,189,95

[HitObjects]
304,82,1420,38,0,P|259:92|155:92,1,140
94,47,2040,1,0,0:0:0:0:
94,131,2247,2,0,P|103:179|102:244,2,105,2|0|0,0:0|0:0|0:0,0:0:0:0:
16,164,3075,53,0,0:0:0:0:
54,327,3489,1,0,0:0:0:0:
128,288,3695,1,0,0:0:0:0:
211,283,3902,2,0,P|279:300|312:334,2,105,2|0|0,0:0|0:0|0:0,0:0:0:0:
172,358,4730,54,0,L|181:206,1,140
250,170,5351,1,0,0:0:0:0:
172,136,5558,2,0,P|123:133|59:103,2,105,2|0|0,0:0|0:0|0:0,0:0:0:0:
239,85,6385,53,0,0:0:0:0:
275,248,6799,1,0,0:0:0:0:
345,202,7006,1,0,0:0:0:0:
360,119,7213,2,0,P|348:78|289:35,2,105,2|0|0,0:0|0:0|0:0,0:0:0:0:
275,126,8041,54,0,L|130:113,1,140
68,164,8661,1,0,0:0:0:0:
139,208,8868,2,0,P|160:253|165:321,2,105,2|2|2,0:0|0:0|0:0,0:0:0:0:
189,140,9696,54,0,L|264:94,1,70
238,213,10110,2,0,L|318:189,1,70
261,298,10523,2,0,L|382:296,2,105,2|2|2,0:0|0:0|0:0,0:0:0:0:
193,349,11351,54,0,P|132:334|57:380,1,140
31,290,11972,1,0,0:0:0:0:
105,250,12179,2,0,P|129:218|138:142,2,105,2|2|2,0:0|0:0|0:0,0:0:0:0:
37,200,13006,54,0,L|22:117,1,70
80,26,13420,2,0,L|97:111,1,70
189,195,13834,2,0,B|295:214|277:119|390:134,1,210
490,210,14662,70,0,L|478:357,1,140,4|0,1:0|1:0,0:0:0:0:
395,337,15282,2,2,P|353:311|286:306,2,105,2|0|2,0:2|2:0|1:0,0:0:0:0:
487,196,16317,54,0,L|502:51,1,140,0|0,0:0|1:0,0:0:0:0:
419,75,16937,2,2,P|370:109|307:98,2,105,2|0|2,0:2|2:0|1:0,0:0:0:0:
349,27,17765,1,0,0:0:0:0:
267,46,17972,54,0,L|121:90,1,140,0|0,0:0|1:0,0:0:0:0:
49,70,18593,1,2,0:2:0:0:
77,148,18800,2,0,P|78:190|75:226,1,70
14,274,19213,6,2,B|113:225|130:311|230:255,1,210,0|0,0:0|0:0,0:0:0:0:
241,133,20041,101,0,1:0:0:0:
172,84,20248,2,2,P|158:128|170:189,2,105,2|0|2,0:2|2:0|1:0,0:0:0:0:
248,48,21076,1,2,0:2:0:0:
320,90,21283,54,0,L|302:240,1,140,0|0,0:2|1:0,0:0:0:0:
386,221,21903,2,2,L|372:346,2,105,2|0|2,0:2|2:0|1:0,0:0:0:0:
473,77,22938,54,0,L|321:97,1,140,0|0,0:0|1:0,0:0:0:0:
314,176,23558,2,2,L|188:195,2,105,2|0|2,0:2|2:0|1:0,0:0:0:0:
442,284,24593,54,0,P|411:330|322:344,1,140,0|0,0:0|1:0,0:0:0:0:
249,362,25214,2,0,P|214:323|121:318,1,140,2|0,0:2|0:0,0:0:0:0:
56,353,25834,1,2,1:0:0:0:
10,191,26248,54,0,L|168:168,1,140,0|0,0:0|1:0,0:0:0:0:
212,225,26869,2,2,P|225:285|266:316,2,105,2|0|2,0:2|2:0|1:0,0:0:0:0:
295,237,27697,1,2,0:2:0:0:
269,156,27904,54,0,B|288:152|306:143|306:143|343:180|406:166,1,140,4|0,1:2|1:0,0:0:0:0:
465,118,28524,2,2,P|420:87|372:87,2,105,2|0|2,0:2|2:0|1:0,0:0:0:0:
324,26,29559,54,0,P|247:64|189:53,1,140,0|0,0:0|1:0,0:0:0:0:
112,66,30180,2,0,P|72:101|56:194,1,140,2|0,0:2|0:0,0:0:0:0:
123,230,30800,2,0,P|131:289|134:312,1,70,2|0,1:0|0:0,0:0:0:0:
208,334,31214,54,0,P|274:334|315:258,1,140,0|0,0:0|1:0,0:0:0:0:
235,258,31835,2,0,B|321:264|310:215|397:230,1,140,2|0,0:2|0:0,0:0:0:0:
412,318,32455,70,2,P|468:196|432:146,1,210,0|0,0:0|0:0,0:0:0:0:
348,142,33283,6,0,L|282:139,6,46.6666666666667,0|0|0|0|0|0|0,1:0|0:0|1:0|0:0|1:0|0:0|1:0,0:0:0:0:
201,58,34525,86,0,B|217:52|229:37|229:37|271:71|342:47,1,140,4|0,1:2|1:0,0:0:0:0:
411,64,35145,2,0,P|432:94|436:146,1,70,2|0,0:2|0:0,0:0:0:0:
375,182,35559,1,0,0:0:0:0:
297,214,35766,2,0,P|284:259|285:299,1,70,2|0,1:0|0:0,0:0:0:0:
307,362,36180,54,0,P|266:317|166:305,1,140,0|0,0:0|1:0,0:0:0:0:
112,329,36801,2,2,P|92:286|87:220,2,105,2|0|2,0:2|2:0|1:0,0:0:0:0:
8,196,37835,54,0,P|39:159|140:162,1,140,0|0,0:0|1:0,0:0:0:0:
206,179,38456,1,2,0:2:0:0:
195,95,38663,2,0,L|291:65,1,70
330,122,39076,2,0,P|342:168|333:205,1,70,2|0,1:0|0:0,0:0:0:0:
288,257,39490,54,0,P|332:234|428:265,1,140,0|0,0:0|1:0,0:0:0:0:
452,328,40111,2,2,P|400:337|356:313,2,105,2|0|2,0:2|2:0|1:0,0:0:0:0:
501,260,40939,1,2,0:2:0:0:
468,182,41146,37,4,1:2:0:0:
468,182,41559,2,0,L|329:198,1,140,0|0,3:0|3:0,0:0:0:0:
260,247,42801,53,0,0:0:0:0:
190,199,43215,2,0,P|182:146|198:59,1,140,0|0,3:0|3:0,0:0:0:0:
280,56,44456,53,4,0:3:0:0:
280,56,44663,1,4,0:3:0:0:
280,56,44870,2,0,P|313:72|416:65,1,140,0|0,3:0|3:0,0:0:0:0:
475,123,46111,54,0,L|480:201,1,70,0|0,0:0|3:0,0:0:0:0:
395,185,46939,2,0,L|390:263,1,70,0|0,0:0|3:0,0:0:0:0:
456,307,47767,54,0,P|406:284|258:332,1,210,4|0,0:3|3:0,0:0:0:0:
182,306,49422,2,0,P|108:301|52:253,1,140,0|0,0:0|0:0,0:0:0:0:
39,179,50663,1,0,3:0:0:0:
95,117,51077,54,0,P|132:109|172:124,1,70,0|0,0:0|3:0,0:0:0:0:
237,78,51905,2,0,L|318:66,1,70,0|0,0:0|3:0,0:0:0:0:
429,92,52732,54,0,P|437:130|434:201,1,105.000004005432,4|0,0:3|3:0,0:0:0:0:
334,272,53560,2,0,P|326:234|329:163,1,105.000004005432,4|4,0:3|2:0,0:0:0:0:
350,86,54181,1,4,2:0:0:0:
272,54,54388,102,2,L|145:68,2,105,4|2|2,0:0|0:2|0:2,0:0:0:0:
287,136,55215,2,0,P|290:186|288:221,1,70,0|2,0:0|0:2,0:0:0:0:
207,184,55629,2,0,P|204:234|206:269,1,70,0|2,0:0|0:2,0:0:0:0:
278,295,56043,54,2,P|345:289|399:304,2,105,0|2|2,0:0|0:2|0:2,0:0:0:0:
201,329,56870,2,0,P|162:342|119:340,1,70,0|2,0:0|0:2,0:0:0:0:
149,259,57284,2,2,L|134:180,1,70,0|2,0:0|0:2,0:0:0:0:
63,146,57698,54,2,P|101:117|206:139,1,140,4|0,0:0|0:0,0:0:0:0:
247,185,58319,2,0,P|334:192|372:163,1,140,2|2,0:2|0:2,0:0:0:0:
391,81,58940,1,0,0:0:0:0:
456,132,59146,1,2,0:2:0:0:
437,213,59353,54,2,L|448:294,1,70,0|2,0:0|0:2,0:0:0:0:
355,257,59767,2,0,L|361:334,1,70,0|2,0:0|0:2,0:0:0:0:
270,220,60181,2,2,L|262:362,1,140,2|0,0:2|0:0,0:0:0:0:
42,297,61009,54,2,L|27:145,1,140,4|0,0:0|0:0,0:0:0:0:
99,113,61629,1,2,0:3:0:0:
170,156,61836,2,0,P|221:176|297:136,1,140
302,56,62457,1,2,0:3:0:0:
224,88,62664,53,0,0:0:0:0:
362,183,63078,1,2,0:3:0:0:
224,88,63491,1,0,0:0:0:0:
143,63,63698,1,2,0:3:0:0:
80,119,63905,2,0,P|73:156|76:202,1,70,0|2,0:0|0:3,0:0:0:0:
106,266,64319,54,0,L|123:314,2,35,8|4|4,0:3|0:3|0:3,0:0:0:0:
172,214,64733,2,0,L|248:189,1,70,2|2,0:3|0:3,0:0:0:0:
315,157,65147,2,0,L|317:111,2,35,8|4|4,0:3|0:3|0:3,0:0:0:0:
312,240,65561,2,0,L|314:335,1,70,2|2,0:3|0:3,0:0:0:0:
390,343,65974,54,0,P|452:334|509:260,1,140
456,208,66595,1,2,0:3:0:0:
445,124,66802,2,0,P|390:128|317:58,1,140
244,52,67423,1,2,0:3:0:0:
177,103,67630,54,2,L|66:114,2,105,4|2|2,0:0|0:3|0:3,0:0:0:0:
253,138,68457,2,0,P|263:182|265:220,1,70,4|2,0:2|0:2,0:0:0:0:
348,193,68871,2,0,P|343:242|333:276,1,70,0|2,0:0|0:2,0:0:0:0:
266,307,69285,54,2,P|219:276|149:283,2,105,4|2|2,0:0|0:3|0:3,0:0:0:0:
197,356,70112,1,4,0:2:0:0:
345,278,70526,1,2,0:2:0:0:
197,356,70940,54,2,L|116:341,1,70,4|2,0:0|0:3,0:0:0:0:
44,352,71354,1,0,0:0:0:0:
70,272,71561,2,2,P|57:208|67:110,1,140,2|2,0:3|0:2,0:0:0:0:
125,78,72182,2,0,L|207:82,1,70,0|2,0:0|0:2,0:0:0:0:
273,51,72595,54,2,P|282:96|274:136,1,70,4|2,0:0|0:3,0:0:0:0:
348,180,73009,2,2,P|366:143|395:116,1,70,0|2,0:0|0:3,0:0:0:0:
458,191,73423,2,2,P|477:234|479:336,1,140,6|0,0:2|0:0,0:0:0:0:
403,359,74044,1,2,0:2:0:0:
332,312,74251,53,4,0:0:0:0:
169,352,74664,1,2,0:3:0:0:
332,312,75078,1,0,0:0:0:0:
225,181,75492,1,2,0:2:0:0:
234,264,75699,1,2,0:2:0:0:
302,215,75906,54,2,P|345:208|385:213,2,70,4|2|0,0:0|0:3|0:0,0:0:0:0:
290,131,76527,2,0,P|331:117|445:124,1,140,2|2,0:3|0:2,0:0:0:0:
453,197,77147,2,0,P|462:230|463:272,1,70,2|0,0:2|0:0,0:0:0:0:
403,325,77561,54,0,L|422:364,2,35,8|4|4,0:3|0:3|0:3,0:0:0:0:
320,305,77975,2,0,L|234:297,1,70,2|2,0:3|0:3,0:0:0:0:
167,315,78389,2,0,L|139:355,2,35,8|4|4,0:3|0:3|0:3,0:0:0:0:
177,231,78803,2,0,L|150:146,1,70,2|2,0:3|0:3,0:0:0:0:
114,90,79216,54,2,P|177:79|235:136,1,140,4|2,0:0|0:2,0:0:0:0:
298,177,79837,1,2,0:2:0:0:
346,108,80044,2,0,P|393:116|483:60,2,140,4|0|0,0:0|0:0|0:0,0:0:0:0:
346,108,81285,38,0,P|385:132|420:201,2,105.000004005432
182,204,82527,54,0,P|131:216|65:188,1,105.000004005432,2|0,0:0|0:0,0:0:0:0:
91,75,83354,2,0,P|142:63|208:91,1,105.000004005432
325,188,84182,54,0,L|433:176,1,105.000004005432,2|0,0:0|0:0,0:0:0:0:
412,51,85010,2,0,P|352:48|295:75,1,105.000004005432
194,174,85837,54,0,L|187:282,1,105.000004005432,2|0,0:0|0:0,0:0:0:0:
75,219,86665,2,0,L|68:327,1,105.000004005432,0|2,0:0|0:0,0:0:0:0:
315,348,87493,54,0,L|435:334,2,105.000004005432,2|0|0,0:0|0:0|0:0,0:0:0:0:
189,358,88734,1,0,0:0:0:0:
99,228,89148,54,0,P|88:173|96:112,2,105.000004005432,2|0|0,0:0|0:0|0:0,0:0:0:0:
215,276,90389,1,0,0:0:0:0:
333,172,90803,54,0,P|381:163|446:181,2,105.000004005432,2|0|0,0:0|0:0|0:0,0:0:0:0:
207,190,92045,1,0,0:0:0:0:
83,92,92458,54,0,P|61:132|60:202,1,105.000004005432,2|0,0:0|0:0,0:0:0:0:
108,305,93286,2,0,P|130:265|131:195,1,105.000004005432,0|2,0:0|0:0,0:0:0:0:
98,85,94114,53,2,0:0:0:0:
98,85,94321,1,0,0:0:0:0:
98,85,94527,2,0,L|226:76,2,105.000004005432,0|2|0,0:0|0:0|0:0,0:0:0:0:
159,195,95769,53,2,0:0:0:0:
159,195,95976,1,0,0:0:0:0:
159,195,96182,2,0,L|31:204,2,105.000004005432,0|2|0,0:0|0:0|0:0,0:0:0:0:
280,160,97424,53,2,0:0:0:0:
280,160,97631,1,0,0:0:0:0:
280,160,97838,2,0,L|401:152,2,105.000004005432,0|2|0,0:0|0:0|0:0,0:0:0:0:
341,270,99079,53,2,0:0:0:0:
341,270,99286,1,0,0:0:0:0:
341,270,99493,2,0,P|310:317|306:380,2,105.000004005432,0|2|2,0:0|0:0|0:0,0:0:0:0:
463,236,100735,54,0,P|481:182|410:42,1,210.000008010865,2|2,0:0|0:0,0:0:0:0:
327,95,101976,1,0,0:0:0:0:
223,78,102390,54,0,P|197:117|37:140,1,210.000008010865,2|2,0:0|0:0,0:0:0:0:
18,246,103631,1,0,0:0:0:0:
101,309,104045,54,0,L|205:283,1,105.000004005432,2|0,0:0|0:0,0:0:0:0:
302,250,104873,2,0,P|316:304|307:362,1,105.000004005432,2|0,0:0|0:0,0:0:0:0:
256,192,105700,12,0,107356,0:0:0:0:
187,84,120598,118,0,L|93:94,1,78.7500030040742,0|0,3:0|3:0,0:0:0:0:
47,153,121218,2,0,L|69:246,1,78.7500030040742,0|0,3:0|3:0,0:0:0:0:
53,315,121839,2,0,L|42:355,4,26.2500010013581,0|0|0|0|0,3:0|0:0|0:0|0:0|0:0,0:0:0:0:
326,93,123908,54,0,P|360:90|416:75,1,78.7500030040742,0|0,3:0|3:0,0:0:0:0:
472,132,124529,2,0,L|461:220,1,78.7500030040742,0|0,3:0|3:0,0:0:0:0:
474,296,125150,2,0,L|477:331,4,26.2500010013581,0|0|0|0|0,3:0|0:0|0:0|0:0|0:0,0:0:0:0:
260,355,127219,54,0,L|269:259,1,78.7500030040742,0|0,3:0|3:0,0:0:0:0:
221,202,127839,2,0,P|183:211|139:213,1,78.7500030040742,0|0,3:0|3:0,0:0:0:0:
74,160,128460,2,0,L|62:124,4,26.2500010013581,0|0|0|0|0,3:0|0:0|0:0|0:0|0:0,0:0:0:0:
333,284,130529,54,0,L|344:186,1,78.7500030040742,0|0,3:0|3:0,0:0:0:0:
422,173,131150,2,0,P|425:128|413:81,1,78.7500030040742,0|0,3:0|3:0,0:0:0:0:
336,65,131771,2,0,L|321:35,4,26.2500010013581,0|0|0|0|0,3:0|0:0|0:0|0:0|0:0,0:0:0:0:
90,310,133426,86,0,L|151:295,1,52.5000020027161,0|0,3:0|3:0,0:0:0:0:
214,318,133840,2,0,P|222:269|218:227,1,78.7500030040742,0|0,3:0|3:0,0:0:0:0:
149,189,134460,2,0,L|52:203,1,78.7500030040742,0|0,3:0|3:0,0:0:0:0:
13,134,135081,2,0,P|6:90|18:43,1,78.7500030040742,0|0,3:0|3:0,0:0:0:0:
99,53,135702,54,0,L|196:61,1,78.7500030040742,0|0,3:0|3:0,0:0:0:0:
242,116,136323,2,0,L|230:203,2,78.7500030040742,0|0|0,3:0|3:0|3:0,0:0:0:0:
301,66,137150,54,0,L|380:52,1,78.7500030040742,0|0,3:0|3:0,0:0:0:0:
456,89,137771,2,0,P|462:128|449:188,1,78.7500030040742,0|0,3:0|3:0,0:0:0:0:
406,236,138392,2,0,L|312:225,1,78.7500030040742,0|0,3:0|3:0,0:0:0:0:
250,265,139012,54,0,P|240:299|241:361,1,78.7500030040742,0|0,3:0|3:0,0:0:0:0:
151,333,139633,2,0,L|56:352,2,78.7500030040742,0|0|0,3:0|3:0|3:0,0:0:0:0:
135,256,140461,54,0,L|127:167,1,78.7500030040742,0|2,3:0|0:0,0:0:0:0:
221,283,141081,2,0,L|231:197,1,78.7500030040742,0|2,3:0|0:0,0:0:0:0:
317,252,141702,2,0,L|304:165,1,78.7500030040742,0|2,3:0|0:0,0:0:0:0:
395,286,142323,54,0,L|406:192,1,78.7500030040742,0|2,3:0|0:0,0:0:0:0:
487,254,142944,2,0,L|481:165,2,78.7500030040742,0|2|2,3:0|0:0|0:0,0:0:0:0:
465,332,143771,54,2,P|422:339|379:330,1,78.7500030040742,0|2,3:0|0:0,0:0:0:0:
301,342,144392,2,2,P|281:304|276:259,1,78.7500030040742,0|2,3:0|0:0,0:0:0:0:
311,189,145013,1,0,3:0:0:0:
437,215,145426,86,0,B|286:304|263:114|74:223,1,367.500014019013,0|0,2:3|0:0,0:0:0:0:
35,272,147082,38,0,P|42:215|29:152,2,105,4|2|2,1:0|0:2|0:2,0:0:0:0:
83,340,147909,2,0,L|160:323,1,70,8|4,0:3|0:3,0:0:0:0:
231,352,148323,1,8,0:3:0:0:
323,211,148737,54,0,P|290:189|203:188,2,105,4|2|2,1:0|0:2|0:2,0:0:0:0:
400,178,149565,2,0,P|451:163|479:65,1,140,8|4,0:3|0:3,0:0:0:0:
401,93,150185,1,0,0:0:0:0:
319,73,150392,54,0,L|212:84,2,105,4|2|2,1:0|0:2|0:2,0:0:0:0:
314,157,151220,2,0,L|229:167,1,70,8|4,0:3|0:3,0:0:0:0:
162,146,151634,1,8,0:3:0:0:
46,267,152047,54,0,P|81:297|159:307,2,105,4|2|2,1:0|0:2|0:2,0:0:0:0:
43,182,152875,2,0,L|49:158,4,17.5
122,211,153289,2,0,P|130:171|126:135,1,70
59,92,153703,54,0,B|189:147|190:36|341:85,1,280,4|0,1:0|1:0,0:0:0:0:
371,155,154737,1,2,0:2:0:0:
453,155,154944,1,0,1:0:0:0:
413,82,155151,1,2,0:2:0:0:
371,155,155358,54,0,P|386:210|483:237,1,140,4|0,1:0|1:0,0:0:0:0:
463,327,155979,1,2,0:2:0:0:
379,322,156186,2,0,L|354:333,8,17.5,0|0|0|0|0|0|0|0|0,1:0|0:0|0:0|0:0|0:0|0:0|0:0|0:0|1:0,0:0:0:0:
408,198,157013,54,0,B|289:134|258:259|120:183,1,280,4|0,1:0|1:0,0:0:0:0:
129,107,158048,1,4,1:2:0:0:
186,46,158255,1,0,1:0:0:0:
212,125,158462,1,4,1:2:0:0:
267,63,158668,54,0,L|280:56,32,13.125000500679,0|0|0|0|0|0|0|0|0|0|0|0|0|0|0|0|0|0|0|0|0|0|0|0|0|0|0|0|0|0|0|0|6,1:0|0:0|0:0|0:0|1:0|0:0|0:0|0:0|1:0|0:0|0:0|0:0|1:0|0:0|0:0|0:0|1:0|0:0|0:0|0:0|1:0|0:0|0:0|0:0|1:0|0:0|0:0|0:0|1:0|0:0|0:0|0:0|1:2,0:0:0:0:
368,46,159703,1,2,0:0:0:0:
466,29,159910,1,0,0:0:0:0:
466,29,160324,54,0,L|472:126,1,70
402,149,160738,2,0,L|322:140,1,70
252,165,161151,2,2,P|231:225|253:314,1,140,0|2,0:0|0:0,0:0:0:0:
320,334,161772,1,0,0:0:0:0:
384,280,161979,54,0,L|458:275,1,70
460,191,162393,2,0,L|386:196,1,70
317,151,162807,1,4,0:2:0:0:
344,71,163014,1,2,0:2:0:0:
344,71,163220,1,4,0:2:0:0:
282,227,163634,54,0,P|237:250|135:241,1,140
75,205,164255,1,0,0:0:0:0:
49,124,164462,2,2,P|65:81|95:56,1,70,0|2,0:0|0:0,0:0:0:0:
199,82,164876,2,0,L|133:132,1,70,2|0,0:0|0:0,0:0:0:0:
75,205,165289,54,0,P|51:271|93:337,1,140
165,338,165910,1,0,0:0:0:0:
222,276,166117,2,0,P|220:236|189:195,1,70,4|2,0:2|0:2,0:0:0:0:
138,261,166531,1,4,0:2:0:0:
301,301,166945,54,0,P|347:278|460:298,1,140,0|4,0:0|0:2,0:0:0:0:
476,211,167565,1,0,0:0:0:0:
419,148,167772,2,2,P|411:113|411:73,1,70,0|2,0:0|0:0,0:0:0:0:
332,45,168186,2,0,L|255:37,1,70,2|0,0:0|0:0,0:0:0:0:
179,20,168600,54,0,B|167:92|215:85|198:172,1,140,0|4,0:0|0:2,0:0:0:0:
130,203,169221,1,0,0:0:0:0:
205,239,169428,2,0,P|252:232|286:232,1,70,2|0,0:0|0:0,0:0:0:0:
347,273,169841,1,2,0:0:0:0:
336,107,170255,54,0,P|385:102|475:163,1,140,0|4,0:0|0:2,0:0:0:0:
453,228,170876,1,0,0:0:0:0:
503,295,171083,2,2,P|499:344|490:366,1,70,0|2,0:0|0:0,0:0:0:0:
408,345,171497,2,0,L|329:335,1,70,2|0,0:0|0:0,0:0:0:0:
256,356,171910,54,0,P|220:314|118:308,1,140,0|4,0:0|0:2,0:0:0:0:
55,297,172531,1,0,0:0:0:0:
41,214,172738,1,8,0:3:0:0:
41,214,173152,1,4,0:3:0:0:
41,214,173566,22,2,L|169:197,2,105,4|0|2,0:0|0:0|0:0,0:0:0:0:
47,130,174393,2,0,L|125:120,1,70,0|8,0:0|0:2,0:0:0:0:
200,133,174807,2,0,B|204:99|193:54,1,70,8|0,0:2|0:0,0:0:0:0:
277,45,175221,86,2,P|310:87|377:97,2,105,4|0|2,0:0|0:0|0:0,0:0:0:0:
356,16,176049,1,4,0:2:0:0:
392,179,176462,1,8,0:2:0:0:
356,16,176876,22,2,P|414:34|446:96,2,105,4|0|2,0:0|0:0|0:0,0:0:0:0:
283,59,177704,2,0,L|273:138,1,70,0|8,0:0|0:2,0:0:0:0:
207,180,178118,2,0,P|160:197|109:195,1,70,8|0,0:2|0:0,0:0:0:0:
58,177,178531,86,2,L|38:58,2,105,4|0|2,0:0|0:0|0:0,0:0:0:0:
69,260,179359,2,0,L|59:302,4,35,4|0|0|0|8,0:2|0:0|0:0|0:0|0:2,0:0:0:0:
136,108,180187,22,2,L|233:89,1,70,4|0,0:0|0:0,0:0:0:0:
175,220,180601,2,2,L|234:167,1,70,0|0,0:0|0:0,0:0:0:0:
301,270,181014,2,0,L|305:185,1,70,0|8,0:0|0:2,0:0:0:0:
312,93,181428,1,8,0:2:0:0:
474,282,181842,86,2,L|452:216,1,70,4|0,0:0|0:0,0:0:0:0:
363,307,182256,2,2,L|357:238,1,70,0|0,0:0|0:0,0:0:0:0:
263,203,182670,86,0,B|254:254|254:254|260:291|260:291|250:342,1,140,4|12,0:2|0:2,0:0:0:0:
52,117,183497,54,2,L|143:104,1,70,4|0,0:0|0:0,0:0:0:0:
244,39,183911,2,2,L|169:51,1,70,0|0,0:0|0:0,0:0:0:0:
199,130,184325,1,0,0:0:0:0:
277,159,184532,1,8,0:2:0:0:
277,159,184739,1,8,0:2:0:0:
452,216,185153,86,2,L|474:282,1,70,4|0,0:0|0:0,0:0:0:0:
357,238,185567,2,2,L|363:307,1,70,0|0,0:0|0:0,0:0:0:0:
250,340,185981,86,0,B|260:291|260:291|254:254|254:254|263:203,1,140,4|12,0:2|0:2,0:0:0:0:
97,344,186808,54,2,P|82:277|93:197,2,140,6|0|10,0:0|0:0|0:3,0:0:0:0:
178,363,187842,1,8,0:2:0:0:
251,323,188049,1,4,0:3:0:0:
330,350,188256,1,8,0:2:0:0:
391,292,188463,86,2,L|507:299,2,105,6|0|2,0:0|0:0|0:0,0:0:0:0:
399,207,189291,2,0,P|413:153|397:48,1,140,2|8,0:0|0:2,0:0:0:0:
317,213,190118,22,2,L|159:241,2,140,6|0|8,0:0|0:0|0:3,0:0:0:0:
399,192,191153,1,8,0:2:0:0:
479,167,191360,1,4,0:3:0:0:
453,86,191567,1,8,0:2:0:0:
371,107,191774,86,2,L|348:3,2,105,6|0|2,0:0|0:0|0:0,0:0:0:0:
293,139,192601,2,0,L|218:163,1,70,2|0,0:0|0:2,0:0:0:0:
329,215,193015,2,0,L|356:292,1,70,8|0,0:2|0:2,0:0:0:0:
248,245,193429,22,2,P|201:260|96:230,2,140,6|0|6,0:0|0:0|0:0,0:0:0:0:
281,168,194463,1,8,0:2:0:0:
246,91,194670,1,2,0:0:0:0:
294,22,194877,1,8,0:2:0:0:
372,52,195084,86,2,L|490:39,2,105,6|0|2,0:0|0:0|0:0,0:0:0:0:
359,135,195912,1,6,0:0:0:0:
379,216,196119,1,0,0:0:0:0:
400,296,196325,1,8,0:2:0:0:
256,192,196739,12,0,198395,0:0:0:0:
