osu file format v14

[General]
AudioFilename: Infected Mushroom - Kipod.mp3
AudioLeadIn: 0
PreviewTime: 78452
Countdown: 0
SampleSet: Normal
StackLeniency: 0.7
Mode: 1
LetterboxInBreaks: 0
WidescreenStoryboard: 0

[Editor]
Bookmarks: 39866,53107,106073,119314,162969,178900,208693,235176,261659,286486,301383,321245,354348,369245,395728
DistanceSpacing: 2
BeatDivisor: 4
GridSize: 4
TimelineZoom: 2.6

[Metadata]
Title:Kipod
TitleUnicode:Kipod
Artist:Infected Mushroom
ArtistUnicode:Infected Mushroom
Creator:Hanjamon
Version:Inner Oni
Source:
Tags:Friends on Mushrooms Erez Aizen Amit Duvdevani
BeatmapID:683991
BeatmapSetID:305394

[Difficulty]
HPDrainRate:5
CircleSize:5
OverallDifficulty:5
ApproachRate:5
SliderMultiplier:1.4
SliderTickRate:1

[Events]
//Background and Video events
0,0,"IMFOMBG.jpg",0,-65
//Break Periods
//Storyboard Layer 0 (Background)
//Storyboard Layer 1 (Fail)
//Storyboard Layer 2 (Pass)
//Storyboard Layer 3 (Foreground)
//Storyboard Sound Samples

[TimingPoints]
142,413.793103448276,4,1,0,25,1,0
13383,-100,4,1,0,30,0,0
26624,-100,4,1,0,45,0,0
39866,-100,4,1,0,50,0,0
53107,-100,4,1,0,60,0,0
66348,-95.2380952380952,4,1,0,60,0,0
69659,-90.9090909090909,4,1,0,60,0,0
73073,-86.9565217391304,4,1,0,60,0,0
76383,-83.3333333333333,4,1,0,60,0,0
77935,-83.3333333333333,4,1,0,55,0,0
79176,-83.3333333333333,4,1,0,40,0,0
79590,-100,4,1,0,65,0,0
92004,-100,4,1,0,40,0,0
92831,-100,4,1,0,65,0,0
108762,-100,4,1,0,55,0,0
109383,-100,4,1,0,65,0,0
112073,-100,4,1,0,55,0,0
112693,-95.2380952380952,4,1,0,55,0,1
113935,-90.9090909090909,4,1,0,55,0,1
114762,-86.9565217391304,4,1,0,55,0,1
115590,-83.3333333333333,4,1,0,55,0,1
117659,-83.3333333333333,4,1,0,40,0,1
119314,-83.3333333333333,4,1,0,40,0,0
124383,-100,4,1,0,30,0,0
125935,-100,4,1,0,65,0,0
178900,-100,4,1,0,65,0,0
192038,-95.2380952380952,4,1,0,65,0,0
192142,-95.2380952380952,4,1,0,70,0,1
195452,-90.9090909090909,4,1,0,70,0,1
198452,-86.9565217391304,4,1,0,70,0,1
202073,-83.3333333333333,4,1,0,70,0,1
203728,-83.3333333333333,4,1,0,50,0,0
204969,-83.3333333333333,4,1,0,40,0,0
205590,-86.9565217391304,4,1,0,40,0,0
206210,-90.9090909090909,4,1,0,40,0,0
207038,-95.2380952380952,4,1,0,40,0,0
207866,-95.2380952380952,4,1,0,50,0,0
208693,-100,4,1,0,75,0,1
220279,-100,4,1,0,55,0,0
221935,-100,4,1,0,75,0,1
233521,-100,4,1,0,55,0,0
235176,-100,4,1,0,65,0,0
261659,-100,4,1,0,50,0,0
286486,-100,4,1,0,45,0,0
288142,-100,4,1,0,65,0,0
301383,-100,4,1,0,60,0,0
314210,-99.009900990099,4,1,0,75,0,0
314314,-98.0392156862745,4,1,0,75,0,0
314417,-97.0873786407767,4,1,0,75,0,0
314521,-96.1538461538461,4,1,0,75,0,0
314624,-95.2380952380952,4,1,0,55,0,0
315038,-94.3396226415094,4,1,0,55,0,0
315142,-93.4579439252336,4,1,0,55,0,0
315245,-92.5925925925926,4,1,0,55,0,0
315348,-91.743119266055,4,1,0,55,0,0
315452,-90.9090909090909,4,1,0,55,0,0
315866,-90.0900900900901,4,1,0,55,0,0
315969,-89.2857142857143,4,1,0,55,0,0
316073,-88.4955752212389,4,1,0,55,0,0
316176,-87.719298245614,4,1,0,55,0,0
316279,-86.9565217391304,4,1,0,55,0,0
316693,-86.2068965517241,4,1,0,55,0,0
316797,-85.4700854700855,4,1,0,55,0,0
316900,-84.7457627118644,4,1,0,55,0,0
317004,-84.0336134453781,4,1,0,55,0,0
317107,-83.3333333333333,4,1,0,55,0,0
317521,-82.6446280991736,4,1,0,55,0,0
317624,-81.9672131147541,4,1,0,55,0,0
317728,-81.3008130081301,4,1,0,55,0,0
317831,-80.6451612903226,4,1,0,55,0,0
317935,-80,4,1,0,55,0,0
318038,-79.3650793650794,4,1,0,55,0,0
318142,-78.7401574803149,4,1,0,55,0,0
318245,-78.125,4,1,0,55,0,0
318348,-77.5193798449612,4,1,0,55,0,0
318452,-76.9230769230769,4,1,0,55,0,0
318555,-76.3358778625954,4,1,0,55,0,0
318659,-75.7575757575758,4,1,0,55,0,0
318762,-75.187969924812,4,1,0,55,0,0
318866,-74.6268656716418,4,1,0,55,0,0
318969,-74.0740740740741,4,1,0,55,0,0
319073,-73.5294117647059,4,1,0,55,0,0
319176,-72.992700729927,4,1,0,55,0,0
319279,-72.463768115942,4,1,0,55,0,0
319383,-71.9424460431655,4,1,0,55,0,0
319486,-71.4285714285714,4,1,0,55,0,0
319590,-71.4285714285714,4,1,0,65,0,0
320004,-74.0740740740741,4,1,0,65,0,0
320210,-76.9230769230769,4,1,0,65,0,0
320831,-83.3333333333333,4,1,0,60,0,0
321245,-100,4,1,0,60,0,1
334073,-99.009900990099,4,1,0,60,0,1
334176,-98.0392156862745,4,1,0,60,0,1
334279,-97.0873786407767,4,1,0,60,0,1
334383,-96.1538461538461,4,1,0,60,0,1
334486,-95.2380952380952,4,1,0,55,0,0
334900,-94.3396226415094,4,1,0,55,0,0
335004,-93.4579439252336,4,1,0,55,0,0
335107,-92.5925925925926,4,1,0,55,0,0
335210,-91.743119266055,4,1,0,55,0,0
335314,-90.9090909090909,4,1,0,55,0,0
335728,-90.0900900900901,4,1,0,55,0,0
335831,-89.2857142857143,4,1,0,55,0,0
335935,-88.4955752212389,4,1,0,55,0,0
336038,-87.719298245614,4,1,0,55,0,0
336142,-86.9565217391304,4,1,0,55,0,0
336555,-86.2068965517241,4,1,0,55,0,0
336659,-85.4700854700855,4,1,0,55,0,0
336762,-84.7457627118644,4,1,0,55,0,0
336866,-84.0336134453781,4,1,0,55,0,0
336969,-83.3333333333333,4,1,0,55,0,0
337383,-82.6446280991736,4,1,0,55,0,0
337486,-81.9672131147541,4,1,0,55,0,0
337590,-81.3008130081301,4,1,0,55,0,0
337693,-80.6451612903226,4,1,0,55,0,0
337797,-80,4,1,0,55,0,0
337900,-79.3650793650794,4,1,0,55,0,0
338004,-78.7401574803149,4,1,0,55,0,0
338107,-78.125,4,1,0,55,0,0
338210,-77.5193798449612,4,1,0,55,0,0
338314,-76.9230769230769,4,1,0,55,0,0
338417,-76.3358778625954,4,1,0,55,0,0
338521,-75.7575757575758,4,1,0,55,0,0
338624,-75.187969924812,4,1,0,55,0,0
338728,-74.6268656716418,4,1,0,55,0,0
338831,-74.0740740740741,4,1,0,55,0,0
338935,-73.5294117647059,4,1,0,55,0,0
339038,-72.992700729927,4,1,0,55,0,0
339142,-72.463768115942,4,1,0,55,0,0
339245,-71.9424460431655,4,1,0,55,0,0
339348,-71.4285714285714,4,1,0,55,0,0
340693,-100,4,1,0,60,0,0
341107,-100,4,1,0,65,0,1
354245,-100,4,1,0,65,0,0
355590,-100,4,1,0,40,0,0
356004,-100,4,1,0,50,0,0
395521,-133.333333333333,4,1,0,50,0,0
395728,-133.333333333333,4,1,0,40,0,0

[HitObjects]
280,168,142,5,0,0:0:0:0:
0,160,555,1,0,0:0:0:0:
280,168,969,1,0,0:0:0:0:
280,168,1383,1,0,0:0:0:0:
320,136,1590,1,0,0:0:0:0:
320,136,1693,1,8,0:0:0:0:
320,136,1900,1,8,0:0:0:0:
320,136,2210,1,0,0:0:0:0:
320,136,2417,1,8,0:0:0:0:
320,136,2624,1,8,0:0:0:0:
76,276,3038,1,0,0:0:0:0:
216,264,3245,1,8,0:0:0:0:
320,136,3452,1,0,0:0:0:0:
320,156,3866,1,0,0:0:0:0:
344,156,4279,1,0,0:0:0:0:
344,156,4693,1,0,0:0:0:0:
320,156,4900,1,8,0:0:0:0:
320,156,5004,1,0,0:0:0:0:
320,156,5210,1,0,0:0:0:0:
252,180,5521,1,8,0:0:0:0:
252,180,5624,1,8,0:0:0:0:
252,180,5728,1,0,0:0:0:0:
252,180,5935,1,8,0:0:0:0:
288,160,6348,1,0,0:0:0:0:
288,160,6555,1,8,0:0:0:0:
288,160,6762,1,0,0:0:0:0:
288,160,7176,1,0,0:0:0:0:
304,172,7590,1,0,0:0:0:0:
304,172,8004,1,0,0:0:0:0:
304,172,8210,1,8,0:0:0:0:
304,172,8314,1,8,0:0:0:0:
304,172,8521,1,8,0:0:0:0:
100,116,8831,1,0,0:0:0:0:
236,152,9038,1,0,0:0:0:0:
236,152,9245,1,8,0:0:0:0:
236,152,9659,1,8,0:0:0:0:
236,152,9866,1,0,0:0:0:0:
236,152,10073,1,8,0:0:0:0:
280,152,10486,1,8,0:0:0:0:
280,152,10900,1,8,0:0:0:0:
264,136,11314,1,8,0:0:0:0:
264,136,11521,1,0,0:0:0:0:
280,152,11831,1,0,0:0:0:0:
280,152,11935,1,8,0:0:0:0:
280,152,12142,1,8,0:0:0:0:
280,152,12348,1,0,0:0:0:0:
280,152,12555,1,0,0:0:0:0:
280,152,12969,1,0,0:0:0:0:
144,180,13176,1,8,0:0:0:0:
280,168,13383,1,0,0:0:0:0:
0,160,13797,1,0,0:0:0:0:
280,168,14210,1,0,0:0:0:0:
280,168,14624,1,0,0:0:0:0:
320,136,14831,1,0,0:0:0:0:
320,136,14935,1,8,0:0:0:0:
320,136,15142,1,8,0:0:0:0:
320,136,15452,1,0,0:0:0:0:
320,136,15659,1,8,0:0:0:0:
320,136,15866,1,8,0:0:0:0:
76,276,16279,1,0,0:0:0:0:
216,264,16486,1,8,0:0:0:0:
320,136,16693,1,0,0:0:0:0:
320,156,17107,1,0,0:0:0:0:
344,156,17521,1,0,0:0:0:0:
344,156,17935,1,0,0:0:0:0:
320,156,18142,1,8,0:0:0:0:
320,156,18245,1,0,0:0:0:0:
320,156,18452,1,0,0:0:0:0:
252,180,18762,1,8,0:0:0:0:
252,180,18866,1,8,0:0:0:0:
252,180,18969,1,0,0:0:0:0:
252,180,19176,1,8,0:0:0:0:
288,160,19590,1,0,0:0:0:0:
288,160,19797,1,8,0:0:0:0:
288,160,20004,1,0,0:0:0:0:
288,160,20417,1,0,0:0:0:0:
304,172,20831,1,0,0:0:0:0:
304,172,21245,1,0,0:0:0:0:
304,172,21452,1,8,0:0:0:0:
304,172,21555,1,8,0:0:0:0:
304,172,21762,1,8,0:0:0:0:
100,116,22073,1,0,0:0:0:0:
236,152,22279,1,0,0:0:0:0:
236,152,22486,1,8,0:0:0:0:
236,152,22900,1,8,0:0:0:0:
236,152,23107,1,0,0:0:0:0:
236,152,23314,1,8,0:0:0:0:
280,152,23728,1,8,0:0:0:0:
280,152,24142,1,8,0:0:0:0:
264,136,24555,1,8,0:0:0:0:
264,136,24762,1,0,0:0:0:0:
280,152,25073,1,0,0:0:0:0:
280,152,25176,1,8,0:0:0:0:
280,152,25383,1,8,0:0:0:0:
280,152,25590,1,0,0:0:0:0:
280,152,25797,1,0,0:0:0:0:
280,152,26210,1,0,0:0:0:0:
144,180,26417,1,8,0:0:0:0:
280,168,26624,1,0,0:0:0:0:
0,160,27038,1,0,0:0:0:0:
280,168,27452,1,0,0:0:0:0:
280,168,27866,1,0,0:0:0:0:
320,136,28073,1,0,0:0:0:0:
320,136,28176,1,8,0:0:0:0:
320,136,28383,1,8,0:0:0:0:
320,136,28693,1,0,0:0:0:0:
320,136,28900,1,8,0:0:0:0:
320,136,29107,1,8,0:0:0:0:
76,276,29521,1,0,0:0:0:0:
216,264,29728,1,8,0:0:0:0:
320,136,29935,1,0,0:0:0:0:
320,156,30348,1,0,0:0:0:0:
344,156,30762,1,0,0:0:0:0:
344,156,31176,1,0,0:0:0:0:
320,156,31383,1,8,0:0:0:0:
320,156,31486,1,0,0:0:0:0:
320,156,31693,1,0,0:0:0:0:
252,180,32004,1,8,0:0:0:0:
252,180,32107,1,8,0:0:0:0:
252,180,32210,1,0,0:0:0:0:
252,180,32417,1,8,0:0:0:0:
288,160,32831,1,0,0:0:0:0:
288,160,33038,1,8,0:0:0:0:
288,160,33245,1,0,0:0:0:0:
288,160,33659,1,0,0:0:0:0:
304,172,34073,1,0,0:0:0:0:
304,172,34486,1,0,0:0:0:0:
304,172,34693,1,8,0:0:0:0:
304,172,34797,1,8,0:0:0:0:
304,172,35004,1,8,0:0:0:0:
100,116,35314,1,0,0:0:0:0:
236,152,35521,1,0,0:0:0:0:
236,152,35728,1,8,0:0:0:0:
236,152,36142,1,8,0:0:0:0:
236,152,36348,1,0,0:0:0:0:
236,152,36555,1,8,0:0:0:0:
280,152,36969,1,8,0:0:0:0:
280,152,37383,1,8,0:0:0:0:
264,136,37797,1,8,0:0:0:0:
264,136,38004,1,0,0:0:0:0:
280,152,38314,1,0,0:0:0:0:
280,152,38417,1,8,0:0:0:0:
280,152,38624,1,8,0:0:0:0:
280,152,38831,1,0,0:0:0:0:
280,152,39038,1,0,0:0:0:0:
280,152,39452,1,0,0:0:0:0:
144,180,39659,1,8,0:0:0:0:
280,168,39866,1,0,0:0:0:0:
0,160,40279,1,0,0:0:0:0:
280,168,40693,1,0,0:0:0:0:
280,168,41107,1,0,0:0:0:0:
320,136,41314,1,0,0:0:0:0:
320,136,41417,1,8,0:0:0:0:
320,136,41624,1,8,0:0:0:0:
320,136,41935,1,0,0:0:0:0:
320,136,42142,1,8,0:0:0:0:
320,136,42348,1,8,0:0:0:0:
76,276,42762,1,0,0:0:0:0:
216,264,42969,1,8,0:0:0:0:
320,136,43176,1,0,0:0:0:0:
320,156,43590,1,0,0:0:0:0:
344,156,44004,1,0,0:0:0:0:
344,156,44417,1,0,0:0:0:0:
320,156,44624,1,8,0:0:0:0:
320,156,44728,1,0,0:0:0:0:
320,156,44935,1,0,0:0:0:0:
252,180,45245,1,8,0:0:0:0:
252,180,45348,1,8,0:0:0:0:
252,180,45452,1,0,0:0:0:0:
252,180,45659,1,8,0:0:0:0:
288,160,46073,1,0,0:0:0:0:
288,160,46279,1,8,0:0:0:0:
288,160,46486,1,0,0:0:0:0:
288,160,46900,1,0,0:0:0:0:
304,172,47314,1,0,0:0:0:0:
304,172,47728,1,0,0:0:0:0:
304,172,47935,1,8,0:0:0:0:
304,172,48038,1,8,0:0:0:0:
304,172,48245,1,8,0:0:0:0:
100,116,48555,1,0,0:0:0:0:
236,152,48762,1,0,0:0:0:0:
236,152,48969,1,8,0:0:0:0:
236,152,49383,1,8,0:0:0:0:
236,152,49590,1,0,0:0:0:0:
236,152,49797,1,8,0:0:0:0:
280,152,50210,1,8,0:0:0:0:
280,152,50624,1,8,0:0:0:0:
264,136,51038,1,8,0:0:0:0:
264,136,51245,1,0,0:0:0:0:
280,152,51348,1,0,0:0:0:0:
280,152,51555,1,0,0:0:0:0:
280,152,51659,1,8,0:0:0:0:
280,152,51866,1,8,0:0:0:0:
280,152,52073,5,0,0:0:0:0:
280,152,52279,1,0,0:0:0:0:
280,152,52693,1,0,0:0:0:0:
144,180,52900,1,8,0:0:0:0:
284,160,53107,1,4,0:0:0:0:
16,80,53521,1,8,0:0:0:0:
292,136,53935,1,8,0:0:0:0:
292,136,54348,1,0,0:0:0:0:
292,136,54555,1,0,0:0:0:0:
236,176,54659,1,0,0:0:0:0:
332,72,54866,1,8,0:0:0:0:
192,228,55176,1,0,0:0:0:0:
284,124,55383,1,0,0:0:0:0:
380,20,55590,1,8,0:0:0:0:
268,144,56004,1,0,0:0:0:0:
268,144,56210,1,8,0:0:0:0:
268,144,56417,1,4,0:0:0:0:
164,240,56624,1,0,0:0:0:0:
24,284,56831,1,8,0:0:0:0:
272,152,57245,1,8,0:0:0:0:
204,164,57555,1,8,0:0:0:0:
204,164,57607,1,8,0:0:0:0:
204,164,57659,1,0,0:0:0:0:
344,168,57866,1,0,0:0:0:0:
412,172,57969,1,0,0:0:0:0:
272,152,58176,1,8,0:0:0:0:
272,152,58486,1,0,0:0:0:0:
272,152,58693,1,0,0:0:0:0:
272,152,58900,1,8,0:0:0:0:
296,160,59314,1,8,0:0:0:0:
296,160,59728,1,4,0:0:0:0:
296,160,60142,1,8,0:0:0:0:
296,160,60555,1,8,0:0:0:0:
296,92,60866,1,8,0:0:0:0:
296,92,60917,1,8,0:0:0:0:
296,92,60969,1,0,0:0:0:0:
296,160,61176,1,0,0:0:0:0:
296,160,61279,1,0,0:0:0:0:
296,160,61486,1,8,0:0:0:0:
296,160,61797,1,0,0:0:0:0:
296,160,62004,1,0,0:0:0:0:
296,160,62210,1,8,0:0:0:0:
296,160,62624,1,0,0:0:0:0:
296,160,62831,1,0,0:0:0:0:
296,160,63038,1,4,0:0:0:0:
296,160,63452,1,8,0:0:0:0:
296,160,63866,1,8,0:0:0:0:
296,160,64279,1,0,0:0:0:0:
296,160,64486,1,0,0:0:0:0:
296,160,64590,1,0,0:0:0:0:
296,160,64797,1,8,0:0:0:0:
296,160,65107,1,0,0:0:0:0:
296,160,65314,1,0,0:0:0:0:
296,160,65521,1,8,0:0:0:0:
344,124,65797,1,0,0:0:0:0:
344,124,65866,1,0,0:0:0:0:
344,124,65935,1,8,0:0:0:0:
68,168,66348,1,4,0:0:0:0:
348,136,66762,1,0,0:0:0:0:
68,164,67176,1,0,0:0:0:0:
256,176,67590,1,0,0:0:0:0:
256,176,67797,1,0,0:0:0:0:
256,176,67900,1,0,0:0:0:0:
256,176,68107,1,0,0:0:0:0:
256,176,68417,1,0,0:0:0:0:
256,176,68624,1,8,0:0:0:0:
256,176,68831,1,0,0:0:0:0:
188,164,68935,1,0,0:0:0:0:
232,112,69038,1,0,0:0:0:0:
220,180,69142,1,0,0:0:0:0:
344,156,69245,1,8,0:0:0:0:
344,156,69314,1,8,0:0:0:0:
344,156,69383,1,8,0:0:0:0:
344,156,69452,1,8,0:0:0:0:
344,156,69659,1,4,0:0:0:0:
64,144,70073,1,0,0:0:0:0:
344,156,70486,1,0,0:0:0:0:
132,160,70900,1,0,0:0:0:0:
332,224,71107,1,0,0:0:0:0:
264,204,71210,1,0,0:0:0:0:
224,68,71417,1,0,0:0:0:0:
288,268,71728,1,0,0:0:0:0:
244,136,71935,1,8,0:0:0:0:
264,204,72142,1,0,0:0:0:0:
264,204,72245,1,0,0:0:0:0:
264,204,72348,1,0,0:0:0:0:
208,140,72452,1,0,0:0:0:0:
280,200,72555,1,8,0:0:0:0:
280,200,72659,1,0,0:0:0:0:
324,148,72762,1,8,0:0:0:0:
312,176,72969,1,4,0:0:0:0:
328,168,73383,1,0,0:0:0:0:
328,168,73797,1,0,0:0:0:0:
328,168,74210,1,0,0:0:0:0:
328,168,74417,1,0,0:0:0:0:
328,168,74521,1,0,0:0:0:0:
328,168,74728,1,0,0:0:0:0:
124,116,75038,1,0,0:0:0:0:
260,152,75245,1,0,0:0:0:0:
260,152,75452,1,0,0:0:0:0:
260,152,75866,5,0,0:0:0:0:
260,152,76073,5,0,0:0:0:0:
260,152,76279,5,4,0:0:0:0:
28,312,76693,1,0,0:0:0:0:
200,188,77107,1,0,0:0:0:0:
208,168,77521,1,0,0:0:0:0:
208,168,77728,1,0,0:0:0:0:
256,228,77935,5,0,0:0:0:0:
324,216,78038,1,0,0:0:0:0:
324,216,78142,1,8,0:0:0:0:
324,216,78245,1,8,0:0:0:0:
324,216,78348,1,0,0:0:0:0:
324,216,78452,1,0,0:0:0:0:
288,156,78555,1,8,0:0:0:0:
324,216,78659,1,0,0:0:0:0:
324,216,78762,1,8,0:0:0:0:
288,156,78866,1,8,0:0:0:0:
324,216,78969,1,8,0:0:0:0:
288,156,79073,1,8,0:0:0:0:
188,164,79176,1,0,0:0:0:0:
188,164,79590,1,12,0:0:0:0:
52,140,79797,1,0,0:0:0:0:
460,100,80004,1,8,0:0:0:0:
392,116,80107,1,0,0:0:0:0:
324,132,80210,1,0,0:0:0:0:
188,160,80417,1,0,0:0:0:0:
120,176,80521,1,8,0:0:0:0:
48,188,80831,1,8,0:0:0:0:
188,168,81038,1,0,0:0:0:0:
304,208,81245,1,0,0:0:0:0:
304,208,81348,1,8,0:0:0:0:
304,208,81452,1,0,0:0:0:0:
304,208,81555,1,0,0:0:0:0:
304,208,81659,1,8,0:0:0:0:
304,208,81762,1,0,0:0:0:0:
304,208,81866,1,8,0:0:0:0:
228,88,82073,1,0,0:0:0:0:
228,88,82176,1,8,0:0:0:0:
228,88,82279,1,0,0:0:0:0:
228,88,82383,1,8,0:0:0:0:
228,88,82486,1,8,0:0:0:0:
228,88,82590,1,0,0:0:0:0:
228,88,82693,1,0,0:0:0:0:
228,88,82900,1,0,0:0:0:0:
228,88,83004,1,8,0:0:0:0:
228,88,83107,1,8,0:0:0:0:
228,88,83210,1,0,0:0:0:0:
228,88,83314,1,8,0:0:0:0:
228,88,83417,1,0,0:0:0:0:
228,88,83521,1,8,0:0:0:0:
268,224,83728,1,0,0:0:0:0:
248,156,83831,1,8,0:0:0:0:
248,156,84142,1,8,0:0:0:0:
248,156,84348,1,0,0:0:0:0:
248,156,84555,1,0,0:0:0:0:
248,156,84659,1,8,0:0:0:0:
248,156,84762,1,8,0:0:0:0:
248,156,84866,1,0,0:0:0:0:
248,156,84969,1,8,0:0:0:0:
248,156,85073,1,0,0:0:0:0:
248,156,85176,1,8,0:0:0:0:
388,164,85383,1,0,0:0:0:0:
388,164,85590,1,8,0:0:0:0:
320,172,85693,1,0,0:0:0:0:
388,164,85797,1,8,0:0:0:0:
388,164,85900,1,0,0:0:0:0:
388,164,86004,1,0,0:0:0:0:
344,164,86210,1,0,0:0:0:0:
232,144,86314,1,8,0:0:0:0:
232,144,86417,1,8,0:0:0:0:
232,144,86521,1,0,0:0:0:0:
232,144,86624,1,8,0:0:0:0:
232,144,86728,1,0,0:0:0:0:
232,144,86831,1,8,0:0:0:0:
232,144,87038,1,0,0:0:0:0:
232,144,87142,1,8,0:0:0:0:
420,240,87452,1,8,0:0:0:0:
304,164,87659,1,0,0:0:0:0:
304,164,87866,1,0,0:0:0:0:
304,164,87969,1,8,0:0:0:0:
304,164,88073,1,0,0:0:0:0:
304,164,88176,1,0,0:0:0:0:
304,164,88279,1,8,0:0:0:0:
304,164,88383,1,0,0:0:0:0:
304,164,88486,1,8,0:0:0:0:
304,164,88693,1,0,0:0:0:0:
304,164,88797,1,8,0:0:0:0:
304,164,88900,1,0,0:0:0:0:
304,164,89004,1,8,0:0:0:0:
304,164,89107,1,8,0:0:0:0:
304,164,89210,1,0,0:0:0:0:
304,164,89314,1,0,0:0:0:0:
316,192,89521,1,0,0:0:0:0:
316,192,89624,1,8,0:0:0:0:
316,192,89728,1,8,0:0:0:0:
316,192,89831,1,0,0:0:0:0:
316,192,89935,1,8,0:0:0:0:
316,192,90038,1,0,0:0:0:0:
316,192,90142,1,8,0:0:0:0:
316,192,90348,1,0,0:0:0:0:
316,192,90452,1,8,0:0:0:0:
316,192,90555,1,0,0:0:0:0:
316,192,90659,1,8,0:0:0:0:
316,192,90762,1,8,0:0:0:0:
316,192,90866,1,0,0:0:0:0:
316,192,90969,1,0,0:0:0:0:
352,208,91176,1,0,0:0:0:0:
352,208,91279,1,8,0:0:0:0:
352,208,91383,1,8,0:0:0:0:
352,208,91486,1,0,0:0:0:0:
352,208,91590,1,8,0:0:0:0:
352,208,91693,1,0,0:0:0:0:
352,208,91797,1,8,0:0:0:0:
212,192,92004,2,0,L|356:200,1,140
188,164,92831,1,12,0:0:0:0:
52,140,93038,1,0,0:0:0:0:
460,100,93245,1,8,0:0:0:0:
392,116,93348,1,0,0:0:0:0:
324,132,93452,1,0,0:0:0:0:
188,160,93659,1,0,0:0:0:0:
120,176,93762,1,8,0:0:0:0:
188,164,93866,1,8,0:0:0:0:
120,176,93969,1,0,0:0:0:0:
48,188,94073,1,8,0:0:0:0:
188,160,94176,1,0,0:0:0:0:
188,168,94279,1,0,0:0:0:0:
304,208,94486,1,0,0:0:0:0:
304,208,94590,1,8,0:0:0:0:
304,208,94693,1,0,0:0:0:0:
304,208,94797,1,0,0:0:0:0:
304,208,94900,1,8,0:0:0:0:
304,208,95004,1,0,0:0:0:0:
304,208,95107,1,8,0:0:0:0:
228,88,95314,1,0,0:0:0:0:
228,88,95417,1,8,0:0:0:0:
228,88,95521,1,0,0:0:0:0:
228,88,95624,1,8,0:0:0:0:
228,88,95728,1,8,0:0:0:0:
228,88,95831,1,0,0:0:0:0:
228,88,95935,1,0,0:0:0:0:
228,88,96142,1,0,0:0:0:0:
228,88,96245,1,8,0:0:0:0:
228,88,96348,1,8,0:0:0:0:
228,88,96452,1,0,0:0:0:0:
228,88,96555,1,8,0:0:0:0:
228,88,96659,1,0,0:0:0:0:
228,88,96762,1,8,0:0:0:0:
268,224,96969,1,0,0:0:0:0:
248,156,97073,1,8,0:0:0:0:
180,148,97176,1,8,0:0:0:0:
180,148,97279,1,0,0:0:0:0:
248,156,97383,1,8,0:0:0:0:
180,148,97486,1,0,0:0:0:0:
248,156,97590,1,0,0:0:0:0:
248,156,97797,1,0,0:0:0:0:
248,156,97900,1,8,0:0:0:0:
248,156,98004,1,8,0:0:0:0:
248,156,98107,1,0,0:0:0:0:
248,156,98210,1,8,0:0:0:0:
248,156,98314,1,0,0:0:0:0:
248,156,98417,1,8,0:0:0:0:
388,164,98624,1,0,0:0:0:0:
388,164,98831,1,8,0:0:0:0:
320,172,98935,1,0,0:0:0:0:
388,164,99038,1,8,0:0:0:0:
388,164,99142,1,0,0:0:0:0:
388,164,99245,1,0,0:0:0:0:
344,164,99452,1,0,0:0:0:0:
232,144,99555,1,8,0:0:0:0:
232,144,99659,1,8,0:0:0:0:
232,144,99762,1,0,0:0:0:0:
232,144,99866,1,8,0:0:0:0:
232,144,99969,1,0,0:0:0:0:
232,144,100073,1,8,0:0:0:0:
232,144,100279,1,0,0:0:0:0:
232,144,100383,1,8,0:0:0:0:
232,144,100486,1,8,0:0:0:0:
232,144,100590,1,0,0:0:0:0:
420,240,100693,1,8,0:0:0:0:
360,212,100797,1,0,0:0:0:0:
304,164,100900,1,0,0:0:0:0:
304,164,101107,1,0,0:0:0:0:
304,164,101210,1,8,0:0:0:0:
304,164,101314,1,0,0:0:0:0:
304,164,101417,1,0,0:0:0:0:
304,164,101521,1,8,0:0:0:0:
304,164,101624,1,0,0:0:0:0:
304,164,101728,1,8,0:0:0:0:
304,164,101935,1,0,0:0:0:0:
304,164,102038,1,8,0:0:0:0:
304,164,102142,1,0,0:0:0:0:
304,164,102245,1,8,0:0:0:0:
304,164,102348,1,8,0:0:0:0:
304,164,102452,1,0,0:0:0:0:
304,164,102555,1,0,0:0:0:0:
316,192,102762,1,0,0:0:0:0:
316,192,102866,1,8,0:0:0:0:
316,192,102969,1,8,0:0:0:0:
316,192,103073,1,0,0:0:0:0:
316,192,103176,1,8,0:0:0:0:
316,192,103279,1,0,0:0:0:0:
316,192,103383,1,8,0:0:0:0:
316,192,103590,1,0,0:0:0:0:
316,192,103693,1,8,0:0:0:0:
316,192,103797,1,0,0:0:0:0:
316,192,103900,1,8,0:0:0:0:
316,192,104004,1,8,0:0:0:0:
316,192,104107,1,0,0:0:0:0:
316,192,104210,1,0,0:0:0:0:
352,208,104417,1,0,0:0:0:0:
352,208,104521,1,8,0:0:0:0:
352,208,104624,1,8,0:0:0:0:
352,208,104728,1,0,0:0:0:0:
352,208,104831,1,8,0:0:0:0:
352,208,104935,5,0,0:0:0:0:
352,208,105038,1,8,0:0:0:0:
236,160,105245,1,0,0:0:0:0:
236,160,105348,1,8,0:0:0:0:
236,160,105452,1,8,0:0:0:0:
236,160,105555,1,0,0:0:0:0:
236,160,105659,1,8,0:0:0:0:
236,160,105762,1,0,0:0:0:0:
236,160,105866,1,0,0:0:0:0:
236,160,106073,5,12,0:0:0:0:
504,80,106486,1,8,0:0:0:0:
300,140,106900,1,0,0:0:0:0:
272,104,107314,1,8,0:0:0:0:
248,244,107521,1,0,0:0:0:0:
260,176,107624,1,8,0:0:0:0:
260,176,107831,1,8,0:0:0:0:
248,148,108142,1,8,0:0:0:0:
248,148,108348,1,0,0:0:0:0:
248,148,108555,1,0,0:0:0:0:
368,220,108762,1,8,0:0:0:0:
296,160,108831,1,8,0:0:0:0:
332,192,108900,1,8,0:0:0:0:
296,160,108969,1,0,0:0:0:0:
436,168,109176,1,8,0:0:0:0:
260,176,109383,1,4,0:0:0:0:
228,152,109797,1,8,0:0:0:0:
216,176,110210,1,0,0:0:0:0:
228,152,110624,1,8,0:0:0:0:
260,176,110831,1,8,0:0:0:0:
260,176,110935,1,0,0:0:0:0:
500,372,111142,1,0,0:0:0:0:
228,152,111452,1,8,0:0:0:0:
324,48,111659,1,8,0:0:0:0:
232,156,111866,1,0,0:0:0:0:
228,152,112073,1,0,0:0:0:0:
232,156,112142,1,0,0:0:0:0:
232,156,112210,1,0,0:0:0:0:
232,156,112279,1,8,0:0:0:0:
232,156,112486,1,0,0:0:0:0:
356,224,112693,1,0,0:0:0:0:
296,192,112797,1,8,0:0:0:0:
296,192,112900,1,8,0:0:0:0:
204,84,113107,1,0,0:0:0:0:
296,192,113314,1,8,0:0:0:0:
332,232,113417,1,8,0:0:0:0:
228,152,113624,1,8,0:0:0:0:
228,152,113728,1,8,0:0:0:0:
368,164,113935,1,0,0:0:0:0:
356,224,114142,1,8,0:0:0:0:
356,224,114210,1,8,0:0:0:0:
352,228,114279,1,8,0:0:0:0:
92,120,114348,1,0,0:0:0:0:
176,160,114452,1,8,0:0:0:0:
216,180,114555,1,8,0:0:0:0:
360,200,114762,1,0,0:0:0:0:
236,140,114969,1,8,0:0:0:0:
300,172,115073,1,8,0:0:0:0:
196,80,115279,1,8,0:0:0:0:
248,128,115383,1,8,0:0:0:0:
108,112,115590,1,0,0:0:0:0:
244,144,115797,1,8,0:0:0:0:
180,128,115900,1,8,0:0:0:0:
300,152,116004,1,0,0:0:0:0:
180,128,116107,1,8,0:0:0:0:
180,128,116210,1,8,0:0:0:0:
244,144,116314,1,8,0:0:0:0:
276,204,116417,1,0,0:0:0:0:
300,152,116521,1,8,0:0:0:0:
300,152,116624,1,8,0:0:0:0:
300,152,116728,1,8,0:0:0:0:
300,152,116831,1,0,0:0:0:0:
232,168,116935,1,8,0:0:0:0:
164,188,117038,1,8,0:0:0:0:
96,204,117142,1,8,0:0:0:0:
28,224,117245,1,0,0:0:0:0:
96,204,117348,1,0,0:0:0:0:
108,136,117452,1,8,0:0:0:0:
136,156,117521,1,8,0:0:0:0:
136,156,117590,1,8,0:0:0:0:
136,156,117659,1,0,0:0:0:0:
136,156,117866,2,0,L|204:160,12,41.9999987182618
256,192,119314,12,0,124279,0:0:0:0:
256,144,124693,5,8,0:0:0:0:
256,144,125107,1,8,0:0:0:0:
112,132,125521,2,0,L|200:156,1,70
256,168,125935,1,0,0:0:0:0:
252,144,126142,1,0,0:0:0:0:
48,200,126348,1,8,0:0:0:0:
188,180,126555,1,0,0:0:0:0:
324,156,126762,1,0,0:0:0:0:
256,168,126866,1,0,0:0:0:0:
464,136,127176,1,8,0:0:0:0:
324,156,127383,1,0,0:0:0:0:
324,156,127590,1,0,0:0:0:0:
324,156,127797,1,0,0:0:0:0:
324,156,128004,1,8,0:0:0:0:
256,168,128107,1,0,0:0:0:0:
256,168,128417,1,0,0:0:0:0:
256,168,128624,1,0,0:0:0:0:
256,168,128831,1,8,0:0:0:0:
328,184,129245,1,0,0:0:0:0:
328,184,129452,1,0,0:0:0:0:
328,184,129659,1,8,0:0:0:0:
328,184,129866,1,0,0:0:0:0:
328,184,130073,1,0,0:0:0:0:
328,184,130176,1,0,0:0:0:0:
120,156,130486,1,8,0:0:0:0:
264,176,130693,1,0,0:0:0:0:
264,176,130900,1,0,0:0:0:0:
264,176,131107,1,0,0:0:0:0:
264,176,131314,1,8,0:0:0:0:
264,176,131417,1,0,0:0:0:0:
264,176,131728,1,0,0:0:0:0:
264,176,131935,1,0,0:0:0:0:
140,108,132142,1,8,0:0:0:0:
80,80,132245,1,0,0:0:0:0:
16,48,132348,1,0,0:0:0:0:
144,108,132555,1,0,0:0:0:0:
272,164,132762,1,0,0:0:0:0:
396,232,132969,1,8,0:0:0:0:
200,164,133176,1,0,0:0:0:0:
200,164,133383,1,0,0:0:0:0:
64,116,133486,1,0,0:0:0:0:
272,140,133797,1,8,0:0:0:0:
272,140,134004,1,0,0:0:0:0:
272,140,134210,1,0,0:0:0:0:
200,140,134417,1,0,0:0:0:0:
200,140,134624,1,8,0:0:0:0:
200,140,134728,1,0,0:0:0:0:
400,196,135038,1,0,0:0:0:0:
264,156,135245,1,0,0:0:0:0:
400,192,135452,1,8,0:0:0:0:
264,156,135866,1,0,0:0:0:0:
264,156,136073,1,0,0:0:0:0:
264,156,136279,1,8,0:0:0:0:
256,136,136486,1,0,0:0:0:0:
256,136,136693,1,0,0:0:0:0:
256,136,136797,1,0,0:0:0:0:
244,120,137107,1,8,0:0:0:0:
356,204,137314,1,0,0:0:0:0:
356,204,137521,1,0,0:0:0:0:
240,124,137728,1,0,0:0:0:0:
108,72,137935,1,8,0:0:0:0:
40,56,138038,1,0,0:0:0:0:
104,84,138142,1,8,0:0:0:0:
240,116,138348,1,0,0:0:0:0:
380,136,138555,1,0,0:0:0:0:
240,116,138762,1,8,0:0:0:0:
308,128,138866,1,0,0:0:0:0:
104,100,138969,1,0,0:0:0:0:
244,116,139176,1,4,0:0:0:0:
312,240,139383,1,0,0:0:0:0:
332,308,139486,1,0,0:0:0:0:
356,372,139590,1,8,0:0:0:0:
300,244,139797,1,0,0:0:0:0:
216,156,139900,1,0,0:0:0:0:
236,136,140004,1,0,0:0:0:0:
300,108,140107,1,8,0:0:0:0:
236,136,140314,1,8,0:0:0:0:
376,124,140521,1,0,0:0:0:0:
464,120,140624,1,0,0:0:0:0:
392,124,140831,1,0,0:0:0:0:
216,156,141038,1,0,0:0:0:0:
216,156,141142,1,8,0:0:0:0:
216,156,141245,1,8,0:0:0:0:
216,156,141452,1,0,0:0:0:0:
104,72,141659,1,0,0:0:0:0:
272,196,141762,1,0,0:0:0:0:
328,240,141866,1,8,0:0:0:0:
216,156,141969,1,0,0:0:0:0:
216,156,142176,1,0,0:0:0:0:
216,156,142279,1,8,0:0:0:0:
356,164,142486,1,0,0:0:0:0:
216,164,142693,1,0,0:0:0:0:
428,168,142797,1,0,0:0:0:0:
356,168,142900,1,8,0:0:0:0:
360,148,143107,1,0,0:0:0:0:
292,144,143210,1,0,0:0:0:0:
220,164,143314,1,0,0:0:0:0:
152,176,143417,1,8,0:0:0:0:
216,164,143624,1,8,0:0:0:0:
216,164,143831,1,0,0:0:0:0:
216,164,143935,1,0,0:0:0:0:
216,164,144142,1,0,0:0:0:0:
220,164,144348,1,0,0:0:0:0:
220,164,144452,1,8,0:0:0:0:
220,164,144555,1,8,0:0:0:0:
492,228,144969,1,0,0:0:0:0:
364,168,145176,1,8,0:0:0:0:
296,148,145279,1,0,0:0:0:0:
432,172,145486,1,0,0:0:0:0:
504,188,145590,1,8,0:0:0:0:
372,232,145797,1,0,0:0:0:0:
328,176,146004,1,0,0:0:0:0:
244,68,146107,1,0,0:0:0:0:
284,124,146210,1,8,0:0:0:0:
192,228,146417,1,0,0:0:0:0:
204,160,146521,1,0,0:0:0:0:
220,92,146624,1,0,0:0:0:0:
220,92,146728,1,8,0:0:0:0:
236,136,146935,1,8,0:0:0:0:
236,136,147142,1,0,0:0:0:0:
236,136,147245,1,0,0:0:0:0:
96,160,147452,1,0,0:0:0:0:
232,136,147659,1,0,0:0:0:0:
304,124,147762,1,8,0:0:0:0:
236,136,147866,1,8,0:0:0:0:
200,132,148073,1,0,0:0:0:0:
200,132,148279,1,0,0:0:0:0:
200,132,148383,1,0,0:0:0:0:
200,132,148486,1,8,0:0:0:0:
188,144,148590,1,0,0:0:0:0:
188,144,148797,1,0,0:0:0:0:
188,144,148900,1,8,0:0:0:0:
60,204,149107,1,0,0:0:0:0:
236,136,149314,1,0,0:0:0:0:
236,136,149417,1,0,0:0:0:0:
324,116,149521,1,8,0:0:0:0:
264,156,149624,1,0,0:0:0:0:
196,172,149728,1,8,0:0:0:0:
328,128,149935,1,0,0:0:0:0:
264,156,150038,1,8,0:0:0:0:
236,136,150245,1,0,0:0:0:0:
236,136,150452,1,8,0:0:0:0:
236,136,150555,1,0,0:0:0:0:
112,204,150762,1,0,0:0:0:0:
228,128,150969,1,0,0:0:0:0:
288,88,151073,1,8,0:0:0:0:
348,52,151176,1,8,0:0:0:0:
224,120,151383,1,0,0:0:0:0:
184,140,151452,1,0,0:0:0:0:
224,120,151521,1,0,0:0:0:0:
268,100,151590,1,8,0:0:0:0:
220,48,151693,1,0,0:0:0:0:
340,120,151900,1,0,0:0:0:0:
220,48,152107,1,8,0:0:0:0:
220,48,152210,1,0,0:0:0:0:
280,176,152417,1,4,0:0:0:0:
184,140,152624,1,0,0:0:0:0:
184,140,152728,1,0,0:0:0:0:
184,140,152831,1,8,0:0:0:0:
212,144,153038,1,0,0:0:0:0:
212,144,153142,1,0,0:0:0:0:
212,144,153245,1,0,0:0:0:0:
212,144,153348,1,8,0:0:0:0:
212,144,153555,1,8,0:0:0:0:
212,144,153762,1,0,0:0:0:0:
212,144,153866,1,0,0:0:0:0:
328,220,154073,1,0,0:0:0:0:
228,124,154279,1,0,0:0:0:0:
176,76,154383,1,8,0:0:0:0:
128,24,154486,1,8,0:0:0:0:
212,144,154693,1,0,0:0:0:0:
296,156,154900,1,0,0:0:0:0:
296,156,155004,1,0,0:0:0:0:
296,156,155107,1,8,0:0:0:0:
296,156,155210,1,0,0:0:0:0:
296,156,155417,1,0,0:0:0:0:
296,156,155521,1,8,0:0:0:0:
164,112,155728,1,0,0:0:0:0:
212,144,155935,1,0,0:0:0:0:
212,144,156038,1,8,0:0:0:0:
212,144,156142,1,8,0:0:0:0:
212,144,156348,1,0,0:0:0:0:
352,160,156555,1,0,0:0:0:0:
280,152,156659,1,8,0:0:0:0:
212,148,156762,1,0,0:0:0:0:
144,140,156866,1,0,0:0:0:0:
284,124,157073,1,0,0:0:0:0:
352,116,157176,1,8,0:0:0:0:
228,184,157383,1,0,0:0:0:0:
352,120,157590,1,0,0:0:0:0:
420,100,157693,1,8,0:0:0:0:
356,128,157797,1,8,0:0:0:0:
216,160,158210,1,0,0:0:0:0:
216,160,158417,1,8,0:0:0:0:
216,160,158521,1,0,0:0:0:0:
216,160,158728,1,0,0:0:0:0:
216,160,158831,1,8,0:0:0:0:
100,236,159038,1,0,0:0:0:0:
252,172,159245,1,0,0:0:0:0:
320,160,159348,1,0,0:0:0:0:
252,172,159452,1,8,0:0:0:0:
252,172,159659,1,0,0:0:0:0:
252,172,159762,1,0,0:0:0:0:
252,172,159866,1,0,0:0:0:0:
252,172,159969,1,8,0:0:0:0:
252,172,160176,1,8,0:0:0:0:
252,172,160383,1,0,0:0:0:0:
252,172,160486,1,0,0:0:0:0:
252,172,160693,1,0,0:0:0:0:
260,148,160900,1,0,0:0:0:0:
260,148,161004,1,8,0:0:0:0:
260,148,161107,1,8,0:0:0:0:
320,276,161314,1,0,0:0:0:0:
256,128,161521,5,0,0:0:0:0:
256,128,161624,5,0,0:0:0:0:
256,128,161728,5,8,0:0:0:0:
256,128,161831,5,0,0:0:0:0:
256,128,162038,5,0,0:0:0:0:
256,128,162142,5,8,0:0:0:0:
240,140,162348,1,0,0:0:0:0:
240,140,162555,1,0,0:0:0:0:
240,140,162659,1,0,0:0:0:0:
240,140,162762,1,8,0:0:0:0:
304,168,162969,5,0,0:0:0:0:
332,144,164831,1,0,0:0:0:0:
368,120,165038,1,8,0:0:0:0:
368,120,165107,1,8,0:0:0:0:
368,120,165176,1,0,0:0:0:0:
368,120,165245,1,8,0:0:0:0:
232,144,165452,1,0,0:0:0:0:
168,176,165659,1,4,0:0:0:0:
220,176,165866,1,0,0:0:0:0:
220,176,165969,1,0,0:0:0:0:
220,176,166073,1,8,0:0:0:0:
220,176,166279,1,0,0:0:0:0:
220,176,166383,1,0,0:0:0:0:
220,176,166486,1,0,0:0:0:0:
220,176,166590,1,8,0:0:0:0:
220,176,166797,1,8,0:0:0:0:
220,176,167004,1,0,0:0:0:0:
220,176,167107,1,0,0:0:0:0:
220,176,167314,1,0,0:0:0:0:
220,176,167521,1,0,0:0:0:0:
240,104,167624,1,8,0:0:0:0:
220,176,167728,1,8,0:0:0:0:
84,140,167935,1,0,0:0:0:0:
224,148,168142,1,0,0:0:0:0:
292,152,168245,1,0,0:0:0:0:
364,156,168348,1,8,0:0:0:0:
432,160,168452,1,0,0:0:0:0:
292,152,168659,1,0,0:0:0:0:
292,152,168762,1,8,0:0:0:0:
152,168,168969,1,0,0:0:0:0:
220,176,169176,1,0,0:0:0:0:
220,176,169279,1,0,0:0:0:0:
452,152,169383,1,8,0:0:0:0:
312,148,169590,1,0,0:0:0:0:
244,148,169693,1,0,0:0:0:0:
172,144,169797,1,0,0:0:0:0:
104,144,169900,1,8,0:0:0:0:
244,148,170107,1,8,0:0:0:0:
244,148,170314,1,0,0:0:0:0:
244,148,170417,1,0,0:0:0:0:
172,144,170624,1,0,0:0:0:0:
172,144,170831,1,0,0:0:0:0:
172,144,170935,1,8,0:0:0:0:
240,156,171038,1,8,0:0:0:0:
212,92,171142,1,0,0:0:0:0:
308,168,171245,1,8,0:0:0:0:
244,148,171452,1,0,0:0:0:0:
244,148,171555,1,0,0:0:0:0:
244,148,171659,1,8,0:0:0:0:
244,148,171762,1,0,0:0:0:0:
244,148,171969,1,0,0:0:0:0:
244,148,172073,1,8,0:0:0:0:
308,168,172279,1,0,0:0:0:0:
308,168,172486,1,0,0:0:0:0:
308,168,172590,1,0,0:0:0:0:
308,168,172693,1,8,0:0:0:0:
244,148,172900,1,0,0:0:0:0:
240,196,173004,1,0,0:0:0:0:
240,196,173107,1,0,0:0:0:0:
240,196,173210,1,8,0:0:0:0:
240,196,173417,1,8,0:0:0:0:
240,196,173624,1,0,0:0:0:0:
268,172,173728,1,0,0:0:0:0:
136,120,173935,1,0,0:0:0:0:
268,172,174142,1,0,0:0:0:0:
268,172,174245,1,8,0:0:0:0:
268,172,174348,1,8,0:0:0:0:
400,120,174555,1,0,0:0:0:0:
304,172,174762,1,0,0:0:0:0:
304,172,174866,1,0,0:0:0:0:
304,172,174969,5,8,0:0:0:0:
304,172,175073,5,0,0:0:0:0:
304,172,175279,5,0,0:0:0:0:
304,172,175383,1,8,0:0:0:0:
436,128,175590,1,0,0:0:0:0:
312,136,175797,1,0,0:0:0:0:
256,236,175900,1,0,0:0:0:0:
376,164,176004,1,8,0:0:0:0:
184,148,176210,5,0,0:0:0:0:
304,152,178900,1,12,0:0:0:0:
304,152,179314,1,0,0:0:0:0:
364,188,179417,1,8,0:0:0:0:
300,64,179624,1,8,0:0:0:0:
304,152,179728,1,0,0:0:0:0:
264,156,180142,1,0,0:0:0:0:
148,80,180348,1,0,0:0:0:0:
88,40,180452,1,0,0:0:0:0:
144,80,180555,1,8,0:0:0:0:
184,140,180659,1,0,0:0:0:0:
348,272,180969,1,0,0:0:0:0:
256,168,181176,1,0,0:0:0:0:
196,128,181279,1,8,0:0:0:0:
196,128,181383,1,0,0:0:0:0:
256,160,181486,1,8,0:0:0:0:
64,76,181797,1,0,0:0:0:0:
196,128,182004,1,0,0:0:0:0:
320,188,182210,1,12,0:0:0:0:
188,144,182417,1,8,0:0:0:0:
328,156,182624,1,0,0:0:0:0:
396,164,182728,1,8,0:0:0:0:
260,140,182935,1,8,0:0:0:0:
260,140,183038,1,0,0:0:0:0:
44,252,183348,1,8,0:0:0:0:
72,236,183400,1,8,0:0:0:0:
8,264,183452,1,0,0:0:0:0:
136,212,183659,1,0,0:0:0:0:
200,188,183762,1,0,0:0:0:0:
268,160,183866,1,8,0:0:0:0:
188,144,183969,1,0,0:0:0:0:
188,144,184279,1,0,0:0:0:0:
188,144,184486,1,0,0:0:0:0:
188,144,184693,1,0,0:0:0:0:
188,144,184797,1,8,0:0:0:0:
188,144,185004,1,8,0:0:0:0:
188,144,185107,1,8,0:0:0:0:
256,152,185210,1,8,0:0:0:0:
328,160,185314,1,0,0:0:0:0:
192,124,185521,1,12,0:0:0:0:
204,152,185935,1,0,0:0:0:0:
204,152,186038,1,8,0:0:0:0:
204,152,186245,1,8,0:0:0:0:
204,152,186348,1,0,0:0:0:0:
204,152,186659,1,8,0:0:0:0:
204,152,186710,1,8,0:0:0:0:
204,152,186762,1,0,0:0:0:0:
192,124,186969,1,0,0:0:0:0:
192,124,187073,1,0,0:0:0:0:
192,124,187176,1,8,0:0:0:0:
204,152,187279,1,0,0:0:0:0:
204,152,187383,1,8,0:0:0:0:
204,164,187590,1,0,0:0:0:0:
172,120,187797,1,0,0:0:0:0:
172,120,187900,1,8,0:0:0:0:
172,120,188004,1,0,0:0:0:0:
284,204,188210,1,8,0:0:0:0:
172,120,188417,1,0,0:0:0:0:
172,120,188624,1,0,0:0:0:0:
160,112,188831,1,12,0:0:0:0:
160,112,189245,1,0,0:0:0:0:
160,112,189348,1,8,0:0:0:0:
172,120,189555,1,8,0:0:0:0:
172,120,189659,1,0,0:0:0:0:
132,128,190073,1,0,0:0:0:0:
200,132,190176,1,8,0:0:0:0:
264,164,190279,1,0,0:0:0:0:
340,144,190383,1,0,0:0:0:0:
412,148,190486,1,8,0:0:0:0:
272,144,190693,1,0,0:0:0:0:
132,132,190900,1,8,0:0:0:0:
208,248,191107,1,0,0:0:0:0:
180,168,191314,1,8,0:0:0:0:
180,168,191417,1,8,0:0:0:0:
180,168,191521,1,8,0:0:0:0:
180,168,191624,1,8,0:0:0:0:
180,168,191728,1,8,0:0:0:0:
180,168,191935,1,0,0:0:0:0:
220,144,192142,1,12,0:0:0:0:
220,144,192348,1,0,0:0:0:0:
220,144,192555,1,8,0:0:0:0:
220,144,192762,1,0,0:0:0:0:
232,108,192969,1,8,0:0:0:0:
232,108,193073,1,8,0:0:0:0:
232,108,193176,1,8,0:0:0:0:
232,108,193279,1,8,0:0:0:0:
232,108,193383,1,8,0:0:0:0:
220,144,193590,1,0,0:0:0:0:
220,144,193693,1,0,0:0:0:0:
220,144,193797,1,8,0:0:0:0:
288,148,193900,1,0,0:0:0:0:
216,144,194004,1,0,0:0:0:0:
352,120,194210,1,8,0:0:0:0:
212,140,194417,1,0,0:0:0:0:
240,136,194624,1,8,0:0:0:0:
240,136,194728,1,8,0:0:0:0:
240,136,194831,1,8,0:0:0:0:
240,136,194935,1,8,0:0:0:0:
240,136,195038,1,8,0:0:0:0:
212,140,195245,1,0,0:0:0:0:
216,144,195452,1,12,0:0:0:0:
212,140,195659,1,0,0:0:0:0:
212,140,195866,1,8,0:0:0:0:
352,152,196073,1,0,0:0:0:0:
212,140,196279,1,8,0:0:0:0:
280,156,196383,1,8,0:0:0:0:
348,172,196486,1,8,0:0:0:0:
416,192,196590,1,8,0:0:0:0:
484,208,196693,1,8,0:0:0:0:
348,176,196900,1,0,0:0:0:0:
280,160,197004,1,0,0:0:0:0:
212,144,197107,1,8,0:0:0:0:
144,132,197210,1,0,0:0:0:0:
76,116,197314,1,0,0:0:0:0:
212,140,197521,1,8,0:0:0:0:
212,140,197728,1,0,0:0:0:0:
212,140,197935,1,8,0:0:0:0:
184,160,198038,1,8,0:0:0:0:
184,160,198142,1,8,0:0:0:0:
184,160,198245,1,8,0:0:0:0:
184,160,198348,1,8,0:0:0:0:
280,160,198555,1,0,0:0:0:0:
212,144,198659,1,0,0:0:0:0:
280,160,198762,1,8,0:0:0:0:
212,140,198866,1,8,0:0:0:0:
212,140,198969,1,8,0:0:0:0:
212,140,199073,1,8,0:0:0:0:
212,140,199176,1,0,0:0:0:0:
212,140,199383,1,0,0:0:0:0:
212,144,199590,1,8,0:0:0:0:
276,116,199693,1,8,0:0:0:0:
212,144,199797,1,8,0:0:0:0:
420,136,199900,1,8,0:0:0:0:
492,132,200004,1,0,0:0:0:0:
352,140,200210,1,0,0:0:0:0:
280,148,200314,1,0,0:0:0:0:
212,152,200417,1,8,0:0:0:0:
284,148,200521,1,8,0:0:0:0:
352,140,200624,1,8,0:0:0:0:
420,136,200728,1,8,0:0:0:0:
492,132,200831,1,0,0:0:0:0:
212,124,201038,1,0,0:0:0:0:
212,124,201245,1,8,0:0:0:0:
232,76,201348,1,8,0:0:0:0:
232,76,201452,1,8,0:0:0:0:
232,76,201555,1,8,0:0:0:0:
232,76,201659,1,0,0:0:0:0:
212,124,201866,1,0,0:0:0:0:
264,288,202073,5,0,0:0:0:0:
320,248,202176,1,8,0:0:0:0:
376,208,202279,1,8,0:0:0:0:
436,168,202383,1,8,0:0:0:0:
436,168,202486,1,0,0:0:0:0:
436,168,202590,1,8,0:0:0:0:
436,168,202693,1,8,0:0:0:0:
436,168,202797,1,8,0:0:0:0:
436,168,202900,1,0,0:0:0:0:
436,168,203004,1,8,0:0:0:0:
436,168,203107,1,8,0:0:0:0:
436,168,203210,1,8,0:0:0:0:
436,168,203314,1,0,0:0:0:0:
436,168,203417,1,8,0:0:0:0:
436,168,203521,1,0,0:0:0:0:
436,168,203624,1,8,0:0:0:0:
436,168,203728,1,0,0:0:0:0:
240,144,203831,1,0,0:0:0:0:
240,144,203935,1,0,0:0:0:0:
240,144,204038,1,0,0:0:0:0:
240,144,204142,1,8,0:0:0:0:
240,144,204245,1,8,0:0:0:0:
240,144,204348,1,0,0:0:0:0:
240,144,204452,1,0,0:0:0:0:
240,144,204555,1,8,0:0:0:0:
240,144,204659,1,8,0:0:0:0:
240,144,204762,1,0,0:0:0:0:
240,144,204866,1,0,0:0:0:0:
240,144,204969,1,8,0:0:0:0:
240,144,205038,1,8,0:0:0:0:
240,144,205107,1,8,0:0:0:0:
240,144,205176,1,8,0:0:0:0:
240,144,205245,1,8,0:0:0:0:
240,144,205314,1,8,0:0:0:0:
240,144,205383,1,0,0:0:0:0:
368,200,205590,1,8,0:0:0:0:
288,84,205797,1,0,0:0:0:0:
280,180,206210,1,0,0:0:0:0:
280,180,206417,1,8,0:0:0:0:
280,180,206624,1,0,0:0:0:0:
288,156,207038,5,0,0:0:0:0:
288,156,207245,5,8,0:0:0:0:
288,156,207452,5,0,0:0:0:0:
288,156,207659,5,8,0:0:0:0:
280,180,207866,5,0,0:0:0:0:
272,152,207969,1,0,0:0:0:0:
272,152,208073,1,8,0:0:0:0:
272,152,208176,1,8,0:0:0:0:
272,152,208279,1,0,0:0:0:0:
288,172,208693,5,4,0:0:0:0:
392,264,208900,1,0,0:0:0:0:
432,324,209004,1,0,0:0:0:0:
388,272,209107,1,8,0:0:0:0:
280,180,209314,1,0,0:0:0:0:
144,152,209521,1,0,0:0:0:0:
244,128,209624,1,0,0:0:0:0:
280,192,209728,1,0,0:0:0:0:
228,140,209935,1,8,0:0:0:0:
228,140,210038,1,0,0:0:0:0:
228,140,210142,1,8,0:0:0:0:
228,140,210348,1,0,0:0:0:0:
228,140,210555,1,0,0:0:0:0:
228,140,210659,1,0,0:0:0:0:
228,140,210762,1,8,0:0:0:0:
168,104,210866,1,8,0:0:0:0:
244,128,210969,1,0,0:0:0:0:
228,140,211176,1,0,0:0:0:0:
228,140,211279,1,0,0:0:0:0:
296,156,211383,1,8,0:0:0:0:
296,264,211486,1,0,0:0:0:0:
328,324,211590,1,8,0:0:0:0:
228,140,211797,1,0,0:0:0:0:
228,140,212004,1,0,0:0:0:0:
196,160,212210,1,0,0:0:0:0:
196,160,212314,1,0,0:0:0:0:
196,160,212417,1,8,0:0:0:0:
164,24,212624,1,0,0:0:0:0:
200,160,212831,1,0,0:0:0:0:
216,228,212935,1,0,0:0:0:0:
220,160,213038,1,8,0:0:0:0:
316,164,213107,1,0,0:0:0:0:
268,164,213176,1,0,0:0:0:0:
376,92,213245,1,8,0:0:0:0:
312,116,213348,1,0,0:0:0:0:
244,136,213452,1,8,0:0:0:0:
180,164,213555,1,8,0:0:0:0:
112,184,213659,1,0,0:0:0:0:
196,160,213866,1,0,0:0:0:0:
196,160,213969,1,0,0:0:0:0:
220,160,214073,1,8,0:0:0:0:
332,80,214279,1,8,0:0:0:0:
312,116,214348,1,8,0:0:0:0:
312,116,214417,1,8,0:0:0:0:
312,116,214486,1,0,0:0:0:0:
304,152,214590,1,0,0:0:0:0:
304,152,214693,1,8,0:0:0:0:
304,152,214797,1,0,0:0:0:0:
304,152,214900,1,8,0:0:0:0:
188,72,215107,1,8,0:0:0:0:
304,152,215314,1,0,0:0:0:0:
164,132,215521,1,0,0:0:0:0:
96,124,215624,1,0,0:0:0:0:
28,112,215728,1,8,0:0:0:0:
164,152,215935,1,0,0:0:0:0:
164,152,216142,1,0,0:0:0:0:
164,152,216245,1,0,0:0:0:0:
164,152,216348,1,0,0:0:0:0:
164,152,216555,1,8,0:0:0:0:
164,152,216659,1,0,0:0:0:0:
164,152,216762,1,8,0:0:0:0:
164,152,216969,1,0,0:0:0:0:
296,104,217176,1,0,0:0:0:0:
348,56,217279,1,0,0:0:0:0:
412,24,217383,1,8,0:0:0:0:
360,68,217486,1,8,0:0:0:0:
296,100,217590,1,0,0:0:0:0:
164,152,217797,1,0,0:0:0:0:
208,108,217900,1,0,0:0:0:0:
208,108,218004,1,8,0:0:0:0:
208,108,218107,1,0,0:0:0:0:
208,108,218210,1,8,0:0:0:0:
340,160,218417,1,0,0:0:0:0:
456,240,218624,1,0,0:0:0:0:
324,188,218831,1,0,0:0:0:0:
260,164,218935,1,0,0:0:0:0:
192,140,219038,1,8,0:0:0:0:
244,272,219245,1,0,0:0:0:0:
224,172,219452,1,0,0:0:0:0:
224,172,219555,1,0,0:0:0:0:
224,172,219659,1,0,0:0:0:0:
272,204,219866,1,8,0:0:0:0:
272,204,219969,1,0,0:0:0:0:
272,204,220073,1,8,0:0:0:0:
272,204,220176,1,8,0:0:0:0:
272,204,220279,1,0,0:0:0:0:
136,236,220486,1,0,0:0:0:0:
172,212,220590,1,0,0:0:0:0:
272,200,220693,1,8,0:0:0:0:
224,68,220900,1,0,0:0:0:0:
332,168,221107,1,0,0:0:0:0:
332,168,221210,1,0,0:0:0:0:
328,144,221314,1,8,0:0:0:0:
236,128,221383,1,8,0:0:0:0:
284,136,221452,1,8,0:0:0:0:
284,136,221521,1,0,0:0:0:0:
332,168,221728,1,8,0:0:0:0:
12,204,221935,1,4,0:0:0:0:
148,172,222142,1,0,0:0:0:0:
216,152,222245,1,0,0:0:0:0:
284,136,222348,1,8,0:0:0:0:
144,136,222555,1,0,0:0:0:0:
284,140,222762,1,0,0:0:0:0:
356,140,222866,1,0,0:0:0:0:
424,140,222969,1,0,0:0:0:0:
216,136,223176,1,8,0:0:0:0:
216,136,223279,1,0,0:0:0:0:
144,136,223383,1,8,0:0:0:0:
256,56,223590,1,0,0:0:0:0:
248,152,223797,1,0,0:0:0:0:
248,152,223900,1,0,0:0:0:0:
248,152,224004,1,8,0:0:0:0:
248,152,224107,1,8,0:0:0:0:
248,152,224210,1,0,0:0:0:0:
204,176,224417,1,0,0:0:0:0:
204,176,224521,1,0,0:0:0:0:
204,176,224624,1,8,0:0:0:0:
204,176,224728,1,0,0:0:0:0:
204,176,224831,1,8,0:0:0:0:
344,160,225038,1,0,0:0:0:0:
204,184,225245,1,0,0:0:0:0:
272,176,225452,1,0,0:0:0:0:
412,152,225555,1,0,0:0:0:0:
480,148,225659,1,8,0:0:0:0:
204,176,225866,1,0,0:0:0:0:
204,176,226073,1,0,0:0:0:0:
204,176,226176,1,0,0:0:0:0:
204,176,226279,1,8,0:0:0:0:
300,168,226348,1,0,0:0:0:0:
252,172,226417,1,0,0:0:0:0:
204,184,226486,1,8,0:0:0:0:
204,184,226590,1,0,0:0:0:0:
204,184,226693,1,8,0:0:0:0:
256,136,226797,1,8,0:0:0:0:
272,60,226900,1,0,0:0:0:0:
268,200,227107,1,0,0:0:0:0:
268,132,227210,1,0,0:0:0:0:
272,60,227314,1,8,0:0:0:0:
192,172,227521,1,8,0:0:0:0:
136,248,227590,1,8,0:0:0:0:
164,212,227659,1,8,0:0:0:0:
104,284,227728,1,0,0:0:0:0:
156,236,227831,1,0,0:0:0:0:
208,188,227935,1,8,0:0:0:0:
260,144,228038,1,0,0:0:0:0:
312,96,228142,1,8,0:0:0:0:
180,140,228348,1,8,0:0:0:0:
260,168,228555,1,0,0:0:0:0:
260,144,228762,1,0,0:0:0:0:
260,168,228866,1,0,0:0:0:0:
260,144,228969,1,8,0:0:0:0:
356,248,229176,1,0,0:0:0:0:
260,148,229383,1,0,0:0:0:0:
212,96,229486,1,0,0:0:0:0:
260,148,229590,1,0,0:0:0:0:
356,248,229797,1,8,0:0:0:0:
308,196,229900,1,0,0:0:0:0:
308,196,230004,1,8,0:0:0:0:
308,196,230210,1,0,0:0:0:0:
180,144,230417,1,0,0:0:0:0:
112,116,230521,1,0,0:0:0:0:
176,144,230624,1,8,0:0:0:0:
240,168,230728,1,8,0:0:0:0:
240,168,230831,1,0,0:0:0:0:
180,144,231038,1,0,0:0:0:0:
236,188,231142,1,0,0:0:0:0:
288,232,231245,1,8,0:0:0:0:
344,276,231348,1,0,0:0:0:0:
288,232,231452,1,8,0:0:0:0:
168,160,231659,1,0,0:0:0:0:
44,96,231866,1,0,0:0:0:0:
180,144,232073,1,0,0:0:0:0:
180,144,232176,1,0,0:0:0:0:
180,144,232279,1,8,0:0:0:0:
308,200,232486,1,0,0:0:0:0:
180,140,232693,1,0,0:0:0:0:
244,172,232797,1,0,0:0:0:0:
180,144,232900,1,0,0:0:0:0:
300,216,233107,1,8,0:0:0:0:
240,180,233210,1,0,0:0:0:0:
176,148,233314,1,8,0:0:0:0:
240,176,233417,1,8,0:0:0:0:
300,208,233521,1,0,0:0:0:0:
160,192,233728,1,0,0:0:0:0:
180,144,233831,1,0,0:0:0:0:
160,192,233935,1,8,0:0:0:0:
292,240,234142,5,0,0:0:0:0:
212,176,234348,1,0,0:0:0:0:
212,176,234452,1,0,0:0:0:0:
264,128,234555,1,8,0:0:0:0:
220,144,234624,1,8,0:0:0:0:
220,144,234693,1,8,0:0:0:0:
220,144,234762,1,0,0:0:0:0:
212,176,234969,1,8,0:0:0:0:
228,156,235176,5,12,0:0:0:0:
228,156,235383,1,0,0:0:0:0:
296,160,235486,1,0,0:0:0:0:
228,156,235590,1,8,0:0:0:0:
228,156,235797,1,8,0:0:0:0:
228,156,236004,1,0,0:0:0:0:
220,144,236107,1,0,0:0:0:0:
228,156,236417,1,8,0:0:0:0:
228,156,236624,1,8,0:0:0:0:
228,156,236728,1,8,0:0:0:0:
228,156,236831,1,0,0:0:0:0:
228,156,236935,1,8,0:0:0:0:
228,156,237038,1,0,0:0:0:0:
228,156,237245,1,8,0:0:0:0:
228,156,237348,1,0,0:0:0:0:
228,156,237452,1,8,0:0:0:0:
220,144,237659,1,0,0:0:0:0:
228,156,237866,1,0,0:0:0:0:
228,156,237969,1,0,0:0:0:0:
228,156,238073,1,8,0:0:0:0:
292,180,238176,1,0,0:0:0:0:
224,160,238279,1,0,0:0:0:0:
364,180,238486,1,0,0:0:0:0:
276,168,238693,1,0,0:0:0:0:
276,168,238797,1,0,0:0:0:0:
276,168,238900,1,8,0:0:0:0:
276,168,239107,1,8,0:0:0:0:
140,208,239314,1,0,0:0:0:0:
76,228,239417,1,0,0:0:0:0:
260,128,239728,1,8,0:0:0:0:
376,208,239935,1,8,0:0:0:0:
432,244,240038,1,8,0:0:0:0:
492,288,240142,1,0,0:0:0:0:
436,248,240245,1,8,0:0:0:0:
380,208,240348,1,0,0:0:0:0:
268,124,240555,1,8,0:0:0:0:
204,96,240659,1,0,0:0:0:0:
140,72,240762,1,8,0:0:0:0:
0,212,240969,1,0,0:0:0:0:
132,164,241176,1,0,0:0:0:0:
200,144,241279,1,0,0:0:0:0:
268,128,241383,1,8,0:0:0:0:
332,108,241486,1,0,0:0:0:0:
400,88,241590,1,8,0:0:0:0:
280,156,241797,1,0,0:0:0:0:
280,156,242004,1,0,0:0:0:0:
336,196,242107,1,0,0:0:0:0:
280,156,242210,1,8,0:0:0:0:
280,156,242417,1,8,0:0:0:0:
276,160,242624,1,0,0:0:0:0:
216,124,242728,1,0,0:0:0:0:
384,252,243038,1,8,0:0:0:0:
280,160,243245,1,8,0:0:0:0:
212,140,243348,1,8,0:0:0:0:
212,140,243452,1,0,0:0:0:0:
280,148,243555,1,8,0:0:0:0:
348,176,243659,1,0,0:0:0:0:
212,140,243866,1,8,0:0:0:0:
212,140,243969,1,0,0:0:0:0:
212,140,244073,1,8,0:0:0:0:
212,140,244279,1,0,0:0:0:0:
212,140,244486,1,0,0:0:0:0:
212,140,244590,1,0,0:0:0:0:
212,140,244693,1,8,0:0:0:0:
184,204,244797,1,0,0:0:0:0:
216,144,244900,1,0,0:0:0:0:
284,268,245107,1,0,0:0:0:0:
184,168,245314,1,0,0:0:0:0:
252,172,245417,1,0,0:0:0:0:
136,120,245521,1,8,0:0:0:0:
184,168,245728,1,8,0:0:0:0:
184,168,245935,1,0,0:0:0:0:
248,196,246038,1,0,0:0:0:0:
184,168,246348,1,8,0:0:0:0:
264,64,246555,1,8,0:0:0:0:
264,64,246659,1,8,0:0:0:0:
264,64,246762,1,0,0:0:0:0:
256,132,246866,1,8,0:0:0:0:
264,64,246969,1,0,0:0:0:0:
156,156,247176,1,8,0:0:0:0:
216,124,247279,1,0,0:0:0:0:
280,88,247383,1,8,0:0:0:0:
408,32,247590,1,0,0:0:0:0:
288,100,247797,1,0,0:0:0:0:
156,156,247900,1,0,0:0:0:0:
172,180,248004,1,8,0:0:0:0:
168,112,248107,1,0,0:0:0:0:
288,100,248210,1,8,0:0:0:0:
296,240,248417,1,0,0:0:0:0:
268,104,248624,1,0,0:0:0:0:
228,160,248728,1,0,0:0:0:0:
312,236,248831,1,8,0:0:0:0:
268,104,249038,1,8,0:0:0:0:
156,156,249245,1,0,0:0:0:0:
156,156,249348,1,0,0:0:0:0:
156,156,249452,1,0,0:0:0:0:
256,252,249659,1,8,0:0:0:0:
156,156,249866,1,8,0:0:0:0:
228,160,249969,1,8,0:0:0:0:
228,160,250073,1,0,0:0:0:0:
160,168,250176,1,8,0:0:0:0:
92,184,250279,1,0,0:0:0:0:
224,144,250486,1,8,0:0:0:0:
156,164,250590,1,0,0:0:0:0:
88,184,250693,1,8,0:0:0:0:
200,100,250900,1,0,0:0:0:0:
288,208,251107,1,0,0:0:0:0:
332,264,251210,1,0,0:0:0:0:
228,160,251314,1,8,0:0:0:0:
160,160,251417,1,0,0:0:0:0:
88,172,251521,1,0,0:0:0:0:
228,160,251728,1,0,0:0:0:0:
228,160,251935,1,0,0:0:0:0:
292,132,252038,1,0,0:0:0:0:
228,160,252142,1,8,0:0:0:0:
228,160,252348,1,8,0:0:0:0:
228,160,252555,1,0,0:0:0:0:
296,144,252659,1,0,0:0:0:0:
364,132,252762,1,0,0:0:0:0:
296,144,252969,1,8,0:0:0:0:
208,152,253176,1,8,0:0:0:0:
208,152,253279,1,8,0:0:0:0:
208,152,253383,1,0,0:0:0:0:
208,152,253486,1,8,0:0:0:0:
228,160,253590,1,0,0:0:0:0:
208,152,253797,1,8,0:0:0:0:
208,152,253900,1,0,0:0:0:0:
208,152,254004,1,8,0:0:0:0:
68,152,254210,1,0,0:0:0:0:
228,160,254417,1,0,0:0:0:0:
228,160,254521,1,0,0:0:0:0:
228,160,254624,1,8,0:0:0:0:
208,92,254728,1,0,0:0:0:0:
188,28,254831,1,8,0:0:0:0:
208,92,255038,1,0,0:0:0:0:
224,128,255245,1,0,0:0:0:0:
224,128,255348,1,0,0:0:0:0:
224,128,255452,1,8,0:0:0:0:
224,128,255659,1,8,0:0:0:0:
256,156,255866,1,0,0:0:0:0:
188,132,255969,1,0,0:0:0:0:
124,112,256073,1,0,0:0:0:0:
256,156,256279,1,8,0:0:0:0:
208,140,256486,1,8,0:0:0:0:
208,140,256590,1,8,0:0:0:0:
208,140,256693,1,0,0:0:0:0:
208,140,256797,1,8,0:0:0:0:
208,140,256900,1,0,0:0:0:0:
72,172,257107,1,8,0:0:0:0:
140,160,257210,1,0,0:0:0:0:
208,144,257314,1,8,0:0:0:0:
76,188,257521,1,0,0:0:0:0:
208,140,257728,1,0,0:0:0:0:
272,116,257831,1,0,0:0:0:0:
340,96,257935,1,8,0:0:0:0:
408,80,258038,1,0,0:0:0:0:
476,56,258142,1,0,0:0:0:0:
208,140,258348,1,0,0:0:0:0:
208,144,258555,1,0,0:0:0:0:
208,144,258659,1,0,0:0:0:0:
208,144,258762,1,8,0:0:0:0:
188,152,258969,1,8,0:0:0:0:
188,152,259176,1,0,0:0:0:0:
188,152,259279,1,0,0:0:0:0:
208,144,259383,1,0,0:0:0:0:
208,140,259590,1,8,0:0:0:0:
208,140,259797,1,8,0:0:0:0:
208,140,259900,1,8,0:0:0:0:
208,144,260004,5,0,0:0:0:0:
208,144,260107,5,8,0:0:0:0:
208,144,260210,5,0,0:0:0:0:
148,16,260417,1,8,0:0:0:0:
184,76,260521,1,0,0:0:0:0:
216,136,260624,1,8,0:0:0:0:
216,136,260831,1,0,0:0:0:0:
216,136,261038,1,0,0:0:0:0:
216,136,261142,1,0,0:0:0:0:
216,136,261245,1,8,0:0:0:0:
216,136,261348,1,0,0:0:0:0:
216,136,261452,1,8,0:0:0:0:
216,68,261555,1,8,0:0:0:0:
288,144,261659,5,0,0:0:0:0:
8,156,262073,1,8,0:0:0:0:
288,164,262486,1,0,0:0:0:0:
148,160,262900,1,0,0:0:0:0:
288,152,263107,1,8,0:0:0:0:
328,208,263210,1,0,0:0:0:0:
80,164,263417,1,0,0:0:0:0:
256,200,263728,1,0,0:0:0:0:
288,164,263935,1,8,0:0:0:0:
288,164,264142,1,8,0:0:0:0:
176,168,264555,1,0,0:0:0:0:
176,168,264762,1,8,0:0:0:0:
176,168,264969,1,0,0:0:0:0:
456,152,265383,1,0,0:0:0:0:
276,180,265797,1,8,0:0:0:0:
276,180,266210,1,0,0:0:0:0:
276,180,266417,1,0,0:0:0:0:
276,180,266521,1,8,0:0:0:0:
276,180,266728,1,8,0:0:0:0:
448,300,267038,1,8,0:0:0:0:
276,180,267245,1,0,0:0:0:0:
336,220,267452,1,8,0:0:0:0:
252,180,267866,1,0,0:0:0:0:
252,180,268073,1,8,0:0:0:0:
252,180,268279,1,0,0:0:0:0:
232,200,268693,1,0,0:0:0:0:
232,200,269107,1,8,0:0:0:0:
232,200,269521,1,0,0:0:0:0:
232,200,269728,1,8,0:0:0:0:
232,200,269831,1,8,0:0:0:0:
232,200,270038,1,8,0:0:0:0:
392,64,270348,1,8,0:0:0:0:
280,148,270555,1,0,0:0:0:0:
280,148,270762,1,0,0:0:0:0:
280,148,271176,1,8,0:0:0:0:
280,148,271383,1,0,0:0:0:0:
280,148,271590,1,8,0:0:0:0:
8,88,272004,1,8,0:0:0:0:
280,148,272417,1,8,0:0:0:0:
0,132,272831,1,8,0:0:0:0:
136,156,273038,1,0,0:0:0:0:
204,172,273142,1,8,0:0:0:0:
296,68,273348,1,8,0:0:0:0:
372,44,273452,1,0,0:0:0:0:
244,104,273659,1,8,0:0:0:0:
124,172,273866,5,0,0:0:0:0:
64,208,274073,5,8,0:0:0:0:
328,120,274486,1,8,0:0:0:0:
196,164,274693,1,0,0:0:0:0:
252,204,274900,5,0,0:0:0:0:
8,156,275314,1,8,0:0:0:0:
288,164,275728,1,0,0:0:0:0:
148,160,276142,1,0,0:0:0:0:
288,152,276348,1,8,0:0:0:0:
328,208,276452,1,0,0:0:0:0:
80,164,276659,1,0,0:0:0:0:
256,200,276969,1,0,0:0:0:0:
288,164,277176,1,8,0:0:0:0:
288,164,277383,1,8,0:0:0:0:
176,168,277797,1,0,0:0:0:0:
176,168,278004,1,8,0:0:0:0:
176,168,278210,1,0,0:0:0:0:
456,152,278624,1,0,0:0:0:0:
276,180,279038,1,8,0:0:0:0:
276,180,279452,1,0,0:0:0:0:
276,180,279659,1,0,0:0:0:0:
276,180,279762,1,8,0:0:0:0:
276,180,279969,1,8,0:0:0:0:
448,300,280279,1,8,0:0:0:0:
276,180,280486,1,0,0:0:0:0:
336,220,280693,1,8,0:0:0:0:
252,180,281107,1,0,0:0:0:0:
252,180,281314,1,8,0:0:0:0:
252,180,281521,1,0,0:0:0:0:
232,200,281935,1,0,0:0:0:0:
232,200,282348,1,8,0:0:0:0:
232,200,282762,1,0,0:0:0:0:
232,200,282969,1,8,0:0:0:0:
232,200,283073,1,8,0:0:0:0:
232,200,283279,1,8,0:0:0:0:
392,64,283590,1,8,0:0:0:0:
280,148,283797,1,0,0:0:0:0:
280,148,284004,1,0,0:0:0:0:
280,148,284417,1,8,0:0:0:0:
280,148,284624,1,0,0:0:0:0:
280,148,284831,1,8,0:0:0:0:
8,88,285245,1,8,0:0:0:0:
280,148,285659,1,8,0:0:0:0:
0,132,286073,1,8,0:0:0:0:
312,188,286486,5,8,0:0:0:0:
280,148,286590,1,8,0:0:0:0:
280,148,286693,1,8,0:0:0:0:
280,148,286797,1,8,0:0:0:0:
280,148,286900,1,0,0:0:0:0:
280,148,287004,1,0,0:0:0:0:
280,148,287107,1,0,0:0:0:0:
280,148,287210,1,0,0:0:0:0:
276,160,287314,1,8,0:0:0:0:
276,160,287417,1,8,0:0:0:0:
276,160,287521,1,8,0:0:0:0:
280,148,287624,1,8,0:0:0:0:
276,160,287728,1,0,0:0:0:0:
136,168,287935,1,0,0:0:0:0:
276,156,288142,1,8,0:0:0:0:
280,148,288245,1,8,0:0:0:0:
280,148,288348,1,8,0:0:0:0:
280,148,288452,1,8,0:0:0:0:
280,148,288555,1,0,0:0:0:0:
280,148,288659,1,0,0:0:0:0:
280,148,288762,1,0,0:0:0:0:
276,160,288866,1,0,0:0:0:0:
276,160,288969,1,8,0:0:0:0:
276,160,289073,1,8,0:0:0:0:
280,148,289176,1,0,0:0:0:0:
276,160,289279,1,0,0:0:0:0:
276,156,289383,1,8,0:0:0:0:
136,144,289590,1,0,0:0:0:0:
276,160,289797,1,8,0:0:0:0:
276,160,289900,1,8,0:0:0:0:
276,160,290004,1,0,0:0:0:0:
276,160,290107,1,0,0:0:0:0:
332,200,290210,1,8,0:0:0:0:
276,160,290314,1,8,0:0:0:0:
332,200,290417,1,0,0:0:0:0:
332,200,290521,1,0,0:0:0:0:
276,160,290624,1,8,0:0:0:0:
332,204,290728,1,8,0:0:0:0:
276,160,290831,1,0,0:0:0:0:
332,204,290935,1,0,0:0:0:0:
276,160,291038,1,8,0:0:0:0:
168,72,291245,1,8,0:0:0:0:
276,156,291452,1,8,0:0:0:0:
280,148,291555,1,8,0:0:0:0:
280,148,291659,1,8,0:0:0:0:
280,148,291762,1,8,0:0:0:0:
280,148,291866,1,0,0:0:0:0:
280,148,291969,1,0,0:0:0:0:
280,148,292073,1,0,0:0:0:0:
276,160,292176,1,0,0:0:0:0:
276,160,292279,1,8,0:0:0:0:
276,160,292383,1,8,0:0:0:0:
280,148,292486,1,8,0:0:0:0:
276,160,292590,1,8,0:0:0:0:
276,156,292693,1,0,0:0:0:0:
136,144,292900,1,0,0:0:0:0:
276,160,293107,1,8,0:0:0:0:
276,160,293210,1,8,0:0:0:0:
276,160,293314,1,0,0:0:0:0:
276,160,293417,1,0,0:0:0:0:
332,200,293521,1,8,0:0:0:0:
276,160,293624,1,8,0:0:0:0:
332,200,293728,1,0,0:0:0:0:
332,200,293831,1,0,0:0:0:0:
276,160,293935,1,8,0:0:0:0:
332,204,294038,1,8,0:0:0:0:
276,160,294142,1,0,0:0:0:0:
332,204,294245,1,0,0:0:0:0:
276,160,294348,1,8,0:0:0:0:
168,72,294555,1,8,0:0:0:0:
276,156,294762,1,0,0:0:0:0:
280,148,294866,1,0,0:0:0:0:
280,148,294969,1,8,0:0:0:0:
280,148,295073,1,8,0:0:0:0:
280,148,295176,1,0,0:0:0:0:
280,148,295279,1,0,0:0:0:0:
280,148,295383,1,0,0:0:0:0:
276,160,295486,1,0,0:0:0:0:
276,160,295590,1,8,0:0:0:0:
276,160,295693,1,8,0:0:0:0:
280,148,295797,1,0,0:0:0:0:
276,160,295900,1,0,0:0:0:0:
276,156,296004,1,8,0:0:0:0:
136,144,296210,1,0,0:0:0:0:
276,160,296417,1,8,0:0:0:0:
276,160,296521,1,8,0:0:0:0:
276,160,296624,1,0,0:0:0:0:
276,160,296728,1,0,0:0:0:0:
332,200,296831,1,8,0:0:0:0:
276,160,296935,1,8,0:0:0:0:
332,200,297038,1,8,0:0:0:0:
332,200,297142,1,8,0:0:0:0:
276,160,297245,1,0,0:0:0:0:
332,204,297348,1,0,0:0:0:0:
276,160,297452,1,0,0:0:0:0:
332,204,297555,1,0,0:0:0:0:
276,160,297659,1,8,0:0:0:0:
168,72,297866,1,8,0:0:0:0:
276,156,298073,1,0,0:0:0:0:
280,148,298176,1,0,0:0:0:0:
280,148,298279,1,8,0:0:0:0:
280,148,298383,1,8,0:0:0:0:
280,148,298486,1,0,0:0:0:0:
280,148,298590,1,0,0:0:0:0:
280,148,298693,1,0,0:0:0:0:
276,160,298797,1,0,0:0:0:0:
276,160,298900,1,8,0:0:0:0:
276,160,299004,1,8,0:0:0:0:
280,148,299107,1,0,0:0:0:0:
276,160,299210,1,0,0:0:0:0:
276,156,299314,1,8,0:0:0:0:
136,144,299521,1,0,0:0:0:0:
276,160,299728,1,8,0:0:0:0:
276,160,299831,1,8,0:0:0:0:
276,160,299935,1,0,0:0:0:0:
276,160,300038,1,0,0:0:0:0:
332,200,300142,1,8,0:0:0:0:
276,160,300245,1,8,0:0:0:0:
332,200,300348,1,8,0:0:0:0:
332,200,300452,1,8,0:0:0:0:
276,160,300555,1,0,0:0:0:0:
332,204,300659,1,0,0:0:0:0:
276,160,300762,1,0,0:0:0:0:
332,204,300866,1,0,0:0:0:0:
276,160,300969,1,8,0:0:0:0:
168,72,301176,1,8,0:0:0:0:
284,192,301383,5,0,0:0:0:0:
224,148,301590,1,0,0:0:0:0:
224,148,301693,1,0,0:0:0:0:
224,148,301797,1,8,0:0:0:0:
224,148,302004,1,0,0:0:0:0:
224,148,302107,1,0,0:0:0:0:
224,148,302210,1,8,0:0:0:0:
224,148,302417,1,0,0:0:0:0:
224,148,302521,1,8,0:0:0:0:
224,148,302624,1,0,0:0:0:0:
448,316,303038,1,0,0:0:0:0:
396,268,303142,1,0,0:0:0:0:
336,232,303245,1,8,0:0:0:0:
228,144,303452,1,0,0:0:0:0:
336,232,303659,1,8,0:0:0:0:
228,144,303866,1,0,0:0:0:0:
164,168,303969,1,0,0:0:0:0:
336,232,304073,1,8,0:0:0:0:
224,148,304176,1,8,0:0:0:0:
228,144,304279,1,0,0:0:0:0:
336,232,304486,1,8,0:0:0:0:
228,144,304693,1,0,0:0:0:0:
344,220,304900,1,0,0:0:0:0:
404,260,305004,1,0,0:0:0:0:
464,296,305107,1,8,0:0:0:0:
348,220,305314,1,0,0:0:0:0:
288,184,305417,1,0,0:0:0:0:
228,152,305521,1,8,0:0:0:0:
348,220,305728,1,0,0:0:0:0:
288,184,305831,1,8,0:0:0:0:
348,220,305935,1,0,0:0:0:0:
448,316,306348,1,0,0:0:0:0:
396,268,306452,1,0,0:0:0:0:
336,232,306555,1,8,0:0:0:0:
228,144,306762,1,0,0:0:0:0:
336,232,306969,1,8,0:0:0:0:
228,144,307176,1,0,0:0:0:0:
164,168,307279,1,0,0:0:0:0:
336,232,307383,1,8,0:0:0:0:
224,148,307486,1,8,0:0:0:0:
228,144,307590,1,0,0:0:0:0:
336,232,307797,1,8,0:0:0:0:
228,144,308004,1,0,0:0:0:0:
296,152,308107,1,0,0:0:0:0:
344,220,308210,1,0,0:0:0:0:
404,260,308314,1,0,0:0:0:0:
464,296,308417,1,8,0:0:0:0:
348,220,308624,1,0,0:0:0:0:
288,184,308728,1,0,0:0:0:0:
228,152,308831,1,8,0:0:0:0:
296,168,308935,1,0,0:0:0:0:
348,220,309038,1,0,0:0:0:0:
288,184,309142,1,8,0:0:0:0:
348,220,309245,1,0,0:0:0:0:
448,316,309659,1,0,0:0:0:0:
396,268,309762,1,0,0:0:0:0:
336,232,309866,1,8,0:0:0:0:
228,144,310073,1,0,0:0:0:0:
308,164,310176,1,0,0:0:0:0:
336,232,310279,1,8,0:0:0:0:
228,144,310486,1,0,0:0:0:0:
164,168,310590,1,0,0:0:0:0:
336,232,310693,1,8,0:0:0:0:
224,148,310797,1,8,0:0:0:0:
228,144,310900,1,0,0:0:0:0:
336,232,311107,1,8,0:0:0:0:
228,144,311314,1,0,0:0:0:0:
288,168,311417,1,0,0:0:0:0:
344,220,311521,1,0,0:0:0:0:
404,260,311624,1,0,0:0:0:0:
464,296,311728,1,8,0:0:0:0:
348,220,311935,1,0,0:0:0:0:
288,184,312038,1,0,0:0:0:0:
228,152,312142,1,8,0:0:0:0:
296,160,312245,1,0,0:0:0:0:
348,220,312348,1,0,0:0:0:0:
288,184,312452,1,8,0:0:0:0:
348,220,312555,1,0,0:0:0:0:
448,316,312969,1,0,0:0:0:0:
396,268,313073,1,0,0:0:0:0:
336,232,313176,1,8,0:0:0:0:
284,188,313279,1,8,0:0:0:0:
228,144,313383,1,0,0:0:0:0:
308,164,313486,1,0,0:0:0:0:
336,232,313590,1,8,0:0:0:0:
284,188,313693,1,8,0:0:0:0:
228,144,313797,1,0,0:0:0:0:
164,168,313900,1,0,0:0:0:0:
336,232,314004,1,8,0:0:0:0:
332,132,314107,1,0,0:0:0:0:
228,144,314210,1,8,0:0:0:0:
300,140,314314,1,0,0:0:0:0:
368,136,314417,1,8,0:0:0:0:
440,136,314521,1,8,0:0:0:0:
508,132,314624,5,0,0:0:0:0:
300,140,314728,1,0,0:0:0:0:
300,140,314831,1,0,0:0:0:0:
300,140,314935,1,0,0:0:0:0:
300,140,315038,1,0,0:0:0:0:
300,140,315142,1,0,0:0:0:0:
300,140,315245,1,0,0:0:0:0:
300,140,315348,1,0,0:0:0:0:
300,140,315452,1,8,0:0:0:0:
300,140,315555,1,0,0:0:0:0:
300,140,315659,1,0,0:0:0:0:
300,140,315762,1,0,0:0:0:0:
300,140,315866,1,0,0:0:0:0:
300,140,315969,1,0,0:0:0:0:
300,140,316073,1,0,0:0:0:0:
300,140,316176,1,0,0:0:0:0:
300,140,316279,1,8,0:0:0:0:
300,140,316383,1,0,0:0:0:0:
300,140,316486,1,0,0:0:0:0:
300,140,316590,1,0,0:0:0:0:
300,140,316693,1,0,0:0:0:0:
300,140,316797,1,0,0:0:0:0:
300,140,316900,1,0,0:0:0:0:
300,140,317004,1,0,0:0:0:0:
300,140,317107,1,8,0:0:0:0:
300,140,317210,1,0,0:0:0:0:
300,140,317314,1,0,0:0:0:0:
300,140,317417,1,0,0:0:0:0:
300,140,317521,1,0,0:0:0:0:
300,140,317624,1,0,0:0:0:0:
300,140,317728,1,0,0:0:0:0:
300,140,317831,1,0,0:0:0:0:
300,140,317935,1,8,0:0:0:0:
300,140,318038,1,0,0:0:0:0:
300,140,318142,1,0,0:0:0:0:
300,140,318245,1,0,0:0:0:0:
300,140,318348,1,8,0:0:0:0:
300,140,318452,1,0,0:0:0:0:
300,140,318555,1,0,0:0:0:0:
300,140,318659,1,0,0:0:0:0:
300,140,318762,1,8,0:0:0:0:
300,140,318866,1,0,0:0:0:0:
300,140,318969,1,0,0:0:0:0:
300,140,319073,1,0,0:0:0:0:
300,140,319176,1,8,0:0:0:0:
300,140,319279,1,0,0:0:0:0:
300,140,319383,1,0,0:0:0:0:
244,104,319486,1,0,0:0:0:0:
300,140,319590,1,8,0:0:0:0:
300,140,320004,1,12,0:0:0:0:
220,256,320210,1,0,0:0:0:0:
248,216,320279,1,0,0:0:0:0:
276,176,320348,1,0,0:0:0:0:
276,176,320417,1,8,0:0:0:0:
156,4,320831,1,12,0:0:0:0:
276,156,321245,1,8,0:0:0:0:
280,148,321348,1,8,0:0:0:0:
280,148,321452,1,0,0:0:0:0:
280,148,321555,1,0,0:0:0:0:
280,148,321659,1,8,0:0:0:0:
280,148,321762,1,0,0:0:0:0:
280,148,321866,1,8,0:0:0:0:
276,160,321969,1,0,0:0:0:0:
276,160,322073,1,8,0:0:0:0:
276,160,322176,1,8,0:0:0:0:
280,148,322279,1,0,0:0:0:0:
276,160,322383,1,0,0:0:0:0:
276,156,322486,1,8,0:0:0:0:
276,160,322900,1,8,0:0:0:0:
276,160,323004,1,0,0:0:0:0:
276,160,323107,1,0,0:0:0:0:
276,160,323210,1,0,0:0:0:0:
332,200,323314,1,8,0:0:0:0:
276,160,323417,1,0,0:0:0:0:
332,200,323521,1,8,0:0:0:0:
332,200,323624,1,0,0:0:0:0:
276,160,323728,1,8,0:0:0:0:
332,204,323831,1,0,0:0:0:0:
276,160,323935,1,0,0:0:0:0:
332,204,324038,1,0,0:0:0:0:
276,160,324142,1,8,0:0:0:0:
208,152,324245,1,8,0:0:0:0:
168,72,324348,1,0,0:0:0:0:
208,132,324452,1,0,0:0:0:0:
276,156,324555,1,8,0:0:0:0:
280,148,324659,1,8,0:0:0:0:
280,148,324762,1,0,0:0:0:0:
280,148,324866,1,0,0:0:0:0:
280,148,324969,1,8,0:0:0:0:
280,148,325073,1,0,0:0:0:0:
280,148,325176,1,8,0:0:0:0:
276,160,325279,1,0,0:0:0:0:
276,160,325383,1,8,0:0:0:0:
276,160,325486,1,8,0:0:0:0:
280,148,325590,1,0,0:0:0:0:
276,160,325693,1,0,0:0:0:0:
276,156,325797,1,8,0:0:0:0:
276,160,326210,1,8,0:0:0:0:
276,160,326314,1,0,0:0:0:0:
276,160,326417,1,0,0:0:0:0:
276,160,326521,1,0,0:0:0:0:
332,200,326624,1,8,0:0:0:0:
276,160,326728,1,8,0:0:0:0:
332,200,326831,1,0,0:0:0:0:
332,200,326935,1,0,0:0:0:0:
276,160,327038,1,8,0:0:0:0:
332,204,327142,1,8,0:0:0:0:
276,160,327245,1,0,0:0:0:0:
332,204,327348,1,0,0:0:0:0:
276,160,327452,1,8,0:0:0:0:
208,152,327555,1,0,0:0:0:0:
168,72,327659,1,8,0:0:0:0:
208,132,327762,1,0,0:0:0:0:
276,156,327866,1,8,0:0:0:0:
280,148,327969,1,8,0:0:0:0:
280,148,328073,1,0,0:0:0:0:
280,148,328176,1,0,0:0:0:0:
280,148,328279,1,8,0:0:0:0:
280,148,328383,1,8,0:0:0:0:
280,148,328486,1,0,0:0:0:0:
276,160,328590,1,0,0:0:0:0:
276,160,328693,1,8,0:0:0:0:
276,160,328797,1,0,0:0:0:0:
280,148,328900,1,8,0:0:0:0:
276,160,329004,1,0,0:0:0:0:
276,156,329107,1,8,0:0:0:0:
276,160,329521,1,8,0:0:0:0:
276,160,329624,1,0,0:0:0:0:
276,160,329728,1,0,0:0:0:0:
276,160,329831,1,0,0:0:0:0:
332,200,329935,1,8,0:0:0:0:
276,160,330038,1,0,0:0:0:0:
332,200,330142,1,8,0:0:0:0:
332,200,330245,1,0,0:0:0:0:
276,160,330348,1,8,0:0:0:0:
332,204,330452,1,0,0:0:0:0:
276,160,330555,1,0,0:0:0:0:
332,204,330659,1,0,0:0:0:0:
276,160,330762,1,8,0:0:0:0:
208,152,330866,1,8,0:0:0:0:
168,72,330969,1,0,0:0:0:0:
208,132,331073,1,0,0:0:0:0:
276,156,331176,1,8,0:0:0:0:
280,148,331279,1,8,0:0:0:0:
280,148,331383,1,0,0:0:0:0:
280,148,331486,1,0,0:0:0:0:
280,148,331590,1,8,0:0:0:0:
280,148,331693,1,0,0:0:0:0:
280,148,331797,1,8,0:0:0:0:
276,160,331900,1,0,0:0:0:0:
276,160,332004,1,8,0:0:0:0:
276,160,332107,1,8,0:0:0:0:
280,148,332210,1,0,0:0:0:0:
276,160,332314,1,0,0:0:0:0:
276,156,332417,1,8,0:0:0:0:
276,160,332831,1,8,0:0:0:0:
276,160,332935,1,0,0:0:0:0:
276,160,333038,1,0,0:0:0:0:
276,160,333142,1,0,0:0:0:0:
332,200,333245,1,8,0:0:0:0:
276,160,333348,1,8,0:0:0:0:
332,200,333452,1,0,0:0:0:0:
332,200,333555,1,0,0:0:0:0:
276,160,333659,1,8,0:0:0:0:
332,204,333762,1,8,0:0:0:0:
276,160,333866,1,0,0:0:0:0:
332,204,333969,1,0,0:0:0:0:
276,160,334073,1,8,0:0:0:0:
208,152,334176,1,0,0:0:0:0:
168,72,334279,1,8,0:0:0:0:
208,152,334383,1,8,0:0:0:0:
208,152,334486,1,0,0:0:0:0:
276,160,334590,1,0,0:0:0:0:
276,160,334693,1,0,0:0:0:0:
276,160,334797,1,0,0:0:0:0:
276,160,334900,1,0,0:0:0:0:
276,160,335004,1,0,0:0:0:0:
276,160,335107,1,0,0:0:0:0:
276,160,335210,1,0,0:0:0:0:
208,152,335314,1,8,0:0:0:0:
276,160,335417,1,0,0:0:0:0:
276,160,335521,1,0,0:0:0:0:
276,160,335624,1,0,0:0:0:0:
276,160,335728,1,0,0:0:0:0:
276,160,335831,1,0,0:0:0:0:
276,160,335935,1,0,0:0:0:0:
276,160,336038,1,0,0:0:0:0:
208,152,336142,1,8,0:0:0:0:
276,160,336245,1,8,0:0:0:0:
276,160,336348,1,0,0:0:0:0:
276,160,336452,1,0,0:0:0:0:
276,160,336555,1,8,0:0:0:0:
276,160,336659,1,8,0:0:0:0:
276,160,336762,1,0,0:0:0:0:
276,160,336866,1,0,0:0:0:0:
344,148,336969,1,8,0:0:0:0:
276,160,337073,1,8,0:0:0:0:
276,160,337176,1,0,0:0:0:0:
276,160,337279,1,0,0:0:0:0:
204,156,337383,1,8,0:0:0:0:
136,152,337486,1,8,0:0:0:0:
208,156,337590,1,0,0:0:0:0:
160,152,337693,1,0,0:0:0:0:
160,152,337797,1,8,0:0:0:0:
160,152,337900,1,0,0:0:0:0:
160,152,338004,1,8,0:0:0:0:
160,152,338107,1,0,0:0:0:0:
160,152,338210,1,8,0:0:0:0:
160,152,338314,1,0,0:0:0:0:
160,152,338417,1,8,0:0:0:0:
160,152,338521,1,0,0:0:0:0:
160,152,338624,1,8,0:0:0:0:
160,152,338728,1,0,0:0:0:0:
160,152,338831,1,8,0:0:0:0:
160,152,338935,1,0,0:0:0:0:
160,152,339038,1,8,0:0:0:0:
160,152,339142,1,0,0:0:0:0:
160,152,339245,1,8,0:0:0:0:
160,152,339348,1,0,0:0:0:0:
160,152,339452,1,8,0:0:0:0:
228,128,339555,1,8,0:0:0:0:
160,152,339659,1,8,0:0:0:0:
160,152,339762,1,8,0:0:0:0:
160,152,339866,1,8,0:0:0:0:
160,152,339969,1,8,0:0:0:0:
176,168,340073,1,0,0:0:0:0:
176,168,340142,1,0,0:0:0:0:
176,168,340210,1,0,0:0:0:0:
176,168,340279,1,8,0:0:0:0:
168,128,340693,1,8,0:0:0:0:
168,128,340797,1,8,0:0:0:0:
168,128,340900,1,0,0:0:0:0:
228,92,341004,1,0,0:0:0:0:
292,60,341107,1,8,0:0:0:0:
184,148,341210,1,0,0:0:0:0:
184,148,341314,1,0,0:0:0:0:
128,192,341417,1,0,0:0:0:0:
72,232,341521,1,8,0:0:0:0:
132,196,341624,1,0,0:0:0:0:
192,164,341728,1,0,0:0:0:0:
256,128,341831,1,0,0:0:0:0:
316,96,341935,1,8,0:0:0:0:
376,60,342038,1,0,0:0:0:0:
440,28,342142,1,0,0:0:0:0:
384,68,342245,1,0,0:0:0:0:
324,108,342348,1,8,0:0:0:0:
124,304,342762,1,0,0:0:0:0:
172,252,342866,1,0,0:0:0:0:
224,204,342969,1,8,0:0:0:0:
272,156,343073,1,0,0:0:0:0:
272,156,343176,1,8,0:0:0:0:
256,128,343279,1,8,0:0:0:0:
256,128,343383,1,0,0:0:0:0:
272,128,343486,1,0,0:0:0:0:
272,128,343590,1,8,0:0:0:0:
208,156,343693,1,8,0:0:0:0:
208,156,343797,1,0,0:0:0:0:
208,156,343900,1,0,0:0:0:0:
208,156,344004,1,8,0:0:0:0:
276,164,344107,1,8,0:0:0:0:
348,168,344210,1,8,0:0:0:0:
432,176,344314,1,0,0:0:0:0:
292,60,344417,1,8,0:0:0:0:
184,148,344521,1,8,0:0:0:0:
184,148,344624,1,0,0:0:0:0:
128,192,344728,1,0,0:0:0:0:
72,232,344831,1,8,0:0:0:0:
132,196,344935,1,0,0:0:0:0:
192,164,345038,1,0,0:0:0:0:
256,128,345142,1,0,0:0:0:0:
316,96,345245,1,8,0:0:0:0:
376,60,345348,1,8,0:0:0:0:
440,28,345452,1,0,0:0:0:0:
384,68,345555,1,0,0:0:0:0:
324,108,345659,1,8,0:0:0:0:
124,304,346073,1,0,0:0:0:0:
172,252,346176,1,0,0:0:0:0:
224,204,346279,1,8,0:0:0:0:
272,156,346383,1,0,0:0:0:0:
272,156,346486,1,8,0:0:0:0:
256,128,346590,1,8,0:0:0:0:
256,128,346693,1,0,0:0:0:0:
272,128,346797,1,0,0:0:0:0:
272,128,346900,1,8,0:0:0:0:
208,156,347004,1,8,0:0:0:0:
208,156,347107,1,8,0:0:0:0:
208,156,347210,1,8,0:0:0:0:
208,156,347314,1,0,0:0:0:0:
276,164,347417,1,0,0:0:0:0:
348,168,347521,1,8,0:0:0:0:
432,176,347624,1,0,0:0:0:0:
292,60,347728,1,8,0:0:0:0:
184,148,347831,1,0,0:0:0:0:
184,148,347935,1,0,0:0:0:0:
128,192,348038,1,0,0:0:0:0:
72,232,348142,1,8,0:0:0:0:
132,196,348245,1,0,0:0:0:0:
192,164,348348,1,0,0:0:0:0:
256,128,348452,1,0,0:0:0:0:
316,96,348555,1,8,0:0:0:0:
376,60,348659,1,0,0:0:0:0:
440,28,348762,1,0,0:0:0:0:
384,68,348866,1,0,0:0:0:0:
324,108,348969,1,8,0:0:0:0:
124,304,349383,1,0,0:0:0:0:
172,252,349486,1,0,0:0:0:0:
224,204,349590,1,8,0:0:0:0:
272,156,349693,1,0,0:0:0:0:
272,156,349797,1,8,0:0:0:0:
256,128,349900,1,8,0:0:0:0:
256,128,350004,1,0,0:0:0:0:
272,128,350107,1,0,0:0:0:0:
272,128,350210,1,8,0:0:0:0:
208,156,350314,1,8,0:0:0:0:
208,156,350417,1,0,0:0:0:0:
208,156,350521,1,0,0:0:0:0:
208,156,350624,1,8,0:0:0:0:
276,164,350728,1,8,0:0:0:0:
348,168,350831,1,8,0:0:0:0:
432,176,350935,1,0,0:0:0:0:
292,60,351038,1,8,0:0:0:0:
184,148,351142,1,8,0:0:0:0:
184,148,351245,1,0,0:0:0:0:
128,192,351348,1,0,0:0:0:0:
72,232,351452,1,8,0:0:0:0:
132,196,351555,1,0,0:0:0:0:
192,164,351659,1,0,0:0:0:0:
256,128,351762,1,0,0:0:0:0:
316,96,351866,1,8,0:0:0:0:
376,60,351969,1,8,0:0:0:0:
440,28,352073,1,0,0:0:0:0:
384,68,352176,1,0,0:0:0:0:
324,108,352279,1,8,0:0:0:0:
124,304,352693,1,0,0:0:0:0:
172,252,352797,1,0,0:0:0:0:
224,204,352900,1,8,0:0:0:0:
272,156,353004,1,0,0:0:0:0:
272,156,353107,1,8,0:0:0:0:
256,128,353210,1,8,0:0:0:0:
256,128,353314,1,0,0:0:0:0:
272,128,353417,1,0,0:0:0:0:
272,128,353521,1,8,0:0:0:0:
208,156,353624,1,8,0:0:0:0:
208,156,353728,1,8,0:0:0:0:
208,156,353831,1,8,0:0:0:0:
208,156,353935,1,0,0:0:0:0:
276,164,354038,1,0,0:0:0:0:
348,168,354142,1,8,0:0:0:0:
288,168,354245,5,0,0:0:0:0:
296,88,355590,1,0,0:0:0:0:
268,176,355797,1,8,0:0:0:0:
268,176,356004,1,0,0:0:0:0:
128,152,356417,1,8,0:0:0:0:
408,148,356831,1,8,0:0:0:0:
196,152,357245,1,8,0:0:0:0:
216,200,357452,1,0,0:0:0:0:
276,160,357555,1,0,0:0:0:0:
216,200,357762,1,0,0:0:0:0:
264,152,358073,1,0,0:0:0:0:
264,152,358279,1,0,0:0:0:0:
244,148,358486,1,8,0:0:0:0:
244,148,358900,1,0,0:0:0:0:
244,148,359107,1,8,0:0:0:0:
244,148,359314,1,0,0:0:0:0:
268,128,359728,1,8,0:0:0:0:
288,124,360142,1,0,0:0:0:0:
288,124,360555,1,8,0:0:0:0:
288,124,360762,1,0,0:0:0:0:
288,124,360866,1,0,0:0:0:0:
288,124,361073,1,8,0:0:0:0:
288,124,361383,1,8,0:0:0:0:
264,84,361590,1,0,0:0:0:0:
264,84,361797,1,8,0:0:0:0:
264,84,362210,1,0,0:0:0:0:
264,84,362417,1,8,0:0:0:0:
264,84,362624,1,0,0:0:0:0:
196,356,363038,1,0,0:0:0:0:
276,240,363245,1,8,0:0:0:0:
196,192,363314,1,8,0:0:0:0:
240,208,363383,1,8,0:0:0:0:
356,124,363452,1,0,0:0:0:0:
216,140,363866,1,8,0:0:0:0:
76,132,364073,1,0,0:0:0:0:
8,140,364176,1,0,0:0:0:0:
148,136,364383,1,0,0:0:0:0:
216,140,364693,1,8,0:0:0:0:
216,140,364900,1,0,0:0:0:0:
216,140,365107,1,8,0:0:0:0:
216,140,365521,1,0,0:0:0:0:
204,280,365728,1,8,0:0:0:0:
216,140,365935,1,0,0:0:0:0:
32,348,366348,1,0,0:0:0:0:
228,148,366762,1,8,0:0:0:0:
416,244,367176,1,0,0:0:0:0:
224,160,367383,1,0,0:0:0:0:
160,132,367486,1,0,0:0:0:0:
300,148,367693,1,8,0:0:0:0:
300,148,368004,5,0,0:0:0:0:
300,148,368417,5,8,0:0:0:0:
312,240,369245,5,0,0:0:0:0:
224,132,369659,1,8,0:0:0:0:
352,380,370073,1,0,0:0:0:0:
236,208,370486,1,8,0:0:0:0:
204,152,370693,1,0,0:0:0:0:
204,152,370797,1,0,0:0:0:0:
204,152,371004,1,8,0:0:0:0:
252,160,371314,1,0,0:0:0:0:
252,160,371521,1,0,0:0:0:0:
252,160,371728,1,8,0:0:0:0:
224,160,372142,1,0,0:0:0:0:
224,160,372348,1,8,0:0:0:0:
224,160,372555,1,0,0:0:0:0:
504,192,372969,1,8,0:0:0:0:
224,160,373383,1,0,0:0:0:0:
432,184,373797,1,8,0:0:0:0:
228,136,374004,1,0,0:0:0:0:
292,160,374107,1,0,0:0:0:0:
164,104,374314,1,0,0:0:0:0:
368,152,374624,1,8,0:0:0:0:
232,128,374831,1,0,0:0:0:0:
368,152,375038,1,8,0:0:0:0:
232,128,375452,1,0,0:0:0:0:
232,128,375659,1,8,0:0:0:0:
232,128,375866,1,0,0:0:0:0:
232,128,376279,1,0,0:0:0:0:
452,48,376555,1,0,0:0:0:0:
404,60,376624,1,0,0:0:0:0:
492,32,376693,1,8,0:0:0:0:
228,124,377107,1,8,0:0:0:0:
96,176,377314,1,0,0:0:0:0:
32,200,377417,1,0,0:0:0:0:
168,172,377624,1,0,0:0:0:0:
228,160,377935,1,8,0:0:0:0:
228,160,378142,1,0,0:0:0:0:
228,160,378348,1,8,0:0:0:0:
252,192,378762,1,0,0:0:0:0:
252,192,378969,1,8,0:0:0:0:
252,192,379176,1,0,0:0:0:0:
40,8,379590,1,8,0:0:0:0:
268,172,380004,1,0,0:0:0:0:
40,8,380417,1,8,0:0:0:0:
156,84,380624,1,0,0:0:0:0:
216,124,380728,1,0,0:0:0:0:
332,204,380935,1,8,0:0:0:0:
144,108,381245,1,0,0:0:0:0:
272,168,381452,1,0,0:0:0:0:
396,228,381659,1,8,0:0:0:0:
136,128,382279,1,8,0:0:0:0:
312,240,382486,5,0,0:0:0:0:
224,132,382900,1,8,0:0:0:0:
352,380,383314,1,0,0:0:0:0:
236,208,383728,1,8,0:0:0:0:
204,152,383935,1,0,0:0:0:0:
204,152,384038,1,0,0:0:0:0:
204,152,384245,1,8,0:0:0:0:
252,160,384555,1,0,0:0:0:0:
252,160,384762,1,0,0:0:0:0:
252,160,384969,1,8,0:0:0:0:
224,160,385383,1,0,0:0:0:0:
224,160,385590,1,8,0:0:0:0:
224,160,385797,1,0,0:0:0:0:
504,192,386210,1,8,0:0:0:0:
224,160,386624,1,0,0:0:0:0:
432,184,387038,1,8,0:0:0:0:
228,136,387245,1,0,0:0:0:0:
292,160,387348,1,0,0:0:0:0:
164,104,387555,1,0,0:0:0:0:
368,152,387866,1,8,0:0:0:0:
232,128,388073,1,0,0:0:0:0:
368,152,388279,1,8,0:0:0:0:
232,128,388693,1,0,0:0:0:0:
232,128,388900,1,8,0:0:0:0:
232,128,389107,1,0,0:0:0:0:
232,128,389521,1,0,0:0:0:0:
452,48,389797,1,0,0:0:0:0:
404,60,389866,1,0,0:0:0:0:
492,32,389935,1,8,0:0:0:0:
228,124,390348,1,8,0:0:0:0:
96,176,390555,1,0,0:0:0:0:
32,200,390659,1,0,0:0:0:0:
168,172,390866,1,0,0:0:0:0:
228,160,391176,1,8,0:0:0:0:
228,160,391383,1,0,0:0:0:0:
228,160,391590,1,8,0:0:0:0:
252,192,392004,1,0,0:0:0:0:
252,192,392210,1,8,0:0:0:0:
252,192,392417,1,0,0:0:0:0:
40,8,392831,1,8,0:0:0:0:
268,172,393245,1,0,0:0:0:0:
40,8,393659,1,8,0:0:0:0:
156,84,393866,1,0,0:0:0:0:
216,124,393969,1,0,0:0:0:0:
332,204,394176,1,8,0:0:0:0:
144,108,394486,1,0,0:0:0:0:
272,168,394693,5,0,0:0:0:0:
396,228,394900,1,8,0:0:0:0:
136,128,395521,1,8,0:0:0:0:
268,160,395728,5,0,0:0:0:0:
304,164,397383,1,0,0:0:0:0:
328,144,398831,1,0,0:0:0:0:
304,164,399038,1,8,0:0:0:0:
204,164,399452,1,8,0:0:0:0:
480,108,399866,1,8,0:0:0:0:
368,192,400073,1,8,0:0:0:0:
288,152,400693,1,0,0:0:0:0:
288,152,402142,1,0,0:0:0:0:
288,152,402348,1,8,0:0:0:0:
268,160,402762,1,8,0:0:0:0:
268,160,403176,1,8,0:0:0:0:
268,160,403383,1,8,0:0:0:0:
316,96,404004,1,0,0:0:0:0:
336,124,405659,1,0,0:0:0:0:
336,124,406073,1,8,0:0:0:0:
336,124,406486,1,8,0:0:0:0:
256,144,407314,1,0,0:0:0:0:
256,144,408142,1,0,0:0:0:0:
256,192,408969,12,0,412383,0:0:0:0:
