osu file format v11

[General]
AudioFilename: 07. Infected Mushroom - Killing Time (feat. Perry Ferrell) .mp3
AudioLeadIn: 0
PreviewTime: 31767
Countdown: 0
SampleSet: Soft
StackLeniency: 0.6
Mode: 0
LetterboxInBreaks: 1

[Editor]
Bookmarks: 88221,127777
DistanceSpacing: 0.8
BeatDivisor: 4
GridSize: 4

[Metadata]
Title:Killing Time (feat. Perry Farrell)
TitleUnicode:Killing Time (feat. Perry Farrell)
Artist:Infected Mushroom
ArtistUnicode:Infected Mushroom
Creator:-Bakari-
Version:Hard
Source:
Tags:Stefan TheNutritiousGuy TNG Black_Cherry_Ita BCI trance Legend of the Black Shawarma
BeatmapID:172460
BeatmapSetID:56562

[Difficulty]
HPDrainRate:6
CircleSize:4
OverallDifficulty:6
ApproachRate:7
SliderMultiplier:1.6
SliderTickRate:2

[Events]
//Background and Video events
0,0,"baka.jpg"
//Break Periods
2,60422,65302
2,92422,94858
//Storyboard Layer 0 (Background)
//Storyboard Layer 1 (Fail)
//Storyboard Layer 2 (Pass)
//Storyboard Layer 3 (Foreground)
//Storyboard Sound Samples
//Background Colour Transformations
3,100,163,162,255

[TimingPoints]
3334,444.444444444444,4,2,0,35,1,0
17556,-100,4,2,1,45,0,0
17667,-100,4,2,0,45,0,0
24667,-100,4,2,1,45,0,0
24778,-100,4,2,0,45,0,0
28222,-100,4,2,1,45,0,0
28333,-100,4,2,0,5,0,0
31778,-100,4,1,1,55,0,1
31889,-100,4,1,1,55,0,0
46000,-100,4,1,1,55,0,1
46111,-100,4,1,1,55,0,0
60222,-100,4,2,0,5,0,0
66222,-100,4,1,1,45,0,0
74445,-100,4,2,1,45,0,0
74556,-100,4,1,1,45,0,0
88667,-100,4,2,1,45,0,0
88778,-100,4,1,1,35,0,0
92222,-100,4,2,1,45,0,0
95778,-100,4,1,1,55,0,1
95889,-100,4,1,1,55,0,0
110000,-100,4,1,1,55,0,1
110111,-100,4,1,1,55,0,0
124222,-100,4,1,0,65,0,1
134000,-100,4,1,1,65,0,1
134111,-100,4,1,0,65,0,1
135778,-100,4,1,1,65,0,1
135889,-100,4,1,0,65,0,1
137556,-100,4,1,1,65,0,0
138445,-100,4,1,0,65,0,1
148222,-100,4,1,1,65,0,1
148333,-100,4,1,0,65,0,1
150000,-100,4,1,1,65,0,1
150111,-100,4,1,0,65,0,1
151778,-100,4,1,1,65,0,0
151889,-100,4,1,0,65,0,0
152667,-100,4,1,0,65,0,1
152778,-100,4,1,0,65,0,0

[Colours]
Combo1 : 80,111,169
Combo2 : 230,224,206
Combo3 : 154,186,245

[HitObjects]
88,316,3333,6,0,B|176:320|228:248,1,160,4|0,0:0|0:0,0:0:0
160,140,4222,1,8,0:0:0
284,104,4667,2,0,B|456:72,1,160,0|0,0:0|0:0,0:0:0
500,188,5556,1,0,0:0:0
495,194,5778,1,0,0:0:0
490,200,6000,1,8,0:0:0
468,328,6445,1,0,0:0:0
340,340,6889,6,0,B|264:308|176:336,1,160,0|0,0:0|0:0,0:0:0
68,276,7778,1,8,0:0:0
64,148,8222,1,0,0:0:0
164,68,8667,1,0,0:0:0
204,188,9111,2,0,B|292:188|380:232,1,160,0|8,0:0|0:0,0:0:0
420,240,9778,5,0,0:0:0
420,240,10222,1,0,0:0:0
440,180,10445,2,0,B|396:104|444:20,1,160,4|0,0:0|0:0,0:0:0
320,72,11334,1,8,0:0:0
276,120,11556,1,0,0:0:0
220,152,11778,2,0,B|172:168|124:152,1,80,0|0,0:0|0:0,0:0:0
88,192,12222,5,0,0:0:0
88,192,12445,1,0,0:0:0
124,244,12667,2,0,B|204:264|284:220,1,160,0|8,0:0|0:0,0:0:0
208,80,13556,1,0,0:0:0
364,80,14000,5,0,0:0:0
372,80,14222,1,0,0:0:0
380,80,14445,1,0,0:0:0
388,80,14667,1,0,0:0:0
396,80,14889,2,0,B|440:80|464:124,2,80,8|0|0,0:0|0:0|0:0,0:0:0
392,160,15556,1,0,0:0:0
312,176,15778,6,0,B|284:212|224:204|200:184,2,120
252,120,16667,1,8,0:0:0
176,100,16889,2,0,B|48:112,1,120,0|0,0:0|0:0,0:0:0
32,228,17556,6,0,B|120:220,1,80,4|0,0:0|0:0,0:0:0
180,176,18000,1,0,0:0:0
240,324,18445,1,8,0:0:0
332,192,18889,1,0,0:0:0
364,264,19111,1,0,0:0:0
408,200,19333,6,0,B|448:112|420:36,1,160,0|0,0:0|0:0,0:0:0
256,32,20222,1,8,0:0:0
184,340,21111,5,2,0:0:0
132,280,21333,1,0,0:0:0
52,264,21556,1,0,0:0:0
76,340,21778,1,0,0:0:0
132,280,22000,2,0,B|168:256|184:216,1,80,8|0,0:0|0:0,0:0:0
224,152,22445,2,0,B|232:104|264:76,1,80,0|0,0:0|0:0,0:0:0
336,68,22889,6,0,B|420:80|480:140,1,160,0|0,0:0|0:0,0:0:0
424,196,23556,1,0,0:0:0
460,268,23778,2,0,B|428:296|428:340,1,80,8|0,0:0|0:0,0:0:0
352,320,24222,6,0,B|260:312|192:336,1,160,0|4,0:0|0:0,0:0:0
116,320,24889,1,0,0:0:0
76,252,25111,1,0,0:0:0
112,180,25333,1,0,0:0:0
184,144,25556,2,0,B|244:148|296:104|308:52,2,160,8|0|0,0:0|0:0|0:0,0:0:0
136,80,26667,1,0,0:0:0
216,64,26889,2,0,B|272:88|284:136|276:180|248:200,1,160,0|8,0:0|0:0,0:0:0
192,244,27556,1,0,0:0:0
196,324,27778,1,0,0:0:0
348,276,28222,5,4,0:0:0
256,192,29333,12,0,31333,0:0:0
160,340,31778,6,0,B|168:260|96:188,1,160,4|0,0:0|0:0,0:0:0
156,136,32445,1,0,0:0:0
224,92,32667,1,8,0:0:0
304,88,32889,1,0,0:0:0
376,120,33111,2,0,B|412:144|464:144,1,80,0|0,0:0|0:0,0:0:0
436,224,33556,6,0,B|340:240,1,80,0|0,0:0|0:0,0:0:0
357,317,34000,2,0,B|273:333,1,80,0|0,0:0|0:0,0:0:0
224,272,34445,2,0,P|220:176|96:176,1,240,8|0,0:0|0:0,0:0:0
156,228,35333,6,0,P|176:152|124:100,1,160
168,32,36000,1,0,0:0:0
248,44,36222,2,0,P|300:100|388:84,1,160,8|0,0:0|0:0,0:0:0
436,36,36889,1,0,0:0:0
356,20,37111,6,0,P|300:80|328:160,1,160
380,200,37778,1,0,0:0:0
308,236,38000,1,8,0:0:0
228,240,38222,1,0,0:0:0
148,256,38445,2,0,B|100:260|60:292,1,80,0|0,0:0|0:0,0:0:0
32,216,38889,6,0,B|72:136|24:52,1,160,4|0,0:0|0:0,0:0:0
100,24,39556,1,0,0:0:0
179,23,39778,2,0,B|180:68|144:92,1,80,8|0,0:0|0:0,0:0:0
196,152,40222,2,0,B|276:156,1,80,0|0,0:0|0:0,0:0:0
288,76,40667,6,0,B|380:84|436:16,1,160,0|0,0:0|0:0,0:0:0
492,72,41333,1,0,0:0:0
436,128,41556,2,0,B|412:208|460:288,1,160,8|0,0:0|0:0,0:0:0
392,328,42222,1,0,0:0:0
328,280,42445,6,0,B|224:268,1,80,4|0,0:0|0:0,0:0:0
144,336,42889,2,0,B|240:348,1,80,0|0,0:0|0:0,0:0:0
144,256,43333,2,0,B|64:248,1,80,8|0,0:0|0:0,0:0:0
204,196,43778,1,0,0:0:0
204,196,44000,1,0,0:0:0
240,124,44222,6,0,B|332:124|356:32,1,160,0|0,0:0|0:0,0:0:0
436,44,44889,1,0,0:0:0
448,124,45111,2,0,B|440:212|488:284,1,160,8|0,0:0|0:0,0:0:0
436,344,45778,1,0,0:0:0
356,332,46000,6,0,B|320:252|316:176,1,160,4|0,0:0|0:0,0:0:0
372,120,46667,1,0,0:0:0
304,76,46889,2,0,B|228:112|132:68,1,160,8|0,0:0|0:0,0:0:0
92,132,47556,1,0,0:0:0
108,212,47778,5,0,0:0:0
148,280,48000,1,0,0:0:0
216,320,48222,1,0,0:0:0
296,320,48445,1,0,0:0:0
368,284,48667,1,8,0:0:0
232,88,49111,1,0,0:0:0
476,52,49556,6,0,B|440:216,1,160,4|0,0:0|0:0,0:0:0
388,268,50222,1,0,0:0:0
344,200,50445,2,0,B|360:120,1,80,8|0,0:0|0:0,0:0:0
284,96,50889,2,0,B|275:53|226:36,1,80,0|0,0:0|0:0,0:0:0
206,115,51333,6,0,B|160:124|144:167,1,80,0|0,0:0|0:0,0:0:0
208,216,51778,2,0,P|216:252|244:288,1,80,0|0,0:0|0:0,0:0:0
296,224,52222,2,0,P|322:258|330:294,1,80,8|0,0:0|0:0,0:0:0
408,316,52667,1,0,0:0:0
440,240,52889,1,0,0:0:0
472,168,53111,6,0,B|444:132|448:80,1,80,0|0,0:0|0:0,0:0:0
420,16,53556,1,0,0:0:0
420,16,53778,1,0,0:0:0
344,44,54000,2,0,B|264:72|180:48,1,160,8|0,0:0|0:0,0:0:0
160,124,54667,5,0,0:0:0
116,192,54889,1,0,0:0:0
136,268,55111,1,0,0:0:0
204,308,55333,1,0,0:0:0
268,260,55556,1,0,0:0:0
296,184,55778,6,0,B|288:140|252:120|252:120|240:72|260:32,1,160,8|0,0:0|0:0,0:0:0
324,84,56445,2,0,B|360:116|368:168,1,80,0|4,0:0|0:0,0:0:0
432,196,56889,1,0,0:0:0
392,264,57111,2,0,B|308:284|240:344,1,160,0|8,0:0|0:0,0:0:0
172,352,57778,1,0,0:0:0
188,272,58000,6,0,B|248:216|336:192,2,160,0|0|0,0:0|0:0|0:0,0:0:0
108,276,59111,1,0,0:0:0
44,228,59333,2,0,B|44:184|16:156,1,80,8|0,0:0|0:0,0:0:0
56,88,59778,2,0,B|144:104,1,80,0|0,0:0|0:0,0:0:0
176,172,60222,5,0,0:0:0
344,236,66222,5,0,0:0:0
312,164,66445,2,0,B|268:176|224:144,1,80,8|0,0:0|0:0,0:0:0
168,104,66889,1,0,0:0:0
156,184,67111,1,0,0:0:0
156,184,67333,6,0,B|136:272|44:292,1,160,4|0,0:0|0:0,0:0:0
56,372,68000,1,0,0:0:0
124,332,68222,2,0,P|132:272|48:208,1,160,8|0,0:0|0:0,0:0:0
48,128,68889,1,0,0:0:0
0,64,69111,6,0,P|72:52|124:112,1,160
152,188,69778,1,0,0:0:0
216,232,70000,1,8,0:0:0
292,216,70222,1,0,0:0:0
372,204,70445,1,0,0:0:0
388,124,70667,1,0,0:0:0
408,48,70889,6,0,P|464:100|440:184,1,160
372,204,71556,1,0,0:0:0
292,216,71778,2,0,P|308:148|392:124,1,160,8|0,0:0|0:0,0:0:0
408,48,72445,1,0,0:0:0
332,44,72667,6,0,B|248:64|220:152,1,160,0|0,0:0|0:0,0:0:0
160,100,73333,1,0,0:0:0
108,164,73556,1,8,0:0:0
144,240,73778,6,0,P|256:336|368:224,2,320
200,184,75778,1,0,0:0:0
216,104,76000,1,0,0:0:0
296,104,76222,5,0,0:0:0
356,156,76445,1,0,0:0:0
364,236,76667,1,0,0:0:0
440,260,76889,1,0,0:0:0
412,332,77111,2,0,B|332:324|244:368,1,160,8|0,0:0|0:0,0:0:0
180,340,77778,1,0,0:0:0
104,320,78000,6,0,B|84:228|20:180,1,160,0|0,0:0|0:0,0:0:0
20,104,78667,1,0,0:0:0
96,124,78889,2,0,B|132:152|152:200,1,80,8|0,0:0|0:0,0:0:0
208,236,79333,1,0,0:0:0
288,240,79556,1,0,0:0:0
364,216,79778,6,0,B|400:192|408:148,1,80
328,148,80222,2,0,B|328:104|376:80,1,80
312,28,80667,1,8,0:0:0
232,16,80889,1,0,0:0:0
168,64,81111,1,0,0:0:0
220,128,81333,1,0,0:0:0
224,208,81556,6,0,B|136:208|72:256,2,160,4|0|8,0:0|0:0|0:0,0:0:0
220,128,82667,1,0,0:0:0
288,84,82889,1,0,0:0:0
340,144,83111,1,0,0:0:0
348,224,83333,6,0,B|340:264|312:304,1,80,0|0,0:0|0:0,0:0:0
248,340,83778,1,0,0:0:0
168,348,84000,1,0,0:0:0
92,324,84222,2,0,B|52:300|40:260,1,80,8|0,0:0|0:0,0:0:0
20,188,84667,1,0,0:0:0
56,116,84889,1,0,0:0:0
136,108,85111,6,0,B|156:192|240:224,1,160,0|0,0:0|0:0,0:0:0
304,180,85778,1,0,0:0:0
380,152,86000,2,0,B|460:184|496:260,1,160,8|0,0:0|0:0,0:0:0
464,332,86667,1,0,0:0:0
388,312,86889,5,0,0:0:0
368,236,87111,1,0,0:0:0
380,152,87333,2,0,B|356:76|272:36,1,160,0|8,0:0|0:0,0:0:0
200,64,88000,1,0,0:0:0
136,108,88222,2,0,B|156:192|240:224,1,160,0|0,0:0|0:0,0:0:0
304,180,88889,5,0,0:0:0
364,236,89111,2,0,B|348:324|252:336,1,160,0|8,0:0|0:0,0:0:0
180,304,89778,1,0,0:0:0
100,316,90000,2,0,B|28:260,1,80,0|0,0:0|0:0,0:0:0
20,188,90445,5,0,0:0:0
96,216,90667,1,0,0:0:0
176,224,90889,1,0,0:0:0
252,200,91111,1,0,0:0:0
320,160,91333,1,8,0:0:0
356,88,91556,1,0,0:0:0
408,28,91778,2,0,B|448:48|496:36,1,80
488,120,92222,5,2,0:0:0
416,232,95778,6,0,B|336:256|300:344,1,160,4|0,0:0|0:0,0:0:0
228,364,96445,1,0,0:0:0
244,284,96667,2,0,B|256:248|296:216|296:216,1,80,8|0,0:0|0:0,0:0:0
276,140,97111,2,0,B|328:132|356:172|356:172|384:144|440:144,1,160,0|0,0:0|0:0,0:0:0
416,232,97778,5,0,0:0:0
419,145,98000,2,0,B|431:61|503:13,1,160,0|8,0:0|0:0,0:0:0
184,40,99333,6,0,B|248:104|232:188,1,160,0|0,0:0|0:0,0:0:0
252,264,100000,1,0,0:0:0
300,328,100222,2,0,B|332:356|376:348,1,80,8|0,0:0|0:0,0:0:0
448,320,100667,1,0,0:0:0
484,248,100889,1,0,0:0:0
472,168,101111,6,0,P|424:132|428:32,1,160
344,28,101778,1,0,0:0:0
364,104,102000,2,0,P|444:120|504:72,1,160,8|0,0:0|0:0,0:0:0
488,212,102667,1,0,0:0:0
396,192,102889,6,0,B|308:192|252:256,1,160,0|0,0:0|0:0,0:0:0
188,304,103556,1,0,0:0:0
108,316,103778,1,8,0:0:0
112,156,104222,2,0,B|196:120|216:32,2,160,0|0|0,0:0|0:0|0:0,0:0:0
260,212,105556,6,0,P|296:236|320:304|312:360,1,160,8|0,0:0|0:0,0:0:0
448,256,106445,2,0,B|444:172|512:112,2,160,0|0|8,0:0|0:0|0:0,0:0:0
352,128,107778,1,0,0:0:0
288,176,108000,1,0,0:0:0
208,180,108222,5,0,0:0:0
180,256,108445,1,0,0:0:0
232,316,108667,2,0,B|320:340|384:292,1,160,0|8,0:0|0:0,0:0:0
464,292,109333,2,0,P|496:368,2,80,0|0|0,0:0|0:0|0:0,0:0:0
448,208,110000,6,0,P|396:148|424:72,1,160
496,52,110667,1,0,0:0:0
472,128,110889,2,0,P|400:148|340:88,1,160,8|0,0:0|0:0,0:0:0
268,60,111556,1,0,0:0:0
216,120,111778,6,0,B|128:256,1,160,0|0,0:0|0:0,0:0:0
120,336,112445,1,0,0:0:0
200,348,112667,2,0,B|288:208,1,160,8|0,0:0|0:0,0:0:0
380,84,113556,6,0,B|360:164|432:228,1,160,0|0,0:0|0:0,0:0:0
496,276,114222,1,0,0:0:0
432,324,114445,2,0,B|344:300,1,80,8|0,0:0|0:0,0:0:0
284,336,114889,1,0,0:0:0
224,284,115111,1,0,0:0:0
148,260,115333,6,0,B|104:244|72:264,1,80,0|0,0:0|0:0,0:0:0
28,196,115778,2,0,B|48:112,1,80,0|0,0:0|0:0,0:0:0
116,80,116222,1,8,0:0:0
192,112,116445,1,0,0:0:0
256,64,116667,1,0,0:0:0
320,112,116889,1,0,0:0:0
392,76,117111,6,0,B|484:88|528:8,2,160,0|0|8,0:0|0:0|0:0,0:0:0
460,228,118445,2,0,B|416:248|416:292,1,80,0|0,0:0|0:0,0:0:0
340,260,118889,6,0,B|348:216|384:184,1,80,0|0,0:0|0:0,0:0:0
332,124,119333,1,0,0:0:0
272,176,119556,1,0,0:0:0
248,252,119778,2,0,B|248:304|204:360|136:356,1,160,8|0,0:0|0:0,0:0:0
68,340,120445,1,0,0:0:0
36,268,120667,6,0,B|36:216|80:160|136:163,1,160,0|0,0:0|0:0,0:0:0
172,236,121333,1,0,0:0:0
224,172,121556,1,8,0:0:0
212,92,121778,1,0,0:0:0
268,36,122000,2,0,B|300:64|348:68,1,80,0|0,0:0|0:0,0:0:0
412,104,122445,6,0,B|428:188,1,80,0|0,0:0|0:0,0:0:0
432,264,122889,1,0,0:0:0
380,324,123111,1,0,0:0:0
336,260,123333,2,0,B|300:92,1,160,8|0,0:0|0:0,0:0:0
208,328,124222,6,0,P|172:260|88:252,1,160
44,312,124889,1,0,0:0:0
124,328,125111,2,0,P|176:268|156:192,1,160,8|0,0:0|0:0,0:0:0
100,140,125778,1,0,0:0:0
180,124,126000,6,0,B|220:140|244:188,1,80,0|0,0:0|0:0,0:0:0
256,256,126445,2,0,P|312:208|300:124,1,160,0|8,0:0|0:0,0:0:0
320,52,127111,1,0,0:0:0
392,92,127333,1,0,0:0:0
464,128,127556,1,0,0:0:0
428,200,127778,6,0,P|352:272|456:356,1,240
436,280,128667,2,0,P|372:300|348:384,1,160,8|0,0:0|0:0,0:0:0
272,360,129333,1,0,0:0:0
196,356,129556,6,0,B|28:328,1,160,0|0,0:0|0:0,0:0:0
52,252,130222,1,0,0:0:0
136,244,130445,1,8,0:0:0
204,200,130667,1,0,0:0:0
248,132,130889,1,0,0:0:0
256,52,131111,1,0,0:0:0
336,32,131333,6,0,B|504:60,1,160,0|0,0:0|0:0,0:0:0
476,136,132000,1,0,0:0:0
424,196,132222,1,8,0:0:0
412,276,132445,1,0,0:0:0
420,356,132667,6,0,B|256:324,1,160,0|0,0:0|0:0,0:0:0
212,264,133333,1,0,0:0:0
292,252,133556,2,0,P|280:88,1,160
344,44,134222,1,0,0:0:0
352,124,134445,6,0,P|304:168|216:152,2,160
432,144,135556,1,0,0:0:0
488,204,135778,2,0,B|452:372,1,160,8|0,0:0|0:0,0:0:0
296,340,136667,5,0,0:0:0
228,296,136889,1,0,0:0:0
148,292,137111,1,0,0:0:0
76,324,137333,1,0,0:0:0
28,260,137556,2,0,B|8:176,1,80,8|0,0:0|0:0,0:0:0
80,148,138000,2,0,B|112:180|156:172,1,80,0|0,0:0|0:0,0:0:0
136,96,138445,5,4,0:0:0
212,124,138667,1,0,0:0:0
292,140,138889,2,0,B|336:140|364:112,1,80,0|0,0:0|0:0,0:0:0
440,88,139333,2,0,B|500:140,1,80,8|0,0:0|0:0,0:0:0
464,212,139778,1,0,0:0:0
504,284,140000,1,0,0:0:0
460,348,140222,6,0,B|416:328|372:332,1,80,0|0,0:0|0:0,0:0:0
304,340,140667,2,0,B|216:352|144:316,2,160,0|8|0,0:0|0:0|0:0,0:0:0
344,272,141778,1,0,0:0:0
272,240,142000,6,0,B|280:204|328:184|360:192|360:192|368:136|368:136|416:128|428:76,1,240,0|0,0:0|0:0,0:0:0
368,28,142889,2,0,B|356:64|356:64|312:72|296:112|296:112|252:128,1,160,8|0,0:0|0:0,0:0:0
172,96,143556,1,0,0:0:0
208,192,143778,5,0,0:0:0
120,192,144000,1,0,0:0:0
76,268,144222,1,0,0:0:0
120,344,144445,1,0,0:0:0
208,344,144667,1,8,0:0:0
252,268,144889,1,0,0:0:0
208,192,145111,2,0,B|236:160|280:164,1,80,0|0,0:0|0:0,0:0:0
292,84,145556,5,0,0:0:0
292,84,145778,1,0,0:0:0
368,108,146000,2,0,B|380:64|356:32,2,80,0|0|8,0:0|0:0|0:0,0:0:0
360,188,146667,1,0,0:0:0
404,256,146889,2,0,B|440:284|484:268,1,80,0|0,0:0|0:0,0:0:0
452,196,147334,6,0,B|464:112,1,80,0|0,0:0|0:0,0:0:0
424,48,147778,1,0,0:0:0
368,108,148000,1,0,0:0:0
296,148,148222,2,0,B|252:164|208:152,2,80,8|0|0,0:0|0:0|0:0,0:0:0
348,208,148889,1,0,0:0:0
388,276,149111,6,0,B|416:308|424:356,1,80,0|0,0:0|0:0,0:0:0
500,328,149556,1,0,0:0:0
488,248,149778,1,0,0:0:0
428,196,150000,1,8,0:0:0
348,208,150222,1,0,0:0:0
296,268,150445,1,0,0:0:0
304,348,150667,1,0,0:0:0
232,316,150889,6,0,B|152:300|68:320,1,160,0|0,0:0|0:0,0:0:0
36,248,151556,1,0,0:0:0
116,232,151778,2,0,B|168:228|216:232|216:232|224:204|264:184,1,160,8|0,0:0|0:0,0:0:0
288,260,152445,1,0,0:0:0
336,196,152667,5,4,0:0:0
