osu file format v7

[General]
AudioFilename: In Front Of Me.mp3
AudioLeadIn: 1000
PreviewTime: 198358
Countdown: 0
SampleSet: Normal
StackLeniency: 0.7
Mode: 0
LetterboxInBreaks: 1

[Editor]
Bookmarks: 66766
DistanceSpacing: 1
BeatDivisor: 4
GridSize: 16

[Metadata]
Title:In Front Of Me
Artist:Infected Mushroom
Creator:dlguiga
Version:Normal
Source:
Tags:Vicious Delicious Real1

[Difficulty]
HPDrainRate:6
CircleSize:4
OverallDifficulty:5
SliderMultiplier:1.6
SliderTickRate:1

[Events]
//Background and Video events
Video,-10000,"in_front_of_me.avi"
0,0,"Infected_Mushroom_-_Vicious_Delicious.jpg"
//Break Periods
2,93869,105711
2,120352,132193
2,160076,171918
2,179111,185159
//Storyboard Layer 0 (Background)
//Storyboard Layer 1 (Fail)
//Storyboard Layer 2 (Pass)
//Storyboard Layer 3 (Foreground)
//Storyboard Sound Samples
//Background Colour Transformations
3,100,163,162,255

[TimingPoints]
980.199200913243,827.586206896552,4,1,0,60,1,0
109778,-100,4,1,0,60,0,0
199591,-100,4,1,0,60,0,1
212833,-100,4,1,0,60,0,0
226074,-100,4,1,0,60,0,1
239532,-100,4,1,0,60,0,0

[Colours]
Combo1 : 240,5,5
Combo2 : 255,255,255
Combo3 : 5,5,240

[HitObjects]
160,96,980,1,0
208,160,1393,2,2,B|304:160,1,80
384,288,2635,1,0
327,231,3049,1,0
272,176,3462,1,8
142,273,4290,5,0
224,272,4704,1,0
304,272,5118,1,8
304,112,5945,2,2,B|160:112|160:112|128:112,1,160,2|10
304,112,7600,5,0
224,112,8014,1,0
144,112,8428,1,8
144,272,9256,2,2,B|336:272,1,160,2|10
384,128,10911,5,0
304,128,11325,1,0
224,128,11738,2,2,B|224:284|224:300,2,160,2|10|2
80,48,14221,5,4
136,104,14635,1,0
192,160,15049,1,8
352,256,15876,5,0
295,199,16290,1,0
238,142,16704,1,4
176,288,17531,5,0
232,231,17945,1,0
288,174,18359,1,8
344,117,18773,2,6,B|232:37|120:165,1,240
291,152,20842,6,2,B|291:314,1,160,10|2
234,255,22083,1,0
177,198,22497,1,0
337,198,23325,1,8
223,84,24152,5,0
223,164,24566,1,0
223,244,24980,1,8
382,244,25807,2,2,B|382:68,1,160,2|2
304,240,27462,5,4
304,159,27876,1,0
304,78,28290,1,8
464,78,29118,1,0
464,157,29531,1,0
464,240,29945,1,8
303,240,30773,5,0
246,183,31187,1,0
189,126,31600,1,8
132,69,32014,1,0
75,125,32428,1,0
75,165,32635,1,0
75,205,32842,1,0
75,245,33049,1,0
115,245,33256,6,2,B|403:101|131:341,1,320,10|10
256,320,35325,1,0
335,320,35738,1,0
415,320,36152,1,0
416,240,36566,1,8
160,288,37393,5,4
160,256,37600,1,0
160,224,37807,1,0
160,192,38014,1,0
160,160,38221,1,8
160,80,38635,2,0,L|256:80|256:224|336:224,1,320
336,143,40704,5,4
416,143,41118,1,0
495,143,41531,1,0
438,199,41945,1,0
357,199,42359,1,8
276,199,42773,2,2,B|276:279,2,40
195,199,43600,1,0
195,118,44014,5,0
195,37,44428,1,8
114,37,44842,2,2,B|18:37,2,80
114,117,46083,1,0
114,197,46497,1,8
194,197,46911,1,0
272,160,47325,5,0
272,128,47531,1,0
272,96,47738,1,0
272,64,47945,1,0
272,32,48152,1,8
352,32,48566,2,2,B|464:144|352:240,1,240,2|2
192,320,50635,5,0
192,288,50842,1,0
192,256,51049,1,0
192,224,51256,1,0
192,192,51462,1,8
192,112,51876,1,0
272,112,52290,1,4
80,128,53118,5,0
112,160,53325,1,0
83,188,53531,1,0
111,216,53738,1,0
82,244,53945,1,8
110,272,54152,1,0
190,272,54566,2,2,B|302:208|272:224,1,80
304,176,55393,2,0,B|304:64,1,80
424,96,56428,1,8
382,241,57256,5,0
353,212,57462,1,0
324,183,57669,1,0
295,154,57876,1,0
266,125,58083,1,8
128,32,58911,2,2,B|-32:160|128:304,1,320
203,300,60980,5,0
203,259,61187,1,0
203,219,61393,1,0
272,259,61807,1,8
336,304,62221,2,2,B|496:176|336:32,1,320
260,35,64290,5,0
219,35,64497,1,0
178,35,64704,1,0
137,35,64911,1,0
96,35,65118,1,8
96,75,65325,2,2,B|96:139,5,40
256,192,67187,5,0
256,192,67393,12,0,70497
256,208,71325,5,0
199,151,71738,2,2,B|87:151,2,80
279,151,72980,1,0
279,230,73393,1,0
198,230,73807,1,4
256,192,74014,12,0,77118
352,176,78152,6,0,B|288:176,1,40
312,216,78566,2,0,B|237:216,1,40
231,216,78980,2,0,B|168:216,1,40
162,244,79393,2,0,B|114:244,1,40
122,83,80428,6,0,B|298:83,1,160
442,83,82083,1,0
385,139,82497,1,0
328,195,82911,1,0
271,251,83325,1,0
214,307,83738,2,2,B|-58:195|214:19,1,400
258,83,86221,5,0
314,139,86635,1,0
370,195,87049,1,4
256,192,87256,12,0,88704
64,192,89531,5,0
144,192,89945,1,0
224,192,90359,1,0
304,192,90773,1,0
384,192,91187,1,4
256,192,91600,12,0,92842
256,192,93669,5,4
256,192,106911,5,0
96,192,107738,2,2,B|217:33|368:192,1,320
208,224,110221,5,0
208,192,110428,1,0
208,160,110635,1,0
208,128,110842,1,0
208,96,111049,1,8
288,96,111462,2,2,B|480:96,1,160,2|2
448,176,112704,5,0
391,232,113118,1,0
362,203,113325,1,0
333,174,113531,1,0
304,145,113738,1,8
275,116,113945,1,0
194,116,114359,5,8
194,156,114566,2,2,B|274:156,1,40
234,236,115187,2,2,B|154:236,1,40
73,236,116014,1,0
73,195,116221,1,0
73,154,116428,1,8
153,154,116842,6,2,B|288:48,1,160
318,55,117876,1,0
358,55,118083,1,0
358,135,118497,1,0
317,135,118704,1,0
276,135,118911,1,0
235,135,119118,1,0
194,135,119325,1,8
256,272,120152,5,4
256,192,133393,5,0
256,272,133807,2,2,B|384:272,2,120
96,176,135876,5,0
176,176,136290,1,0
256,176,136704,1,8
336,176,137118,2,0,L|336:288,1,80
256,256,137945,2,0,L|176:256,1,80
48,272,139187,5,0
87,272,139393,1,0
127,272,139600,1,0
167,272,139807,1,0
207,272,140014,1,8
207,191,140428,2,2,B|319:191,3,80
315,162,141876,1,0
240,64,142290,5,0
240,112,142497,1,0
240,160,142704,1,0
240,208,142911,1,0
240,248,143118,2,0,L|160:328|48:232|144:120,1,400,8|0
256,32,145807,5,0
224,64,146014,1,0
192,96,146221,1,0
224,128,146428,1,0
252,156,146635,1,0
144,272,147462,5,0
144,192,147876,1,0
192,192,148083,2,0,B|288:192,2,80
144,192,149118,5,0
144,144,149325,1,0
228,59,149945,1,0
268,59,150152,1,0
308,59,150359,1,4
308,139,150773,5,8
308,219,151187,2,2,B|138:219,1,160
67,219,152428,5,0
123,162,152842,1,0
179,105,153256,1,0
258,105,153669,1,0
338,105,154083,2,2,B|450:105,2,80
338,265,155738,1,0
194,67,156566,5,0
353,67,157393,1,0
208,128,158221,1,0
236,156,158428,1,0
264,184,158635,1,0
292,212,158842,1,0
320,240,159049,1,8
320,80,159876,5,4
80,64,173118,5,0
160,64,173531,1,0
240,64,173945,1,0
126,177,174773,1,0
208,176,175187,1,0
288,176,175600,1,0
128,96,176428,6,0,L|304:96,1,160
288,176,177669,1,0
207,176,178083,1,0
126,176,178497,1,0
126,256,178911,1,0
112,144,186359,5,0
192,144,186773,1,0
272,144,187187,1,0
351,144,187600,2,0,L|351:256|255:320,1,200
240,304,188842,1,8
240,223,189256,1,0
240,143,189669,5,0
272,144,189876,1,0
304,144,190083,1,0
336,144,190290,1,0
368,144,190497,1,8
368,224,190911,2,0,L|368:304,3,80,0|8|0|8
64,256,192980,5,0
144,256,193393,1,0
224,256,193807,1,8
304,256,194221,2,0,L|304:128|240:48,1,200
219,71,195462,1,8
138,71,195876,1,0
81,127,196290,5,0
109,155,196497,1,0
137,183,196704,1,0
177,183,196911,1,0
217,183,197118,1,8
160,112,198773,5,0
192,112,198980,1,0
224,112,199187,1,0
256,112,199393,1,0
288,112,199600,1,8
288,272,200428,1,8
288,144,201256,6,2,B|400:144,4,80
192,16,203738,5,8
78,129,204566,1,0
78,288,205393,1,8
238,288,206221,5,0
400,256,207049,1,8
400,96,207876,1,0
239,96,208704,1,8
240,256,209531,1,0
400,256,210359,2,2,B|400:80,1,160,10|2
400,48,212014,5,8
428,76,212221,1,0
399,104,212428,1,0
427,132,212635,1,0
398,160,212842,1,4
238,160,213669,5,8
77,160,214497,1,0
77,320,215325,1,8
236,320,216152,5,0
207,291,216359,1,0
235,262,216566,1,0
206,233,216773,1,0
240,208,216980,1,8
234,44,217807,5,0
394,44,218635,1,8
394,203,219462,1,0
256,32,220290,5,8
224,64,220497,1,0
256,96,220704,1,0
224,128,220911,1,8
192,160,221118,2,0,B|384:160,1,160,0|8
256,320,222773,5,0
256,160,223600,1,8
96,160,224428,1,0
256,32,225256,5,8
227,60,225462,1,0
255,88,225669,1,0
226,116,225876,1,0
254,144,226083,1,8
144,320,226911,5,0
224,320,227325,1,8
304,320,227738,1,0
144,80,228566,5,0
224,80,228980,1,8
304,80,229393,1,0
190,193,230221,1,0
29,193,231049,1,0
190,193,231876,1,0
112,64,232704,5,0
140,92,232911,1,0
168,120,233118,1,0
196,148,233325,1,0
224,176,233531,1,8
110,289,234359,5,0
192,288,234773,1,8
272,288,235187,1,0
272,128,236014,5,0
112,128,236842,1,0
112,208,237256,1,0
192,208,237669,1,0
256,192,239325,5,4
