osu file format v7

[General]
AudioFilename: In Front Of Me.mp3
AudioLeadIn: 1000
PreviewTime: 198358
Countdown: 0
SampleSet: Soft
StackLeniency: 0.7
Mode: 0
LetterboxInBreaks: 1

[Editor]
Bookmarks: 66766
DistanceSpacing: 1
BeatDivisor: 4
GridSize: 8

[Metadata]
Title:In Front Of Me
Artist:Infected Mushroom
Creator:dlguiga
Version:Infected Real1
Source:
Tags:Vicious Delicious Real1

[Difficulty]
HPDrainRate:7
CircleSize:4
OverallDifficulty:7
SliderMultiplier:2.2
SliderTickRate:1

[Events]
//Background and Video events
Video,-10000,"in_front_of_me.avi"
0,0,"Infected_Mushroom_-_Vicious_Delicious.jpg"
//Break Periods
2,35111,39183
2,91179,106011
2,123696,125252
2,183868,197873
2,210351,211114
//Storyboard Layer 0 (Background)
//Storyboard Layer 1 (Fail)
//Storyboard Layer 2 (Pass)
//Storyboard Layer 3 (Foreground)
//Storyboard Sound Samples
//Background Colour Transformations
3,100,163,162,255

[TimingPoints]
980,827.586206896552,4,1,0,35,1,0
39248,-100,4,1,0,35,0,0
50214,-100,4,1,0,41,0,0
66971,-100,4,2,0,58,0,0
106488,-100,4,1,0,46,0,0
122419,-100,4,2,0,53,0,0
129143,-100,4,2,0,0,0,0
129764,-100,4,2,0,41,0,0
133178,-100,4,1,0,53,0,0
159660,-100,4,2,0,59,0,0
199591,-100,4,1,0,66,0,1
217084,-100,4,1,0,35,0,0
226074,-100,4,1,0,35,0,1
239532,-100,4,1,0,35,0,0

[Colours]
Combo1 : 240,5,5
Combo2 : 255,255,255
Combo3 : 5,5,240

[HitObjects]
256,192,979,2,0,B|256:120,4,55,0|0|0|0|8
256,80,2221,6,0,B|144:80,1,110
120,192,3048,1,0
168,288,3462,1,8
272,256,3876,2,2,B|384:224,1,110,0|0
432,56,4704,6,0,B|456:112|432:168,1,110,0|8
216,192,5945,1,0
104,192,6359,1,0
160,96,6773,5,8
216,96,6979,1,0
272,96,7186,2,2,B|392:96,1,110,0|0
120,304,8014,6,0,B|232:280,1,110,0|8
256,176,8842,1,0
256,64,9255,1,0
312,64,9462,1,0
368,64,9669,2,2,B|392:112|368:184,1,110,0|8
368,64,10497,2,2,B|424:43|480:64,1,110,0|0
64,80,11324,6,0,B|72:136|128:192,1,110,0|8
176,88,12152,1,0
232,184,12566,1,0
408,312,13393,5,0
408,312,13600,1,0
408,312,13807,2,2,B|312:232,1,110,0|4
280,208,14428,1,0
200,160,14635,5,8
200,160,14842,1,8
200,160,15048,1,8
280,112,15462,5,8
280,112,15669,1,8
280,112,15876,1,8
128,240,16911,6,2,B|192:336|280:344,1,165,0|0
344,272,17945,1,8
296,168,18359,1,0
200,104,18773,5,8
200,104,18979,1,8
200,104,19186,1,8
296,56,19600,1,8
336,88,19807,1,8
360,136,20014,1,4
360,192,20221,6,2,B|344:288|184:272,1,165,0|0
184,264,21048,1,0
152,216,21255,1,0
144,104,21669,5,8
256,96,22083,1,0
256,96,22290,1,0
256,96,22497,1,8
256,208,22911,1,0
256,152,23117,1,0
256,96,23324,1,8
368,96,23738,1,0
368,152,23945,1,0
368,208,24152,1,8
192,320,24566,5,0
248,320,24773,1,0
304,320,24979,1,8
304,208,25393,1,0
248,208,25600,1,0
192,208,25807,1,8
48,40,26635,5,0
48,96,26842,1,0
48,40,27048,2,2,B|168:40,1,110,0|4
216,40,27669,1,0
304,112,27876,5,8
304,112,28083,1,8
304,112,28290,1,8
304,224,28704,1,8
304,224,28911,1,8
304,224,29117,1,8
384,24,30152,6,2,B|488:96|464:192,1,165,0|0
376,144,31186,1,0
264,144,31600,1,8
64,56,32428,5,0
80,112,32635,1,0
120,152,32842,1,0
112,208,33048,1,0
64,240,33255,5,8
96,280,33462,1,0
152,288,33669,2,2,B|208:280|264:232,1,110,0|0
288,208,34290,1,0
320,160,34497,5,0
344,112,34704,1,0
368,64,34911,1,8
256,48,40083,6,0,B|256:216,1,165,0|4
144,192,41117,2,0,B|144:72,1,110,0|8
144,192,41945,2,0,B|144:328,1,110,0|4
456,48,43186,5,8
456,104,43393,1,0
320,192,44014,1,4
264,192,44221,1,0
208,192,44428,1,0
152,192,44635,2,0,B|152:24,2,165,0|0|8
152,248,46083,1,0
184,296,46290,1,0
240,280,46497,5,8
256,64,47324,1,4
256,64,47531,1,4
256,184,48152,5,8
256,184,48359,1,4
256,184,48566,2,0,B|256:312,1,110
256,294,49186,1,0
336,144,49807,5,8
336,144,50014,1,0
240,88,50428,6,0,B|160:192,1,110
240,88,51255,2,0,B|328:216,1,110
240,88,52083,1,4
256,192,53117,5,0
256,192,53324,1,0
368,72,53945,6,0,B|296:55|209:83|128:72,1,220,0|8
148,74,54980,2,0,B|88:208,1,110
103,174,55600,1,8
103,174,55807,1,0
103,174,56014,1,0
376,192,56428,6,0,B|256:192,1,110,8|0
376,192,57255,1,0
320,96,57669,1,0
376,192,58083,1,8
336,296,58497,1,0
376,192,58911,1,0
376,192,59117,1,0
376,192,59324,1,0
256,192,59738,5,0
256,192,59945,1,0
200,192,60152,2,0,B|112:192,1,55
88,192,60566,1,8
88,192,60773,1,0
88,192,60980,1,0
88,136,61186,2,0,B|88:72,1,55,0|8
88,136,61600,2,0,B|192:136,1,55
200,136,62014,1,0
256,136,62221,1,0
312,136,62428,1,0
456,352,63048,6,0,B|456:248,1,55,8|0
448,184,63669,2,0,B|368:184,1,55
336,184,64083,2,0,B|336:256,1,55
336,296,64497,1,0
280,304,64704,1,0
232,280,64911,1,0
192,240,65117,1,0
192,184,65324,1,12
224,136,65531,1,12
264,104,65738,1,12
312,80,65945,1,12
440,72,67186,6,0,B|440:208|248:224,1,220,4|4
248,224,68221,1,2
192,224,68428,1,2
136,216,68635,1,2
112,168,68842,2,0,B|128:40|320:56,1,220,0|4
328,56,69876,5,2
368,96,70083,1,2
368,152,70290,1,2
336,200,70497,2,4,B|272:256,2,82.5
136,256,72980,6,2,B|88:144,1,110
88,48,73807,2,0,B|168:128|328:96,1,220,2|4
328,64,74842,1,2
376,80,75048,1,2
400,128,75255,1,2
416,184,75462,2,0,B|400:320|224:304,1,220,2|4
208,296,76497,5,0
160,264,76704,1,0
136,216,76911,1,0
152,168,77117,2,4,B|208:96,2,82.5
256,192,79600,5,2
256,192,79807,1,2
256,192,80428,2,0,B|208:80|56:64,1,220,2|4
85,68,81462,1,2
48,104,81669,1,2
56,160,81876,1,2
88,208,82083,2,0,B|144:320|312:312,1,220,0|4
312,272,83117,6,0,B|352:224,2,55
264,240,83738,1,4
216,168,84048,1,4
264,96,84359,1,4
256,192,86014,12,4,89531
256,192,90359,6,4,B|256:96,2,82.5
256,64,106911,5,0
256,120,107117,1,0
256,176,107324,1,0
256,232,107531,1,0
256,288,107738,1,8
256,344,107945,1,8
256,120,108566,1,4
456,192,109600,6,0,B|328:72,1,165,0|4
224,72,110635,1,0
128,120,111048,1,8
312,240,111876,5,0
424,240,112290,1,0
368,336,112704,1,8
256,192,112911,12,4,114359
256,64,115186,5,0
256,176,115600,1,0
256,288,116014,1,8
448,176,116842,5,0
392,80,117255,1,0
448,176,117669,1,8
232,192,118497,6,0,B|112:192,2,110,0|0|8
408,56,120152,6,0,B|520:160|464:312|272:392|80:272|40:96,1,660,0|2
112,96,122945,2,2,B|184:48,2,73.3333333333333
360,56,126152,6,2,B|360:160,1,82.5
360,224,126773,1,2
360,224,127083,1,2
360,304,127393,1,4
192,320,127807,6,0,B|136:128|400:48,1,385,0|0
456,264,130083,6,0,B|264:304|64:264,1,385
72,208,131738,1,0
72,96,132152,1,0
168,40,132566,1,2
264,88,132980,1,2
448,336,133393,5,4
400,312,133600,1,0
352,280,133807,1,0
360,224,134014,1,0
400,184,134221,1,8
448,152,134428,1,0
424,104,134635,1,0
392,64,134842,1,0
336,48,135048,1,0
280,64,135255,1,0
280,120,135462,1,0
104,104,135876,5,8
104,104,136083,1,0
104,104,136290,1,0
168,192,136704,6,0,B|264:304,2,110,0|0|8
256,120,137945,2,0,B|344:216,2,110,0|0|0
360,96,139186,5,8
360,96,139393,1,0
360,96,139600,1,0
360,96,139807,1,0
360,96,140014,2,0,B|360:256,1,110
360,264,140635,1,0
320,296,140842,1,8
272,320,141048,1,0
216,304,141255,2,0,B|160:192,2,110
104,96,142497,5,8
104,96,142704,1,0
160,96,142911,1,0
216,96,143117,1,0
216,96,143324,1,0
216,96,143531,1,0
264,128,143738,2,0,B|264:240,1,110,0|8
264,296,144359,2,0,B|344:328|440:296,1,165,0|4
48,40,145807,5,4
80,88,146014,1,4
72,144,146221,1,4
112,184,146428,1,4
80,232,146635,1,4
96,288,146842,2,0,B|144:306|240:288,1,110
264,288,147462,1,8
320,280,147669,1,0
368,248,147876,1,0
400,208,148083,2,0,B|400:112,1,55
168,48,149117,6,0,B|112:176,1,110,8|0
168,48,149945,2,0,B|264:152,1,110
242,128,150566,1,0
296,128,150773,2,0,B|400:176|408:320,1,220,8|4
48,336,152428,5,8
48,224,152842,1,4
120,144,153255,2,0,B|240:144,1,110
256,248,154083,2,0,B|400:248,2,110,8|0|4
256,24,155738,5,8
256,24,155945,1,0
400,104,156566,5,4
368,152,156773,1,0
328,192,156980,1,0
280,216,157186,1,0
224,224,157393,1,8
168,224,157600,1,0
120,208,157807,1,0
72,184,158014,1,0
56,128,158221,1,8
112,192,159876,6,0,B|192:280|344:240,1,220,0|4
368,232,160911,1,2
400,192,161117,1,2
400,136,161324,1,2
400,80,161531,6,0,B|296:48|176:80,1,220,0|4
136,104,162566,1,0
112,152,162773,1,0
136,200,162979,1,0
184,216,163186,2,4,B|288:216,2,82.5
256,192,165669,5,2
256,192,165876,1,2
48,48,166497,6,0,B|48:296,1,220,0|4
464,48,168152,6,0,B|464:288,1,220,0|4
256,192,169807,5,4
256,192,170117,1,4
256,192,170428,1,4
256,192,173117,5,0
112,104,173738,1,2
256,192,174359,1,0
352,248,174773,1,4
360,80,175393,1,2
112,192,176428,6,4,B|112:288,2,82.5
256,128,178704,6,2,B|256:240,1,110
256,192,179531,12,4,180566
256,192,181186,12,4,182221
256,192,182635,5,2
256,192,182842,1,2
256,192,183048,2,4,B|256:296,2,82.5
256,64,198773,5,0
256,176,198979,1,0
256,288,199186,1,0
160,240,199393,1,0
160,128,199600,1,4
440,192,200428,5,0
360,120,200635,1,0
248,120,200842,1,0
168,40,201048,1,0
56,40,201255,1,0
56,152,201462,2,0,B|56:352,1,165,0|4
168,320,202290,1,0
168,320,202497,1,0
168,320,202704,1,0
168,320,202911,2,4,B|272:352,2,82.5
256,192,205393,5,8
256,192,205600,1,0
80,48,206221,5,0
80,160,206428,1,0
176,104,206635,1,0
288,104,206842,1,0
384,48,207048,1,8
384,160,207255,1,0
432,336,207876,5,0
432,224,208083,1,0
336,280,208290,1,0
224,280,208497,1,0
128,336,208704,1,8
128,224,208911,5,0
128,112,209117,1,0
224,160,209324,1,0
336,160,209531,2,4,B|336:56,2,82.5,4|4|0
256,192,212014,12,8,213669
256,192,213876,5,0
256,192,214083,1,0
256,192,214290,1,0
256,192,214497,2,0,B|128:264|80:120,1,220,0|8
184,136,215531,5,0
184,136,215738,1,0
184,136,215945,1,0
240,136,216152,2,4,B|328:136,2,82.5
256,192,218428,12,8,220290
256,88,220497,5,0
256,144,220704,1,0
256,200,220911,1,0
256,256,221117,2,0,B|384:288|416:136,1,220,0|8
432,96,222152,5,0
440,40,222359,1,0
432,96,222566,1,0
384,64,222773,2,4,B|288:64,2,82.5
352,128,223600,5,8
344,184,223807,1,0
304,224,224014,1,0
256,248,224221,1,0
200,256,224428,1,8
144,256,224635,1,0
96,232,224842,1,0
176,160,225255,5,8
176,160,225462,1,0
176,160,225669,1,8
176,160,225876,1,8
224,136,226083,6,0,B|352:144|432:48,1,220,0|8
422,58,227117,1,0
422,58,227324,1,0
422,58,227531,1,0
448,104,227738,2,0,B|464:264|320:296,1,220,0|8
304,272,228773,6,0,B|200:272,1,55
192,264,229186,1,0
192,264,229393,2,4,B|192:160,2,82.5
48,344,231669,5,0
48,120,232083,1,0
376,88,232704,6,0,B|376:208|224:264,1,220,0|8
251,252,233738,1,0
208,224,233945,1,0
176,176,234152,1,0
168,120,234359,2,0,B|288:72,2,110
120,144,235393,5,0
80,184,235600,1,0
72,240,235807,1,0
256,192,236014,12,0,238497
256,192,239324,5,4
