osu file format v7

[General]
AudioFilename: In Front Of Me.mp3
AudioLeadIn: 1000
PreviewTime: 198358
Countdown: 0
SampleSet: Normal
StackLeniency: 0.7
Mode: 0
LetterboxInBreaks: 1

[Editor]
Bookmarks: 66766
DistanceSpacing: 1
BeatDivisor: 4
GridSize: 16

[Metadata]
Title:In Front Of Me
Artist:Infected Mushroom
Creator:dlguiga
Version:Hard
Source:
Tags:Vicious Delicious Real1

[Difficulty]
HPDrainRate:7
CircleSize:5
OverallDifficulty:7
SliderMultiplier:2.6
SliderTickRate:2

[Events]
//Background and Video events
Video,-10000,"in_front_of_me.avi"
0,0,"Infected_Mushroom_-_Vicious_Delicious.jpg"
//Break Periods
2,93869,106011
2,120352,132493
2,160076,172218
2,179111,185459
//Storyboard Layer 0 (Background)
//Storyboard Layer 1 (Fail)
//Storyboard Layer 2 (Pass)
//Storyboard Layer 3 (Foreground)
//Storyboard Sound Samples
//Background Colour Transformations
3,100,163,162,255

[TimingPoints]
980.199200913243,827.586206896552,4,1,0,60,1,0
39248,-100,4,1,0,60,0,0
50214,-100,4,1,0,60,0,0
199591,-100,4,1,0,60,0,1
212833,-100,4,1,0,60,0,0
226074,-100,4,1,0,60,0,1
239532,-100,4,1,0,60,0,0

[Colours]
Combo1 : 240,5,5
Combo2 : 255,255,255
Combo3 : 5,5,240

[HitObjects]
128,192,980,2,0,B|400:192,2,260
128,64,3462,5,0
173,109,3669,1,0
218,63,3876,1,0
263,108,4083,1,0
308,62,4290,1,4
59,128,5118,5,0
256,304,5945,1,0
301,258,6152,1,0
346,303,6359,1,0
391,257,6566,1,0
436,302,6773,1,4
192,192,7600,5,0
283,100,8014,1,0
413,100,8428,1,8
152,100,9256,1,0
152,165,9462,1,0
197,210,9669,1,0
242,255,9876,1,0
287,300,10083,1,4
352,48,10911,6,0,B|512:48,2,130
160,224,12566,5,0
205,178,12773,1,0
270,178,12980,1,0
335,178,13187,1,0
380,223,13393,1,4
128,288,14221,6,0,B|208:288,4,65
192,176,15462,1,0
320,176,15876,1,8
448,176,16290,1,0
356,267,16704,1,0
310,221,16911,1,0
264,175,17118,1,0
96,48,17531,5,8
160,48,17738,1,0
224,48,17945,1,0
288,48,18152,1,0
288,112,18359,1,4
80,192,19187,6,0,B|160:192,4,65
160,96,20428,1,0
288,96,20842,1,8
416,96,21256,1,0
416,224,21669,1,0
370,269,21876,1,0
324,223,22083,1,0
324,92,22497,5,0
258,92,22704,1,0
192,92,22911,1,0
146,137,23118,1,0
100,182,23325,1,12
96,304,23738,5,0
160,304,23945,1,0
224,304,24152,1,0
352,304,24566,2,0,B|352:160,1,130,0|0
112,64,25807,5,0
112,129,26014,1,0
112,194,26221,1,0
112,259,26428,1,0
177,259,26635,1,4
80,192,27462,5,4
208,192,27876,1,0
336,192,28290,1,8
464,192,28704,1,0
464,256,28911,2,4,B|384:256,1,65
272,256,29531,5,0
206,256,29738,1,0
140,256,29945,1,8
140,125,30359,5,0
205,125,30566,1,0
270,125,30773,1,8
400,125,31187,1,0
491,33,31600,2,0,L|491:145|491:321,1,260
360,293,32842,5,0
294,293,33049,1,0
228,293,33256,1,8
228,228,33462,1,0
228,162,33669,1,4
136,70,34083,5,8
227,161,34497,1,0
318,252,34911,1,0
464,32,35738,5,8
418,77,35945,1,0
372,122,36152,1,0
326,167,36359,1,0
280,212,36566,1,4
188,303,36980,5,0
317,303,37393,1,0
447,303,37807,1,8
448,176,38635,5,0
382,176,38842,1,8
316,176,39049,1,0
186,176,39462,1,0
251,176,39669,1,8
251,45,40083,1,8
251,110,40290,1,0
96,32,40704,5,8
356,32,41118,1,0
352,288,41531,1,0
112,288,41945,2,0,L|32:288,1,65
128,192,42980,5,0
128,112,43187,1,8
192,64,43393,1,0
256,112,43600,1,0
256,192,43807,1,0
192,256,44014,1,0
352,128,44842,6,4,B|512:128,2,130,12|4|4
288,128,45876,1,0
224,128,46083,1,0
160,128,46290,1,0
160,192,46497,1,4
400,288,47325,5,8
272,288,47738,1,0
144,288,48152,1,0
144,160,48566,1,0
272,160,48980,2,2,B|416:160,2,130,10|2|2
96,64,50635,5,8
160,64,50842,1,0
224,64,51049,1,0
288,64,51256,1,0
288,64,51359,1,0
288,64,51462,1,4
256,256,51876,5,8
256,256,52290,1,8
176,192,53118,6,0,B|320:192,2,130,0|0|0
176,192,54152,1,8
128,80,54773,5,0
192,80,54980,1,8
256,80,55187,1,0
128,224,55600,1,0
192,224,55807,1,8
256,224,56014,1,0
368,160,56428,6,0,B|512:160,2,130
240,160,57669,5,0
240,160,57773,1,0
240,160,57876,1,0
240,160,57980,1,0
240,160,58083,1,4
128,96,58497,5,0
193,96,58704,1,8
258,96,58911,1,0
96,304,59738,5,0
187,212,60152,1,0
278,303,60566,1,0
369,211,60980,2,2,B|209:211,1,130
144,128,61807,5,0
176,128,61911,1,0
208,128,62014,1,0
240,128,62118,1,0
272,128,62221,1,0
336,128,62428,2,2,B|400:128,6,32.5
96,304,63462,5,0
464,304,63876,1,0
304,80,64290,5,0
304,144,64497,1,0
304,208,64704,1,0
304,272,64911,1,0
208,272,65118,5,0
208,272,65221,1,0
208,272,65325,1,0
208,272,65428,1,0
208,272,65531,1,0
142,272,65738,2,2,B|142:48,1,195
256,192,67187,5,0
256,192,67393,12,0,70497
64,192,70911,5,0
155,100,71325,1,0
246,191,71738,1,0
337,99,72152,1,0
246,191,72566,2,0,B|112:192,1,130
384,192,73807,1,4
256,192,74014,12,0,77738
161,145,78152,6,0,B|161:251,1,65
161,275,78566,2,0,B|244:275,1,65
224,208,78980,2,0,B|320:208,1,65
352,208,79393,2,0,B|352:128,1,65
64,192,80428,6,2,C|208:192,1,130
192,256,81049,2,2,C|48:256,1,130
256,304,82083,5,0
256,238,82290,1,0
256,172,82497,1,0
321,172,82704,1,8
320,112,82911,6,2,L|400:112,3,65
319,112,83738,1,0
253,112,83945,1,0
187,112,84152,1,0
141,157,84359,1,8
95,202,84566,5,0
186,110,84980,1,0
186,239,85393,1,0
316,239,85807,6,2,L|316:37,1,195
176,192,87049,1,4
256,192,87256,12,0,89325
256,64,89738,5,0
256,144,89945,1,0
256,224,90152,1,0
256,144,90359,1,0
256,64,90566,1,0
256,304,90980,5,4
256,192,91600,12,0,93256
256,192,93669,5,0
256,192,106911,5,4
32,64,107738,1,0
32,192,108152,1,0
32,320,108566,1,0
160,320,108980,5,0
224,320,109187,1,8
288,320,109393,1,0
464,128,110221,5,0
400,128,110428,1,8
336,128,110635,1,0
336,192,110842,1,0
336,256,111049,1,4
176,256,111876,5,0
176,192,112083,1,8
176,128,112290,1,0
112,128,112497,1,0
48,128,112704,1,4
160,64,113118,2,2,L|304:64,1,130
80,208,114359,5,0
208,208,114773,1,0
336,208,115187,1,0
464,208,115600,2,2,L|464:64,1,130
256,48,116428,5,0
210,93,116635,1,8
164,138,116842,1,0
35,138,117256,2,2,L|35:282,1,130
464,112,118083,5,0
464,177,118290,1,8
464,242,118497,1,0
398,242,118704,1,0
332,242,118911,1,0
332,111,119325,2,2,L|332:207,3,65
256,192,120152,5,4
64,80,133393,5,8
64,144,133600,2,2,L|208:144,2,130
64,208,134635,1,0
194,208,135049,1,0
194,208,135152,1,0
194,208,135256,1,0
194,208,135359,1,0
194,208,135462,1,0
320,208,135876,5,0
450,208,136290,2,2,L|450:112,2,65
450,77,137118,5,0
320,77,137531,1,0
189,77,137945,1,0
58,77,138359,1,0
58,77,138462,1,0
58,77,138566,1,0
58,77,138669,1,0
58,77,138773,1,0
120,200,139187,5,8
249,200,139600,2,2,L|345:200,2,65
249,265,140221,1,0
203,219,140428,1,8
157,173,140635,1,0
157,173,140738,1,0
157,173,140842,1,8
157,107,141049,6,2,L|205:107,2,32.5
222,107,141462,1,0
287,107,141669,1,8
352,107,141876,1,0
352,237,142290,2,2,L|256:237,2,65,2|10|2
221,237,143118,1,0
189,237,143221,1,0
157,237,143325,1,0
27,237,143738,5,0
118,145,144152,1,8
248,145,144566,2,0,L|200:145|200:161,4,32.5
256,32,145393,5,0
208,80,145600,1,0
160,128,145807,1,8
208,176,146014,1,0
230,198,146118,1,0
253,221,146221,1,8
275,243,146325,1,0
298,266,146428,1,0
362,266,146635,5,0
362,72,147256,1,0
362,136,147462,1,8
362,201,147669,2,0,C|282:201,1,65
166,201,148290,1,0
166,135,148497,1,0
166,69,148704,1,0
100,69,148911,1,0
100,134,149118,1,8
100,199,149325,2,0,B|100:319,1,65
165,264,149738,2,0,B|237:264,1,65
240,32,150359,5,0
240,96,150566,1,0
240,160,150773,1,8
240,96,150980,1,0
240,32,151187,1,0
176,32,151393,2,2,B|80:112|176:224,1,195
160,336,152428,1,8
224,336,152635,1,0
160,336,152842,1,0
224,336,153049,1,0
288,336,153256,5,4
288,208,153669,2,0,B|288:64,1,130,0|8
224,80,154290,1,0
112,144,154704,1,0
112,208,154911,1,0
112,272,155118,1,0
176,272,155325,1,0
208,272,155428,1,0
240,272,155531,1,8
272,272,155635,1,0
304,272,155738,1,4
368,272,155945,6,2,B|368:192,2,65
368,208,156566,1,8
304,208,156773,1,0
304,144,156980,1,0
240,144,157187,1,0
240,208,157393,5,4
240,336,157807,1,0
263,312,157911,1,8
285,289,158014,1,0
308,265,158118,1,0
330,242,158221,1,0
320,64,158635,6,2,B|176:64,1,130
256,192,159876,5,4
48,64,173118,5,0
176,64,173531,1,0
304,64,173945,1,8
212,155,174359,1,0
120,246,174773,1,0
250,246,175187,1,0
379,246,175600,1,8
379,115,176014,6,0,L|200:115,1,130
112,112,176842,1,0
112,240,177256,1,8
240,240,177669,1,0
285,194,177876,1,0
239,148,178083,1,0
284,102,178290,1,0
238,56,178497,1,0
368,56,178911,1,8
256,64,186359,5,0
128,64,186773,2,2,B|48:176|128:336,1,260
246,311,188014,1,0
311,311,188221,1,0
376,311,188428,1,0
376,245,188635,1,8
376,179,188842,1,0
376,48,189256,5,0
246,48,189669,1,0
112,48,190083,2,0,C|112:144|112:320,1,260
177,308,191118,1,0
242,308,191325,1,0
306,308,191531,1,8
306,242,191738,1,0
306,176,191945,1,4
306,110,192152,6,2,B|226:110,3,65
176,112,192980,5,0
45,110,193393,1,0
45,240,193807,1,0
90,194,194014,1,0
135,239,194221,1,0
180,193,194428,1,8
225,238,194635,1,0
288,48,195049,6,2,B|368:160|288:320,1,260
256,192,196290,5,0
301,146,196497,1,0
346,100,196704,1,0
391,145,196911,1,0
436,190,197118,1,4
256,32,198773,5,0
256,64,198876,1,0
256,96,198980,1,0
256,128,199083,1,0
256,160,199187,1,8
256,192,199290,1,0
256,224,199393,1,4
256,288,199600,5,8
128,288,200014,2,0,B|80:288,2,32.5
128,224,200428,1,0
128,160,200635,1,0
128,96,200842,1,0
256,96,201256,5,8
384,96,201669,1,0
384,224,202083,1,0
256,224,202497,1,0
256,160,202704,1,0
256,224,202911,1,8
256,288,203118,1,0
256,224,203325,1,4
128,96,203738,6,2,B|176:64|240:32|336:64|384:112,1,260,2|10
370,99,204773,1,0
320,144,204980,1,0
272,192,205187,1,0
224,240,205393,1,0
176,288,205600,1,0
64,48,206221,5,0
64,178,206635,1,8
64,308,207049,1,0
193,308,207462,2,2,B|273:196|193:36,1,260
334,60,208704,1,0
399,60,208911,1,0
399,125,209118,1,0
399,190,209325,1,0
399,254,209531,1,4
268,254,209945,5,0
144,304,210359,1,8
144,176,210773,1,0
144,304,211187,2,2,B|80:192|144:32,1,260
256,48,212428,5,0
256,80,212531,1,0
256,112,212635,1,8
256,144,212738,1,0
256,176,212842,1,4
144,112,213256,1,0
144,240,213669,1,8
274,240,214083,1,0
336,240,214290,2,0,C|336:96,2,130
272,240,215325,1,8
224,288,215531,5,0
224,222,215738,1,0
224,156,215945,1,0
224,90,216152,1,0
224,24,216359,1,8
354,26,216773,2,2,B|354:186,1,130
64,48,217600,5,0
128,48,217807,1,0
192,48,218014,1,0
192,112,218221,1,0
192,176,218428,1,8
192,240,218635,2,0,B|256:288|288:288|352:272|368:224,1,195
368,176,219462,1,4
459,84,219876,1,0
459,214,220290,1,8
367,305,220704,1,0
240,304,221118,5,0
240,238,221325,1,0
240,172,221531,1,0
240,240,221738,1,8
240,304,221945,1,4
109,304,222359,5,0
109,238,222566,1,8
109,172,222773,1,0
109,106,222980,1,0
174,106,223187,1,4
303,106,223600,2,0,B|441:106,2,130
256,48,225256,5,0
256,80,225359,1,0
256,112,225462,1,8
256,144,225566,1,0
256,176,225669,1,0
256,208,225773,1,0
256,240,225876,1,0
256,336,226083,5,4
164,244,226497,1,0
72,152,226911,1,0
202,152,227325,2,0,B|346:152,1,130
464,48,228152,5,0
418,93,228359,1,0
372,138,228566,1,0
417,183,228773,1,0
379,236,228980,1,8
249,236,229393,5,0
118,236,229807,1,0
118,105,230221,1,0
248,105,230635,2,2,B|392:105,1,130,10|2
378,235,231462,1,0
312,235,231669,1,0
246,235,231876,1,0
180,235,232083,1,0
225,189,232290,1,4
133,97,232704,5,0
263,97,233118,1,0
392,97,233531,1,0
392,162,233738,2,2,B|392:242,2,65
326,162,234359,1,0
280,207,234566,1,0
214,207,234773,1,0
148,207,234980,1,0
111,153,235187,1,4
464,48,235600,5,8
372,139,236014,1,0
280,230,236428,1,0
188,138,236842,1,0
155,138,236945,1,0
122,138,237049,1,0
89,138,237152,1,0
56,138,237256,1,4
56,267,237669,5,0
121,267,237876,2,0,B|201:267,2,65
186,267,238497,1,0
251,267,238704,2,0,B|326:267,2,65
316,267,239325,5,4
