osu file format v5

[General]
AudioFilename: 02 - Birthday.mp3
AudioLeadIn: 0
PreviewTime: 146320
Countdown: 1
SampleSet: Soft
StackLeniency: 0.7
Mode: 0
LetterboxInBreaks: 1
EditorBookmarks: 7744,40993,160320,164444

[Metadata]
Title:Birthday
Artist:Infected Mushroom
Creator:lluminatis
Version:Hard
Source:
Tags:infected mushroom, birthday, lluminatis

[Difficulty]
HPDrainRate:5
CircleSize:5
OverallDifficulty:5
SliderMultiplier:0.899999999999999
SliderTickRate:2

[Events]
//Background and Video events
0,0,"00-infected_mushroom_-_birthday-ep-2002-birthday-heb.jpg"
//Break Periods
2,100396,115631
2,210393,216753
//Storyboard Layer 0 (Background)
//Storyboard Layer 1 (Failing)
//Storyboard Layer 2 (Passing)
//Storyboard Layer 3 (Foreground)
//Storyboard Sound Samples
//Background Colour Transformations
3,100,0,0,217

[TimingPoints]
8200,499.983680266443,4,2,0,54,1
160320,499.983680266443,4,2,0,54,1
160320,-50,4,2,0,54,0
164444,249.991840133222,4,2,0,54,1
164444,-200,4,2,0,54,0

[Colours]
Combo1 : 255,150,0
Combo2 : 5,240,5
Combo3 : 12,233,233
Combo4 : 240,5,5

[HitObjects]
160,128,8200,5,0
448,96,10199,1,0
192,160,12199,1,0
128,320,14199,1,0
384,192,16199,1,0
96,128,18199,5,0
288,96,20199,1,0
160,160,22199,1,0
128,288,24199,5,0
192,96,26199,1,0
384,224,28199,1,0
192,288,30199,1,0
288,128,32199,5,0
128,160,33199,1,0
128,288,34199,1,0
160,160,35199,1,2
256,64,37199,6,2,B|448:160|448:96|416:96,1,180
425,114,38199,2,2,B|256:224|288:32|288:96,2,180
288,96,40948,5,0
256,128,41198,1,0
224,160,41448,1,0
192,192,41823,1,0
384,160,42198,2,0,B,1,89.9999999999999
311,140,42698,1,0
192,96,44995,5,0
224,96,45198,2,2,B|288:96|320:96,1,89.9999999999999
352,96,45948,1,0
352,160,46448,1,0
256,160,46948,1,0
160,160,47448,1,0
160,96,47948,2,0,B,1,45
416,288,48948,5,0
352,288,49198,1,0
288,288,49448,2,2,B|288:192|288:160,2,89.9999999999999
224,192,52948,5,0
288,160,53198,1,0
224,128,53448,1,0
288,224,53698,1,0
352,288,53948,1,0
160,64,54698,1,0
256,32,54948,2,2,B|192:160|256:128,2,135
96,192,56948,5,0
192,160,57198,1,0
288,160,57448,1,0
384,160,57698,1,0
480,160,57948,1,0
480,256,58198,2,0,B,1,89.9999999999999
160,160,60948,5,0
224,160,61198,1,0
288,128,61448,2,2,B|384:96|384:128,2,89.9999999999999
288,192,62698,1,0
288,256,62948,1,0
224,256,63448,1,0
160,256,63698,1,0
160,160,63948,1,0
256,192,65198,12,10,65823
128,128,67073,5,0
160,128,67323,1,0
192,128,67573,1,0
256,128,68073,1,0
128,192,70947,5,0
192,128,71197,1,0
288,96,71572,1,0
301,159,71947,1,0
320,224,72197,1,0
256,64,74197,6,2,B|160:96|160:64,1,89.9999999999999
160,128,74947,5,0
160,160,75197,1,0
160,192,75447,1,0
192,224,75697,1,0
256,224,75947,1,0
256,288,76447,5,0
320,288,76947,1,0
384,288,77447,1,0
384,224,77697,1,0
384,160,77947,1,0
384,96,78197,1,0
448,96,78947,5,0
448,160,79322,1,0
448,224,79697,1,0
160,128,80197,6,2,B|288:64|288:64|416:192|416:192,1,315
256,256,83197,5,0
320,192,83447,1,0
192,192,83697,1,0
256,128,83947,1,0
192,160,86947,5,0
320,160,87197,1,0
256,224,87572,1,0
256,96,87947,1,0
256,160,88197,1,0
256,192,88447,12,10,90447
192,160,91072,5,0
320,160,91322,1,0
320,224,91697,1,0
192,224,91947,2,0,B,1,0
256,192,92447,1,0
64,320,92947,5,0
160,320,93322,1,0
256,320,93697,1,0
352,320,93947,1,0
448,320,94197,1,0
256,320,94947,5,0
256,256,95447,1,0
256,192,95697,1,0
256,128,96197,2,0,B|384:192|384:192|192:320|192:320,2,360
192,288,116946,5,8
320,288,117196,1,8
352,160,117571,1,8
256,96,117946,1,8
160,160,118196,1,8
256,192,118696,1,8
32,192,120946,5,8
64,192,121196,1,8
96,192,121446,1,8
128,192,121696,1,8
160,192,121946,1,8
288,192,122696,1,8
320,192,122946,1,8
416,192,123446,1,8
384,192,123696,1,8
352,192,123946,1,8
256,32,124946,5,8
256,96,125196,1,8
256,160,125571,1,8
256,224,125946,1,8
256,288,126196,1,8
256,352,126696,1,8
128,96,128946,5,8
192,96,129196,1,8
288,96,129446,1,8
352,96,129696,1,8
416,160,129946,2,10,B|288:224,1,135
256,224,130945,1,10
224,224,131195,1,8
160,192,131695,1,8
96,160,131945,2,8,B,1,405
256,192,132695,12,10,133695
224,192,134945,5,8
288,192,135195,1,8
256,128,135445,1,8
254,171,135695,1,8
128,192,136070,2,10,B|256:288,1,157.5
254,286,136945,2,10,B|384:224,1,135
416,288,138945,5,8
384,224,139195,1,8
352,288,139570,1,8
288,288,139820,1,8
320,224,140195,1,8
256,192,140945,6,10,B|160:352|160:192,1,180
352,160,142945,5,8
320,160,143195,1,8
288,160,143445,1,8
256,160,143695,1,8
224,224,143945,2,10,B|160:224|192:224,1,45
160,160,144445,1,8
416,160,144945,6,8,B,1,45
256,160,145445,1,8
335,159,145695,1,8
334,233,145945,1,8
336,303,146195,1,8
64,64,146945,6,6,B|64:256|64:288|64:288|64:192|64:192|160:192|160:192|160:64|160:64|160:352,1,809.999999999999
288,96,152195,6,2,B|160:96|160:96|160:224|160:224|288:224,1,382.5
160,256,154570,2,2,B|160:352|160:352|480:352,1,405
352,128,157195,6,2,B|288:96|224:96|160:128|128:192|128:256|160:288|224:320|384:320|384:224|288:224,1,517.499999999999
256,32,160820,6,0,B|128:320|128:320|192:192|192:192|352:192|352:192|416:320|416:320|256:33,1,1080
96,128,165194,6,2,B|96:192,1,45
96,224,165569,2,2,B|96:288,1,45
96,128,165944,2,2,B|160:192,1,67.4999999999999
192,224,166444,2,2,B|240:169,1,67.4999999999999
236,173,166944,2,2,B|277:122,1,45
256,128,167319,2,2,B|256:320,1,180
320,96,168944,5,0
256,96,169194,1,0
192,96,169444,1,0
128,96,169694,1,0
128,160,169944,1,0
128,224,170444,2,2,B|320:224,2,180
128,256,173194,2,2,B|128:320|128:320|156:304|156:304|192:288,1,135
192,320,174694,2,2,B|224:288,1,45
256,320,175694,2,2,B|288:288,1,45
352,96,176944,5,0
288,96,177194,1,0
224,96,177444,1,0
160,96,177694,1,0
160,160,177944,1,0
224,160,178194,2,2,B|352:224,1,135
416,64,180944,6,2,B|64:288|64:288|256:288,1,584.999999999999
256,288,184944,5,0
224,256,185194,1,0
288,224,185444,1,0
192,192,185694,1,0
288,160,185944,1,0
192,160,186194,2,2,B|288:160|288:160|256:192|256:192|320:256|320:256|224:256|224:256|352:320,1,449.999999999999
256,64,189194,5,0
256,128,189444,1,0
192,128,189694,1,0
192,192,189944,1,0
128,192,190194,1,0
128,256,190694,5,0
256,256,191194,1,0
384,256,191944,1,0
224,192,192943,6,2,B|288:192,5,45
256,192,194693,1,8
256,192,194818,1,8
192,192,196193,5,0
256,192,196443,1,0
320,192,196693,5,0
384,192,197193,1,0
320,192,197568,1,0
256,192,197818,1,0
96,288,198193,6,2,B|288:384|96:32,1,360
96,96,200193,2,2,B|128:96,7,22.5
160,96,201193,2,2,B|157:62|157:62|187:50|187:50|208:91|208:91|271:119|271:119|332:97|332:97|338:187|338:187|405:110|405:110|400:222|400:222|232:242|232:242|236:266,2,742.499999999999
64,192,210193,5,14
416,192,218193,5,8
256,192,219193,1,8
96,192,220193,1,8
256,64,221193,1,8
128,192,222193,5,8
416,256,223192,1,8
384,96,224192,1,8
160,96,225192,1,8
224,288,226067,5,8
320,224,227192,1,8
160,192,228192,1,8
256,96,229192,1,8
96,160,230192,5,8
160,256,231192,1,8
224,160,232192,1,8
160,128,232692,1,8
256,224,233192,1,8
320,192,233692,1,8
224,128,234192,5,0
320,96,234692,1,4
416,160,235192,1,0
256,224,235692,1,4
128,192,236192,1,0
192,128,236692,1,4
320,256,237192,1,0
288,192,237567,5,8
288,128,238192,5,2
256,128,238442,1,0
224,128,238692,1,2
160,128,238942,1,0
160,192,239192,1,2
224,192,239692,1,0
288,320,240192,5,2
256,320,240442,1,0
224,320,240692,1,2
160,320,240942,1,0
160,256,241192,1,2
224,256,241692,1,0
352,288,242192,5,2
352,256,242442,1,0
352,224,242692,1,2
352,192,242942,1,0
416,192,243192,1,2
416,256,243692,1,0
480,160,244192,5,2
480,128,244442,1,0
480,96,244692,1,2
480,64,244942,1,0
416,64,245192,1,2
416,128,245567,1,0
416,256,246192,6,2,B|416:160|416:160|320:160|320:160|320:256|320:256|256:320|256:320|192:256|192:256|256:192|256:192|224:128,1,629.999999999999
192,192,250192,6,2,B|288:192,1,89.9999999999999
192,256,251067,6,2,B|224:256,1,22.5
256,256,251442,2,2,B|288:256,1,22.5
320,256,251817,1,2
320,256,251942,2,2,B|352:256,24,22.5
160,192,255191,6,2,B|224:192,1,45
256,192,255566,2,2,B|320:192,1,45
352,192,255941,2,2,B|384:192,16,22.5
128,64,259191,6,2,B|192:64,1,45
224,64,259566,2,2,B|288:64,1,45
320,64,259941,2,2,B|352:64,11,22.5
384,64,261690,2,2,B|384:160,1,89.9999999999999
96,192,263191,6,2,B|160:192,1,45
192,192,263566,2,2,B|256:192,1,45
288,192,263941,2,2,B|352:192,1,45
320,256,264441,6,2,B|256:256,1,45
224,256,264816,2,2,B|160:256,1,45
128,256,265191,2,2,B|128:160|231:161,1,157.5
227,160,266191,6,2,B|256:160,7,22.5
288,160,267191,6,2,B|320:160,7,22.5
288,224,268191,6,2,B|256:224,7,22.5
224,224,269191,6,2,B|192:224,7,22.5
160,224,270191,6,2,B|160:192,7,22.5
192,192,271191,6,2,B|256:192,1,45
288,192,271566,2,2,B|352:192,1,45
96,256,272066,2,2,B|320:256,2,202.5
96,224,274441,6,2,B|96:192,5,22.5
160,224,275191,6,2,B|160:192,7,22.5
224,224,276191,6,2,B|288:192,3,67.4999999999999
96,288,278191,6,2,B|64:224|128:224,1,89.9999999999999
128,192,278941,6,2,B|96:128|160:128,1,89.9999999999999
160,96,279691,6,2,B|128:32|192:32,1,89.9999999999999
256,32,280690,5,0
128,32,281191,6,10,B|-160:320|320:320,1,539.999999999999
