osu file format v12

[General]
AudioFilename: Infected Mushroom - Becoming Insane.mp3
AudioLeadIn: 0
PreviewTime: 106620
Countdown: 0
SampleSet: Normal
StackLeniency: 0.7
Mode: 0
LetterboxInBreaks: 0
EpilepsyWarning: 1
WidescreenStoryboard: 1

[Editor]
Bookmarks: 1697,14938,28179,41421,54662,67903,81145,94386,107628,120869,134110,147352,160593
DistanceSpacing: 1.2
BeatDivisor: 4
GridSize: 4

[Metadata]
Title:Becoming Insane
TitleUnicode:Becoming Insane
Artist:Infected Mushroom
ArtistUnicode:Infected Mushroom
Creator:Nemis
Version:Nemis
Source:
Tags:La Cataline Reiji-RJ Vicious Delicious Alternative Rock Better Than LSD Electro Electronic Trance Guitar House Hypnotic Psytrance Psy Goa Psychedelic Rave Spanish Techno
BeatmapID:250349
BeatmapSetID:92235

[Difficulty]
HPDrainRate:7
CircleSize:4
OverallDifficulty:7
ApproachRate:8
SliderMultiplier:1.4
SliderTickRate:1

[Events]
//Background and Video events
0,0,"bg.jpg",0,0
//Break Periods
2,68129,80317
2,107854,119111
//Storyboard Layer 0 (Background)
//Storyboard Layer 1 (Fail)
//Storyboard Layer 2 (Pass)
//Storyboard Layer 3 (Foreground)
//Storyboard Sound Samples
//Background Colour Transformations
3,100,0,0,0

[TimingPoints]
14965,413.793103448276,4,2,1,60,1,0
14965,-100,4,2,2,40,0,0
26551,-100,4,1,0,30,0,0
26827,-100,4,2,0,40,0,0
27102,-100,4,2,0,30,0,0
27378,-100,4,1,0,20,0,0
28206,-100,4,2,1,60,0,0
39792,-100,4,1,0,60,0,0
40102,-100,4,2,0,40,0,0
40413,-100,4,2,0,30,0,0
40620,-100,4,1,0,20,0,0
41447,-100,4,2,1,60,0,0
47654,-100,4,1,0,60,0,0
48068,-100,4,2,1,60,0,0
54689,-100,4,2,1,40,0,0
81171,-111.111111111111,4,2,1,40,0,0
94413,-100,4,1,1,45,0,0
97723,-100,4,1,1,50,0,0
101033,-100,4,1,1,55,0,0
104344,-100,4,1,0,60,0,0
106620,-100,4,2,1,60,0,0
120896,-111.111111111111,4,2,1,40,0,0
127516,-111.111111111111,4,2,1,45,0,0
130827,-111.111111111111,4,1,1,50,0,0
132482,-111.111111111111,4,1,0,60,0,0
134137,-90.9090909090909,4,2,1,60,0,1
147275,-90.9090909090909,4,2,1,60,0,0
147378,-90.9090909090909,4,2,1,60,0,1
157309,-90.9090909090909,4,1,0,60,0,1
160620,-90.9090909090909,4,1,0,60,0,0

[Colours]
Combo1 : 183,0,0
Combo2 : 0,255,255
Combo3 : 177,100,255
Combo4 : 227,13,131
Combo5 : 255,242,242

[HitObjects]
352,328,14965,6,0,P|368:272|360:224,1,105,4|8,1:0|0:0,0:0:0:0:
360,226,15378,1,0,0:0:0:0:
296,136,15585,2,0,L|408:128,1,105,0|0,0:0|0:0,0:0:0:0:
400,128,15999,2,0,P|396:96|400:56,1,70,0|0,0:0|0:0,0:0:0:0:
472,208,16413,1,0,0:0:0:0:
284,212,16620,6,0,L|212:204,1,70,8|0,0:0|0:0,0:0:0:0:
208,196,16930,2,0,P|168:182|104:182,1,105,8|0,0:0|0:0,0:0:0:0:
105,182,17344,1,0,0:0:0:0:
105,182,17447,1,0,0:0:0:0:
72,304,17654,1,0,0:0:0:0:
192,352,17861,2,0,L|272:344,1,70,0|0,0:0|0:0,0:0:0:0:
448,224,18275,54,0,L|440:296,1,70,8|0,0:0|0:0,0:0:0:0:
440,293,18585,2,0,P|399:303|319:271,1,105,8|0,0:0|0:0,0:0:0:0:
256,152,19102,1,0,0:0:0:0:
360,88,19309,1,0,0:0:0:0:
360,88,19413,1,0,0:0:0:0:
368,208,19620,1,0,0:0:0:0:
368,208,19723,1,0,0:0:0:0:
256,152,19930,6,0,L|184:144,1,70,8|0,0:0|0:0,0:0:0:0:
186,144,20240,1,8,0:0:0:0:
72,216,20447,1,0,0:0:0:0:
72,216,20551,2,0,P|64:256|72:296,1,70,0|0,0:0|0:0,0:0:0:0:
168,336,20965,1,0,0:0:0:0:
24,128,21171,2,0,L|93:122,1,70
93,122,21482,1,0,0:0:0:0:
93,122,21585,53,8,0:0:0:0:
288,240,21792,1,0,0:0:0:0:
288,240,21896,2,0,P|240:224|176:232,1,105,8|0,0:0|0:0,0:0:0:0:
384,224,22413,2,0,L|392:296,1,70,0|0,0:0|0:0,0:0:0:0:
391,293,22723,2,0,P|440:304|496:280,1,105,0|0,0:0|0:0,0:0:0:0:
488,160,23240,5,8,0:0:0:0:
392,80,23447,1,0,0:0:0:0:
392,80,23551,1,8,0:0:0:0:
256,144,23758,1,0,0:0:0:0:
256,144,23861,2,0,L|344:136,1,70,0|0,0:0|0:0,0:0:0:0:
184,96,24275,1,0,0:0:0:0:
184,96,24378,1,0,0:0:0:0:
184,96,24482,2,0,P|168:136|184:184,1,70
224,320,24896,54,0,P|240:264|224:208,2,105,8|8|0,0:0|0:0|0:0,0:0:0:0:
144,264,25723,2,0,L|40:256,1,105
39,255,26137,1,0,0:0:0:0:
96,168,26344,1,0,0:0:0:0:
376,256,26551,5,0,0:0:0:0:
228,188,26827,1,4,0:0:0:0:
376,256,27102,1,4,0:0:0:0:
368,88,27378,53,4,0:0:0:0:
368,88,27792,2,0,L|360:128,5,23.3333333333333,0|0|0|0|0|0,0:0|0:0|0:0|0:0|0:0|0:0,0:0:0:0:
368,88,28206,6,0,L|256:80,1,105,4|0,1:0|0:0,0:0:0:0:
263,80,28620,1,8,0:0:0:0:
72,92,28827,2,0,L|64:168,1,70,0|0,0:0|0:0,0:0:0:0:
64,161,29137,1,0,0:0:0:0:
208,244,29344,1,0,0:0:0:0:
208,244,29447,2,0,L|120:252,1,70,8|0,0:0|0:0,0:0:0:0:
296,320,29861,54,0,P|336:312|400:312,1,105,0|0,0:0|0:0,0:0:0:0:
400,312,30275,2,0,L|408:232,1,70,8|0,0:0|0:0,0:0:0:0:
464,104,30689,1,0,0:0:0:0:
432,100,30792,1,0,0:0:0:0:
400,96,30896,1,2,0:0:0:0:
368,92,30999,1,0,0:0:0:0:
337,89,31102,2,0,L|248:96,1,70,8|0,0:0|0:0,0:0:0:0:
104,224,31516,6,0,P|120:288|104:344,1,105,0|0,0:0|0:0,0:0:0:0:
112,325,31930,2,0,L|23:319,1,70,8|0,0:0|0:0,0:0:0:0:
208,232,32344,2,0,P|200:184|208:144,1,70,0|0,0:0|0:0,0:0:0:0:
304,184,32758,1,8,0:0:0:0:
240,368,32965,1,0,0:0:0:0:
120,136,33171,53,0,0:0:0:0:
120,136,33275,1,0,0:0:0:0:
112,324,33482,1,0,0:0:0:0:
112,324,33585,1,8,0:0:0:0:
320,288,33792,2,0,L|400:280,1,70,0|0,0:0|0:0,0:0:0:0:
480,328,34206,1,2,0:0:0:0:
440,112,34413,2,0,P|432:160|456:216,1,105,8|0,0:0|0:0,0:0:0:0:
452,211,34827,5,0,0:0:0:0:
496,40,35033,1,0,0:0:0:0:
496,40,35137,1,0,0:0:0:0:
496,40,35240,1,8,0:0:0:0:
256,104,35447,2,0,L|328:112,2,70,0|0|0,0:0|0:0|0:0,0:0:0:0:
152,240,36068,2,0,L|144:144,1,70,8|0,0:0|0:0,0:0:0:0:
104,64,36482,53,0,0:0:0:0:
104,64,36585,1,0,0:0:0:0:
256,240,36792,1,0,0:0:0:0:
256,240,36896,2,0,L|248:328,1,70,8|0,0:0|0:0,0:0:0:0:
152,352,37309,2,0,P|120:344|72:344,1,70,0|2,0:0|0:0,0:0:0:0:
152,240,37723,1,8,0:0:0:0:
304,168,37930,1,0,0:0:0:0:
440,320,38137,6,0,P|456:264|440:216,1,105,0|0,0:0|0:0,0:0:0:0:
442,220,38551,2,0,L|367:215,1,70,8|0,0:0|0:0,0:0:0:0:
280,64,38965,1,0,0:0:0:0:
304,168,39171,1,0,0:0:0:0:
408,144,39378,1,8,0:0:0:0:
384,40,39585,1,0,0:0:0:0:
208,136,39792,53,0,0:0:0:0:
140,220,40102,1,4,0:0:0:0:
208,136,40413,1,4,0:0:0:0:
104,120,40620,5,4,0:0:0:0:
104,120,41033,2,0,L|101:88,5,23.3333333333333
104,120,41447,54,0,P|112:192|88:240,1,105,4|0,1:0|0:0,0:0:0:0:
100,221,41861,1,8,0:0:0:0:
56,336,42068,2,0,L|160:328,1,105
160,327,42482,1,2,0:0:0:0:
272,304,42689,1,8,0:0:0:0:
376,344,42896,1,0,0:0:0:0:
272,304,43102,5,0,0:0:0:0:
272,304,43206,1,0,0:0:0:0:
360,232,43413,1,0,0:0:0:0:
360,232,43516,2,0,L|432:240,1,70,8|0,0:0|0:0,0:0:0:0:
429,239,43827,1,0,0:0:0:0:
429,239,43930,2,0,P|456:176|440:104,1,140,0|8,0:0|0:0,0:0:0:0:
208,56,44551,54,0,P|200:96|224:144,1,70,0|0,0:0|0:0,0:0:0:0:
296,80,44965,1,0,0:0:0:0:
168,256,45171,2,0,L|88:248,1,70,8|0,0:0|0:0,0:0:0:0:
80,80,45585,2,0,L|88:152,1,70,0|2,0:0|0:0,0:0:0:0:
272,336,45999,2,0,L|279:266,1,70,8|0,0:0|0:0,0:0:0:0:
280,160,46413,5,0,0:0:0:0:
280,160,46516,1,0,0:0:0:0:
376,208,46723,1,0,0:0:0:0:
376,208,46827,1,8,0:0:0:0:
280,160,47033,2,0,L|224:168,2,35,0|0|0,0:0|0:0|0:0,0:0:0:0:
368,96,47447,1,0,0:0:0:0:
368,96,47551,1,0,0:0:0:0:
368,96,47654,2,0,L|376:56,5,23.3333333333333,0|0|0|0|0|0,0:0|0:0|0:0|0:0|0:0|0:0,0:0:0:0:
368,96,48068,54,0,L|472:88,1,105,0|0,0:0|0:0,0:0:0:0:
472,87,48482,1,8,0:0:0:0:
272,64,48689,2,0,P|240:56|200:56,1,70,0|0,0:0|0:0,0:0:0:0:
120,176,49102,1,2,0:0:0:0:
40,112,49309,2,0,L|32:24,1,70,8|0,0:0|0:0,0:0:0:0:
48,272,49723,5,0,0:0:0:0:
48,272,49827,1,0,0:0:0:0:
120,176,50033,1,0,0:0:0:0:
120,176,50137,2,0,L|208:168,1,70,8|0,0:0|0:0,0:0:0:0:
224,328,50551,2,0,L|192:248,1,70,0|0,0:0|0:0,0:0:0:0:
198,263,50861,1,0,0:0:0:0:
198,263,50965,1,8,0:0:0:0:
272,128,51171,1,0,0:0:0:0:
344,288,51378,54,0,L|432:296,1,70,0|0,0:0|0:0,0:0:0:0:
413,294,51689,1,0,0:0:0:0:
413,294,51792,1,8,0:0:0:0:
472,172,51999,1,0,0:0:0:0:
272,128,52206,1,0,0:0:0:0:
360,40,52413,2,0,L|368:120,1,70,2|8,0:0|0:0,0:0:0:0:
480,56,52827,1,0,0:0:0:0:
272,128,53033,5,0,0:0:0:0:
272,128,53137,2,0,L|192:120,1,70
202,121,53447,2,0,P|208:176|200:216,1,70,8|0,0:0|0:0,0:0:0:0:
96,280,53861,2,0,P|80:232|96:152,1,105,0|0,0:0|0:0,0:0:0:0:
84,178,54275,1,8,0:0:0:0:
200,296,54482,1,0,0:0:0:0:
96,56,54689,53,4,1:0:0:0:
200,296,54999,1,0,0:0:0:0:
200,296,55102,1,8,0:0:0:0:
296,344,55309,2,0,L|384:336,1,70,0|2,0:0|0:0,0:0:0:0:
365,337,55620,1,0,0:0:0:0:
328,176,55827,1,2,0:0:0:0:
328,176,55930,2,0,L|320:256,1,70,8|0,0:0|0:0,0:0:0:0:
464,304,56344,6,0,P|448:256|456:200,1,105,0|0,0:0|0:0,0:0:0:0:
454,202,56758,1,8,0:0:0:0:
504,96,56965,2,0,L|434:89,1,70,0|2,0:0|0:0,0:0:0:0:
434,89,57275,1,0,0:0:0:0:
324,44,57482,1,2,0:0:0:0:
324,44,57585,1,8,0:0:0:0:
240,104,57792,1,0,0:0:0:0:
104,72,57999,54,0,P|88:120|104:176,1,105,0|0,0:0|0:0,0:0:0:0:
101,171,58413,1,8,0:0:0:0:
216,280,58620,2,0,L|208:200,1,70,0|2,0:0|0:0,0:0:0:0:
240,104,59033,1,0,0:0:0:0:
125,273,59240,2,0,L|56:280,1,70,8|0,0:0|0:0,0:0:0:0:
296,328,59654,6,0,P|344:320|400:328,1,105,2|0,0:0|0:0,0:0:0:0:
399,327,60068,2,0,L|408:256,1,70,8|0,0:0|0:0,0:0:0:0:
312,128,60482,1,2,0:0:0:0:
312,128,60585,2,0,P|308:168|320:224,1,70,0|2,0:0|0:0,0:0:0:0:
311,197,60896,1,8,0:0:0:0:
464,80,61102,1,0,0:0:0:0:
464,80,61206,1,0,0:0:0:0:
464,80,61309,54,0,L|384:72,1,70,0|0,0:0|0:0,0:0:0:0:
304,32,61723,1,8,0:0:0:0:
120,160,61930,2,0,P|168:168|232:144,1,105,0|0,0:0|0:0,0:0:0:0:
220,151,62344,2,0,L|215:79,1,70,0|8,0:0|0:0,0:0:0:0:
128,32,62758,1,0,0:0:0:0:
64,256,62965,5,2,0:0:0:0:
64,256,63068,1,0,0:0:0:0:
160,312,63275,1,0,0:0:0:0:
160,312,63378,1,8,0:0:0:0:
64,368,63585,1,0,0:0:0:0:
160,312,63792,1,2,0:0:0:0:
160,312,63896,1,0,0:0:0:0:
344,360,64102,1,2,0:0:0:0:
344,360,64206,2,0,P|328:312|352:240,1,105,8|0,0:0|0:0,0:0:0:0:
338,259,64620,53,2,0:0:0:0:
432,136,64827,2,0,L|424:208,1,70,0|8,0:0|0:0,0:0:0:0:
493,297,65240,2,0,L|424:304,2,70,0|2|0,0:0|0:0|0:0,0:0:0:0:
272,176,65861,2,0,P|304:168|344:168,1,70,8|0,0:0|0:0,0:0:0:0:
216,80,66275,5,2,0:0:0:0:
216,80,66378,1,0,0:0:0:0:
116,116,66585,1,0,0:0:0:0:
116,116,66689,1,8,0:0:0:0:
172,208,66896,1,0,0:0:0:0:
116,116,67102,1,2,0:0:0:0:
116,116,67206,1,0,0:0:0:0:
64,348,67413,1,2,0:0:0:0:
64,348,67516,2,0,B|56:320|56:288|56:288|68:256|68:256|64:180,1,140,8|4,0:0|1:0,0:0:0:0:
76,96,81171,54,0,L|140:92,1,62.9999980773926,0|0,0:0|0:0,0:0:0:0:
208,136,81585,2,0,L|336:128,1,125.999996154785,2|0,0:0|0:0,0:0:0:0:
436,84,82206,2,0,P|436:120|440:156,1,62.9999980773926,0|2,0:0|0:0,0:0:0:0:
400,220,82620,2,0,L|396:292,1,62.9999980773926,0|0,0:0|0:0,0:0:0:0:
396,282,82930,1,0,0:0:0:0:
396,282,83033,6,0,P|360:292|316:280,1,62.9999980773926,2|0,0:0|0:0,0:0:0:0:
260,252,83447,1,0,0:0:0:0:
264,332,83654,2,0,P|208:320|128:328,1,125.999996154785,2|2,0:0|0:0,0:0:0:0:
64,360,84275,1,0,0:0:0:0:
8,248,84482,54,0,L|12:176,1,62.9999980773926,0|0,0:0|0:0,0:0:0:0:
4,104,84896,2,0,L|132:96,1,125.999996154785,2|0,0:0|0:0,0:0:0:0:
240,44,85516,1,0,0:0:0:0:
312,84,85723,2,0,L|396:88,1,62.9999980773926,2|0,0:0|0:0,0:0:0:0:
456,144,86137,5,0,0:0:0:0:
456,144,86240,1,0,0:0:0:0:
456,144,86344,2,0,P|460:184|448:224,1,62.9999980773926,2|0,0:0|0:0,0:0:0:0:
360,220,86758,1,0,0:0:0:0:
360,220,86965,2,0,L|280:208,1,62.9999980773926,2|0,0:0|0:0,0:0:0:0:
424,356,87378,2,0,L|416:284,1,62.9999980773926,2|0,0:0|0:0,0:0:0:0:
232,284,87792,54,0,P|176:276|96:284,1,125.999996154785,0|2,0:0|0:0,0:0:0:0:
48,184,88413,2,0,P|64:188|128:188,1,62.9999980773926
188,136,88827,1,0,0:0:0:0:
112,36,89033,2,0,L|104:108,1,62.9999980773926,2|0,0:0|0:0,0:0:0:0:
284,52,89447,5,0,0:0:0:0:
284,52,89551,1,0,0:0:0:0:
284,52,89654,2,0,P|248:48|212:48,1,62.9999980773926,2|0,0:0|0:0,0:0:0:0:
284,148,90068,2,0,L|296:212,1,62.9999980773926,0|2,0:0|0:0,0:0:0:0:
400,252,90482,1,0,0:0:0:0:
408,128,90689,2,0,L|419:66,1,62.9999980773926,2|0,0:0|0:0,0:0:0:0:
400,252,91102,54,0,P|400:288|412:316,1,62.9999980773926,0|0,0:0|0:0,0:0:0:0:
320,320,91516,2,0,L|192:316,1,125.999996154785,2|0,0:0|0:0,0:0:0:0:
194,316,92137,1,0,0:0:0:0:
116,232,92344,1,2,0:0:0:0:
72,332,92551,2,0,P|36:328|-4:328,1,62.9999980773926,0|0,0:0|0:0,0:0:0:0:
9,327,92861,1,0,0:0:0:0:
9,327,92965,6,0,L|0:256,1,62.9999980773926,2|0,0:0|0:0,0:0:0:0:
32,156,93378,1,0,0:0:0:0:
179,236,93585,2,0,L|115:232,1,62.9999980773926,2|0,0:0|0:0,0:0:0:0:
328,172,93999,2,0,P|336:224|344:264,1,62.9999980773926,2|0,0:0|0:0,0:0:0:0:
388,80,94413,53,4,1:0:0:0:
369,70,94516,1,0,0:0:0:0:
348,65,94620,1,0,0:0:0:0:
327,63,94723,1,0,0:0:0:0:
307,66,94827,1,0,0:0:0:0:
287,72,94930,1,0,0:0:0:0:
268,83,95033,1,8,0:0:0:0:
252,96,95137,1,0,0:0:0:0:
239,112,95240,5,0,0:0:0:0:
224,132,95344,1,0,0:0:0:0:
204,144,95447,1,8,0:0:0:0:
180,148,95551,1,0,0:0:0:0:
156,148,95654,1,0,0:0:0:0:
132,140,95758,1,0,0:0:0:0:
112,128,95861,1,0,0:0:0:0:
96,112,95965,1,0,0:0:0:0:
88,88,96068,54,0,L|92:40,3,35,0|0|0|0,0:0|0:0|0:0|0:0,0:0:0:0:
28,132,96482,2,0,L|-16:128,3,35,8|0|0|0,0:0|0:0|0:0|0:0,0:0:0:0:
52,212,96896,2,0,L|-8:220,3,35,0|0|0|0,0:0|0:0|0:0|0:0,0:0:0:0:
96,284,97309,2,0,L|32:300,3,35,8|0|0|0,0:0|0:0|0:0|0:0,0:0:0:0:
127,294,97723,5,4,0:0:0:0:
150,278,97827,1,0,0:0:0:0:
176,268,97930,1,0,0:0:0:0:
204,266,98033,1,0,0:0:0:0:
231,270,98137,1,0,0:0:0:0:
257,281,98240,1,0,0:0:0:0:
279,298,98344,1,8,0:0:0:0:
304,312,98447,1,0,0:0:0:0:
332,312,98551,53,0,0:0:0:0:
356,296,98654,1,0,0:0:0:0:
372,324,98758,1,8,0:0:0:0:
400,340,98861,1,0,0:0:0:0:
432,340,98965,1,0,0:0:0:0:
460,324,99068,1,0,0:0:0:0:
476,296,99171,1,0,0:0:0:0:
476,264,99275,1,0,0:0:0:0:
476,228,99378,6,0,L|480:168,3,35,0|0|0|0,0:0|0:0|0:0|0:0,0:0:0:0:
380,184,99792,2,0,L|384:228,3,35,8|0|0|0,0:0|0:0|0:0|0:0,0:0:0:0:
440,124,100206,2,0,L|444:64,3,35,0|0|0|0,0:0|0:0|0:0|0:0,0:0:0:0:
356,65,100620,2,0,L|360:100,3,35,8|0|0|0,0:0|0:0|0:0|0:0,0:0:0:0:
316,88,101033,5,4,0:0:0:0:
284,72,101137,1,0,0:0:0:0:
248,64,101240,1,0,0:0:0:0:
212,68,101344,1,0,0:0:0:0:
180,84,101447,1,0,0:0:0:0:
152,104,101551,1,0,0:0:0:0:
116,112,101654,1,8,0:0:0:0:
80,104,101758,1,0,0:0:0:0:
56,80,101861,21,0,0:0:0:0:
68,116,101965,1,0,0:0:0:0:
64,156,102068,1,8,0:0:0:0:
44,188,102171,1,0,0:0:0:0:
64,220,102275,1,0,0:0:0:0:
44,256,102378,1,0,0:0:0:0:
48,296,102482,1,0,0:0:0:0:
72,328,102585,1,0,0:0:0:0:
108,340,102689,38,0,L|172:336,3,35,0|0|0|0,0:0|0:0|0:0|0:0,0:0:0:0:
204,284,103102,2,0,L|200:224,3,35,8|0|0|0,0:0|0:0|0:0|0:0,0:0:0:0:
288,312,103516,2,0,L|284:360,3,35,0|0|0|0,0:0|0:0|0:0|0:0,0:0:0:0:
368,252,103930,2,0,L|364:188,1,35,8|0,0:0|0:0,0:0:0:0:
460,312,104137,2,0,L|462:346,1,35
480,188,104344,22,0,L|484:160,32,17.5,0|0|0|0|0|0|0|0|0|0|0|0|0|0|0|0|0|0|0|0|0|0|0|0|0|0|0|0|0|0|0|0|4,0:0|0:0|0:0|0:0|0:0|0:0|0:0|0:0|0:0|0:0|0:0|0:0|0:0|0:0|0:0|0:0|0:0|0:0|0:0|0:0|0:0|0:0|0:0|0:0|0:0|0:0|0:0|0:0|0:0|0:0|0:0|0:0|1:0,1:0:0:0:
480,188,106620,38,0,L|340:172,1,140,0|2,0:0|0:0,0:0:0:0:
272,92,107240,2,0,L|196:96,1,70,0|2,0:0|0:0,0:0:0:0:
60,104,107654,5,4,1:0:0:0:
256,192,119861,12,4,120896,1:0:0:0:
72,88,121102,54,0,L|80:172,1,62.9999980773926,0|2,0:0|0:0,0:0:0:0:
164,112,121516,1,0,0:0:0:0:
24,228,121723,1,2,0:0:0:0:
236,172,121930,2,0,P|256:104|228:40,1,125.999996154785,0|0,0:0|0:0,0:0:0:0:
296,248,122551,54,0,P|284:304|312:356,1,94.499997116089,2|0,0:0|0:0,0:0:0:0:
296,337,122965,2,0,L|388:348,1,62.9999980773926,2|0,0:0|0:0,0:0:0:0:
372,192,123378,2,0,L|364:108,1,62.9999980773926,0|0,0:0|0:0,0:0:0:0:
416,272,123792,1,8,0:0:0:0:
476,168,123999,1,0,0:0:0:0:
200,324,124206,6,0,L|128:320,1,62.9999980773926
48,272,124620,1,2,0:0:0:0:
124,164,124827,2,0,L|132:232,1,62.9999980773926,0|2,0:0|0:0,0:0:0:0:
4,184,125240,2,0,P|16:124|0:56,1,125.999996154785,0|0,0:0|0:0,0:0:0:0:
168,56,125861,54,0,P|104:60|76:64,1,62.9999980773926,2|0,0:0|0:0,0:0:0:0:
280,220,126275,1,2,0:0:0:0:
364,152,126482,1,0,0:0:0:0:
260,112,126689,2,0,L|264:40,1,62.9999980773926
364,152,127102,2,0,L|368:80,1,62.9999980773926,8|0,0:0|0:0,0:0:0:0:
380,256,127516,6,0,P|368:304|400:372,1,125.999996154785,4|2,1:0|0:0,0:0:0:0:
464,300,128137,1,0,0:0:0:0:
272,328,128344,2,0,L|200:316,1,62.9999980773926,2|0,0:0|0:0,0:0:0:0:
100,284,128758,2,0,L|108:372,1,62.9999980773926,0|0,0:0|0:0,0:0:0:0:
184,208,129171,53,2,0:0:0:0:
112,136,129378,2,0,P|84:132|40:132,1,62.9999980773926,0|2,0:0|0:0,0:0:0:0:
208,48,129792,2,0,P|204:84|216:120,1,62.9999980773926,0|0,0:0|0:0,0:0:0:0:
210,109,130102,1,0,0:0:0:0:
210,109,130206,2,0,L|279:103,1,62.9999980773926,0|2,0:0|0:0,0:0:0:0:
376,40,130620,1,0,0:0:0:0:
472,124,130827,5,4,0:0:0:0:
470,149,130930,1,0,0:0:0:0:
468,174,131033,1,0,0:0:0:0:
466,199,131137,1,0,0:0:0:0:
444,218,131240,21,0,0:0:0:0:
441,246,131344,1,0,0:0:0:0:
438,274,131447,1,0,0:0:0:0:
435,302,131551,1,0,0:0:0:0:
446,331,131654,21,4,1:0:0:0:
419,314,131758,1,0,0:0:0:0:
388,305,131861,1,0,0:0:0:0:
356,306,131965,1,0,0:0:0:0:
330,287,132068,53,0,0:0:0:0:
300,311,132171,1,0,0:0:0:0:
264,322,132275,1,0,0:0:0:0:
226,319,132378,1,0,0:0:0:0:
192,301,132482,38,0,L|167:303,6,15.7499995193482,4|0|0|0|0|0|0,2:0|0:0|0:0|0:0|0:0|0:0|0:0,0:0:0:0:
160,324,132896,2,0,L|135:326,6,15.7499995193482,4|0|0|0|0|0|0,2:0|0:0|0:0|0:0|0:0|0:0|0:0,0:0:0:0:
120,288,133309,2,0,L|95:290,6,15.7499995193482,4|0|0|0|0|0|0,2:0|0:0|0:0|0:0|0:0|0:0|0:0,0:0:0:0:
68,240,133723,2,0,L|43:242,6,15.7499995193482,4|0|0|0|0|0|0,2:0|0:0|0:0|0:0|0:0|0:0|0:0,0:0:0:0:
68,240,134137,54,0,P|64:176|76:104,1,115.50000352478,4|0,1:0|0:0,0:0:0:0:
70,125,134551,1,2,0:0:0:0:
168,72,134758,2,0,L|248:64,1,77.0000023498536,0|10,0:0|0:0,0:0:0:0:
460,236,135171,2,0,P|376:200|316:208,1,154.000004699707,0|0,0:0|0:0,0:0:0:0:
315,208,135689,1,0,0:0:0:0:
315,208,135792,22,0,L|307:115,1,77.0000023498536,2|0,0:0|0:0,0:0:0:0:
476,48,136206,2,0,L|482:124,1,77.0000023498536,2|0,0:0|0:0,0:0:0:0:
460,236,136620,1,8,0:0:0:0:
184,348,136827,1,0,0:0:0:0:
184,348,136930,1,0,0:0:0:0:
184,348,137033,1,8,0:0:0:0:
208,240,137240,1,0,0:0:0:0:
292,316,137447,38,0,L|368:312,1,77.0000023498536,0|0,0:0|0:0,0:0:0:0:
112,280,137861,2,0,P|72:268|0:272,1,115.50000352478,2|0,0:0|0:0,0:0:0:0:
0,272,138275,2,0,L|8:184,1,77.0000023498536,10|0,0:0|0:0,0:0:0:0:
176,72,138689,2,0,L|80:84,1,77.0000023498536,0|0,0:0|0:0,0:0:0:0:
99,81,138999,1,0,0:0:0:0:
99,81,139102,21,2,0:0:0:0:
264,124,139309,2,0,P|304:120|344:120,1,77.0000023498536,0|2,0:0|0:0,0:0:0:0:
432,64,139723,1,0,0:0:0:0:
444,252,139930,2,0,L|436:172,1,77.0000023498536,8|0,0:0|0:0,0:0:0:0:
264,288,140344,2,0,P|300:295|360:283,1,77.0000023498536,8|0,0:0|0:0,0:0:0:0:
20,348,140758,38,0,P|106:320|166:332,1,154.000004699707,0|2,0:0|0:0,0:0:0:0:
176,232,141378,2,0,L|168:144,1,77.0000023498536,0|10,0:0|0:0,0:0:0:0:
216,64,141792,1,0,0:0:0:0:
336,104,141999,2,0,P|344:144|332:188,1,77.0000023498536
336,178,142309,1,0,0:0:0:0:
336,178,142413,22,0,L|256:188,1,77.0000023498536,2|0,0:0|0:0,0:0:0:0:
108,56,142827,1,2,0:0:0:0:
64,256,143033,2,0,L|60:172,1,77.0000023498536,0|8,0:0|0:0,0:0:0:0:
216,64,143447,1,0,0:0:0:0:
252,288,143654,2,0,L|244:384,1,77.0000023498536,8|0,0:0|0:0,0:0:0:0:
416,348,144068,38,0,P|396:284|416:204,1,115.50000352478,0|0,0:0|0:0,0:0:0:0:
401,236,144482,1,2,0:0:0:0:
480,96,144689,2,0,L|488:176,1,77.0000023498536,0|10,0:0|0:0,0:0:0:0:
388,20,145102,1,0,0:0:0:0:
500,280,145309,1,0,0:0:0:0:
368,136,145516,1,0,0:0:0:0:
368,136,145620,1,0,0:0:0:0:
368,136,145723,2,0,P|324:128|240:136,1,115.50000352478,2|0,0:0|0:0,0:0:0:0:
253,132,146137,1,2,0:0:0:0:
148,164,146344,5,0,0:0:0:0:
180,268,146551,1,8,0:0:0:0:
148,164,146758,1,0,0:0:0:0:
284,236,146965,1,8,0:0:0:0:
253,132,147171,1,0,0:0:0:0:
76,288,147378,6,0,L|0:296,1,77.0000023498536,4|0,1:0|0:0,0:0:0:0:
148,164,147792,2,0,P|88:164|28:128,1,115.50000352478,2|0,0:0|0:0,0:0:0:0:
39,139,148206,2,0,L|48:52,1,77.0000023498536,10|0,0:0|0:0,0:0:0:0:
180,268,148620,2,0,L|188:344,1,77.0000023498536
188,344,148930,1,0,0:0:0:0:
188,344,149033,38,0,P|264:360|332:312,1,154.000004699707,2|2,0:0|0:0,0:0:0:0:
408,208,149654,2,0,L|416:312,1,77.0000023498536,0|8,0:0|0:0,0:0:0:0:
240,144,150068,2,0,P|256:140|328:140,1,77.0000023498536,0|8,0:0|0:0,0:0:0:0:
420,96,150482,1,0,0:0:0:0:
144,180,150689,22,0,L|148:100,1,77.0000023498536,0|0,0:0|0:0,0:0:0:0:
36,208,151102,2,0,P|28:276|60:332,1,115.50000352478,2|0,0:0|0:0,0:0:0:0:
46,317,151516,2,0,L|132:312,1,77.0000023498536,10|0,0:0|0:0,0:0:0:0:
336,268,151930,1,0,0:0:0:0:
256,340,152137,1,0,0:0:0:0:
256,340,152240,1,0,0:0:0:0:
256,340,152344,37,2,0:0:0:0:
236,236,152551,1,0,0:0:0:0:
360,368,152758,1,2,0:0:0:0:
316,168,152965,2,0,P|360:156|432:156,1,115.50000352478,0|0,0:0|0:0,0:0:0:0:
429,155,153378,1,0,0:0:0:0:
208,56,153585,2,0,L|300:64,1,77.0000023498536,8|0,0:0|0:0,0:0:0:0:
72,164,153999,37,0,0:0:0:0:
176,160,154206,1,0,0:0:0:0:
244,296,154413,1,2,0:0:0:0:
140,300,154620,1,0,0:0:0:0:
285,62,154827,5,10,0:0:0:0:
389,58,155033,1,0,0:0:0:0:
448,224,155240,1,0,0:0:0:0:
344,228,155447,1,0,0:0:0:0:
480,120,155654,5,2,0:0:0:0:
480,120,155861,1,0,0:0:0:0:
256,192,156068,1,2,0:0:0:0:
256,192,156275,1,0,0:0:0:0:
32,264,156482,21,8,0:0:0:0:
32,264,156689,1,0,0:0:0:0:
256,192,156896,1,8,0:0:0:0:
256,192,157102,1,0,0:0:0:0:
396,52,157309,5,0,0:0:0:0:
399,82,157413,1,0,0:0:0:0:
402,112,157516,1,0,0:0:0:0:
405,142,157620,1,0,0:0:0:0:
426,164,157723,5,0,0:0:0:0:
431,198,157827,1,0,0:0:0:0:
436,232,157930,1,0,0:0:0:0:
441,266,158033,1,0,0:0:0:0:
462,302,158137,5,0,0:0:0:0:
423,283,158240,1,0,0:0:0:0:
380,282,158344,1,0,0:0:0:0:
341,300,158447,1,0,0:0:0:0:
296,290,158551,21,0,0:0:0:0:
267,327,158654,1,0,0:0:0:0:
223,340,158758,1,0,0:0:0:0:
178,328,158861,1,0,0:0:0:0:
152,288,158965,22,0,L|124:292,32,19.2500005874634,0|0|0|0|0|0|0|0|0|0|0|0|0|0|0|0|0|0|0|0|0|0|0|0|0|0|0|0|0|0|0|0|4,0:0|0:0|0:0|0:0|0:0|0:0|0:0|0:0|0:0|0:0|0:0|0:0|0:0|0:0|0:0|0:0|0:0|0:0|0:0|0:0|0:0|0:0|0:0|0:0|0:0|0:0|0:0|0:0|0:0|0:0|0:0|0:0|0:0,0:0:0:0:
