osu file format v12

[General]
AudioFilename: Infected Mushroom - Becoming Insane.mp3
AudioLeadIn: 0
PreviewTime: 106620
Countdown: 0
SampleSet: Soft
StackLeniency: 0.7
Mode: 0
LetterboxInBreaks: 0
EpilepsyWarning: 1
WidescreenStoryboard: 1

[Editor]
Bookmarks: 1697,14938,28179,41421,54662,67903,81145,94386,107628,120869,134110,147352,160593
DistanceSpacing: 1.2
BeatDivisor: 4
GridSize: 8

[Metadata]
Title:Becoming Insane
TitleUnicode:Becoming Insane
Artist:Infected Mushroom
ArtistUnicode:Infected Mushroom
Creator:Nemis
Version:LC
Source:
Tags:La Cataline Reiji-RJ Vicious Delicious Alternative Rock Better Than LSD Electro Electronic Trance Guitar House Hypnotic Psytrance Psy Goa Psychedelic Rave Spanish Techno
BeatmapID:249438
BeatmapSetID:92235

[Difficulty]
HPDrainRate:7
CircleSize:4
OverallDifficulty:7
ApproachRate:8
SliderMultiplier:1.4
SliderTickRate:2

[Events]
//Background and Video events
0,0,"bg.jpg",0,0
//Break Periods
2,68130,79387
2,108241,119111
//Storyboard Layer 0 (Background)
//Storyboard Layer 1 (Fail)
//Storyboard Layer 2 (Pass)
//Storyboard Layer 3 (Foreground)
//Storyboard Sound Samples
//Background Colour Transformations
3,100,0,0,0

[TimingPoints]
14965.4137931034,413.793103448276,4,2,0,40,1,0
26551,-100,4,1,1,60,0,0
27689,-100,4,1,1,20,0,0
27861,-100,4,1,1,30,0,0
27930,-100,4,1,1,40,0,0
27999,-100,4,1,1,50,0,0
28068,-100,4,1,1,60,0,0
28137,-100,4,1,1,70,0,0
28206,-100,4,1,1,80,0,0
28517,-100,4,2,1,60,0,0
29137,-100,4,1,1,50,0,0
29655,-100,4,2,1,60,0,0
32448,-100,4,1,1,40,0,0
32655,-100,4,2,1,60,0,0
34206,-100,4,1,1,60,0,0
34620,-100,4,2,1,60,0,0
35861,-100,4,1,1,40,0,0
35965,-100,4,2,1,60,0,0
37517,-100,4,1,1,60,0,0
37724,-100,4,2,1,60,0,0
39792,-100,4,1,1,70,0,0
40930,-100,4,1,1,15,0,0
41103,-100,4,1,1,25,0,0
41172,-100,4,1,1,30,0,0
41241,-100,4,1,1,35,0,0
41310,-100,4,1,1,40,0,0
41379,-100,4,1,1,45,0,0
41448,-100,4,1,1,70,0,0
41758,-100,4,2,1,70,0,0
41861,-100,4,1,1,70,0,0
42275,-100,4,2,1,70,0,0
42379,-100,4,1,1,60,0,0
42586,-100,4,1,1,70,0,0
43413,-100,4,2,1,70,0,0
43517,-100,4,1,1,70,0,0
43827,-100,4,2,1,70,0,0
44034,-100,4,1,1,60,0,0
44241,-100,4,1,1,70,0,0
45068,-100,4,2,1,70,0,0
45172,-100,4,1,1,70,0,0
45482,-100,4,2,1,70,0,0
45689,-100,4,1,1,60,0,0
45896,-100,4,1,1,70,0,0
46724,-100,4,2,1,70,0,0
46827,-100,4,1,1,70,0,0
47137,-100,4,2,1,70,0,0
47448,-100,4,1,1,60,0,0
47551,-100,4,1,1,40,0,0
48068,-100,4,1,1,70,0,0
48379,-100,4,2,1,70,0,0
48482,-100,4,1,1,70,0,0
49103,-100,4,1,1,60,0,0
49206,-100,4,1,1,70,0,0
49930,-100,4,2,1,70,0,0
50034,-100,4,1,1,70,0,0
50448,-100,4,2,1,70,0,0
50655,-100,4,1,1,70,0,0
50861,-100,4,1,1,60,0,0
51689,-100,4,2,1,70,0,0
51792,-100,4,1,1,70,0,0
52103,-100,4,2,1,70,0,0
52310,-100,4,1,1,60,0,0
52517,-100,4,2,1,70,0,0
52620,-100,4,1,1,70,0,0
53241,-100,4,2,1,70,0,0
53344,-100,4,1,1,70,0,0
53758,-100,4,2,1,70,0,0
53965,-100,4,1,1,60,0,0
54172,-100,4,1,1,70,0,0
54792,-100,4,2,1,70,0,0
60792,-100,4,1,1,20,0,0
60896,-100,4,1,1,40,0,0
61413,-100,4,2,1,70,0,0
67930,-100,4,2,0,40,0,0
79930,-133.333333333333,4,2,1,30,0,0
81172,-100,4,2,1,40,0,0
85517,-100,4,1,1,20,0,0
86034,-100,4,2,0,30,0,0
86241,-100,4,2,1,40,0,0
90172,-100,4,2,1,30,0,0
90586,-100,4,2,1,35,0,0
90999,-100,4,2,1,40,0,0
91620,-100,4,1,1,30,0,0
92137,-100,4,2,1,30,0,0
92448,-100,4,2,1,40,0,0
93896,-100,4,2,1,50,0,0
94413,-100,4,1,1,60,0,0
94517,-100,4,1,1,20,0,0
94827,-100,4,1,1,30,0,0
95551,-100,4,1,0,30,0,0
98965,-100,4,1,0,35,0,0
100206,-100,4,1,0,37,0,0
102275,-100,4,1,0,39,0,0
102689,-100,4,1,0,41,0,0
103103,-100,4,1,0,45,0,0
103517,-100,4,1,0,50,0,0
103930,-100,4,1,0,55,0,0
104344,-100,4,1,0,60,0,0
107655,-100,4,1,1,70,0,0
120999,-100,4,2,1,40,0,0
127413,-100,4,1,1,40,0,0
127930,-100,4,1,1,42,0,0
128344,-100,4,1,1,44,0,0
128758,-100,4,1,1,48,0,0
129172,-100,4,1,1,52,0,0
129586,-100,4,1,1,56,0,0
129999,-100,4,1,1,60,0,0
130413,-100,4,1,1,65,0,0
130827,-100,4,1,1,70,0,0
131241,-100,4,1,1,75,0,0
131655,-100,4,1,1,80,0,0
132068,-100,4,1,1,85,0,0
132430,-100,4,2,0,55,0,0
132534,-100,4,1,1,85,0,0
132896,-100,4,2,0,75,0,0
132948,-100,4,1,1,85,0,0
133310,-100,4,2,0,85,0,0
133361,-100,4,1,1,85,0,0
133724,-100,4,2,0,95,0,0
133775,-100,4,1,1,85,0,0
134137,-83.3333333333333,4,1,1,80,0,1
146241,-66.6666666666667,4,1,1,80,0,1
147275,-76.9230769230769,4,1,1,80,0,0
147379,-76.9230769230769,4,1,1,80,0,1
158965,-76.9230769230769,4,2,0,70,0,1
159017,-76.9230769230769,4,1,1,70,0,1
159379,-76.9230769230769,4,2,0,70,0,1
159430,-76.9230769230769,4,1,1,70,0,1
159793,-76.9230769230769,4,2,0,70,0,1
159844,-76.9230769230769,4,1,1,70,0,1
160206,-76.9230769230769,4,2,0,70,0,1
160258,-76.9230769230769,4,1,1,70,0,1
160620,-76.9230769230769,4,1,1,100,0,0

[Colours]
Combo1 : 183,0,0
Combo2 : 0,255,255
Combo3 : 177,100,255
Combo4 : 227,13,131
Combo5 : 255,242,242

[HitObjects]
111,158,14965,2,0,B|216:152,1,105,4|0,0:0|0:0,0:0:0:0:
216,152,15379,1,0,0:0:0:0:
336,144,15586,2,0,B|344:176|344:216,1,70,2|0,0:0|0:0,0:0:0:0:
392,328,15999,1,0,0:0:0:0:
303,294,16206,2,0,B|224:280|176:336,1,140,8|8,0:0|0:0,0:0:0:0:
376,232,16827,2,0,B|432:184|416:96,1,140,8|2,0:0|0:0,0:0:0:0:
368,32,17448,2,0,B|272:40,1,70,0|0,0:0|0:0,0:0:0:0:
184,40,17861,1,8,0:0:0:0:
288,176,18275,6,0,B|168:184,1,105,0|8,0:0|0:0,0:0:0:0:
183,182,18689,1,0,0:0:0:0:
48,192,18896,2,0,B|56:160|56:120,1,70,2|0,0:0|0:0,0:0:0:0:
32,32,19310,1,0,0:0:0:0:
216,88,19517,2,0,B|304:80,1,70,8|0,0:0|0:0,0:0:0:0:
416,56,19930,2,0,B|421:128|424:208,1,140,8|0,0:0|0:0,0:0:0:0:
432,304,20551,1,2,0:0:0:0:
312,296,20758,2,0,B|239:290|160:288,1,140,8|2,0:0|0:0,0:0:0:0:
172,288,21586,53,8,0:0:0:0:
40,216,21792,2,0,B|32:248,3,23.3333333333333,0|0|0|0,0:0|0:0|0:0|0:0,0:0:0:0:
165,126,22206,2,0,B|130:122|96:112,1,70,8|0,0:0|0:0,0:0:0:0:
240,208,22620,1,8,0:0:0:0:
248,56,22827,1,0,0:0:0:0:
312,136,23034,2,0,B|352:128|392:128,1,70,2|8,0:0|0:0,0:0:0:0:
496,112,23448,2,0,B|502:179|486:251,1,140,8|0,0:0|0:0,0:0:0:0:
464,352,24068,1,4,0:0:0:0:
464,352,24482,1,8,0:0:0:0:
368,328,24689,1,0,0:0:0:0:
256,312,24896,5,8,0:0:0:0:
160,320,25103,2,0,B|128:312,3,23.3333333333333
192,208,25517,2,0,B|196:171|200:136,1,70,8|0,0:0|0:0,0:0:0:0:
64,40,25930,2,0,B|56:69|56:109,1,70,0|8,0:0|0:0,0:0:0:0:
56,248,26344,1,0,0:0:0:0:
192,208,26551,1,0,0:0:0:0:
448,112,27792,2,0,B|465:115,7,17.5
448,112,28206,54,0,B|321:107,1,105,4|0,0:0|0:0,0:0:0:0:
343,107,28620,1,8,0:0:0:0:
104,80,28827,2,0,B|96:120|96:160,1,70,0|0,0:0|1:0,0:0:0:0:
96,256,29241,2,0,B|256:248,1,140,2|0,0:0|0:0,0:0:0:0:
448,280,29861,2,0,B|472:232|464:168,1,105,0|0,1:0|1:0,0:0:0:0:
465,177,30275,2,0,B|384:184,1,70,0|0,0:0|1:0,0:0:0:0:
208,104,30689,2,0,B|368:96,1,140,0|8,1:0|1:0,0:0:0:0:
347,97,31310,1,0,0:0:0:0:
87,113,31517,6,0,B|72:168|96:216,1,105,0|0,1:0|1:0,0:0:0:0:
95,215,31930,2,0,B|192:208,1,70,8|0,0:0|1:0,0:0:0:0:
296,232,32344,1,0,0:0:0:0:
416,264,32551,1,2,0:0:0:0:
344,96,32758,1,8,0:0:0:0:
224,64,32965,1,0,0:0:0:0:
344,96,33172,2,0,B|398:80|446:104,1,105,0|0,1:0|1:0,0:0:0:0:
446,105,33586,2,0,B|438:201,1,70,0|0,0:0|1:0,0:0:0:0:
296,232,33999,2,2,B|224:240|144:248,1,140,0|8,1:0|1:0,0:0:0:0:
156,246,34620,1,0,0:0:0:0:
136,48,34827,54,0,B|144:136,1,70,0|2,1:0|0:0,0:0:0:0:
142,117,35137,1,0,1:0:0:0:
142,117,35241,1,8,0:0:0:0:
47,213,35448,2,0,B|45:285|64:352,1,140,0|2,1:0|0:0,0:0:0:0:
168,288,36068,1,8,0:0:0:0:
168,288,36275,2,0,B|256:280,1,70,2|0,0:0|1:0,0:0:0:0:
424,176,36689,1,0,0:0:0:0:
424,176,36792,2,4,B|304:192,1,105,0|0,1:0|1:0,0:0:0:0:
136,96,37310,2,6,B|296:80,1,140,0|8,1:0|1:0,0:0:0:0:
392,56,37930,1,2,0:0:0:0:
424,176,38137,6,0,B|440:224|432:288,1,105,0|0,1:0|1:0,0:0:0:0:
432,279,38551,1,8,0:0:0:0:
288,344,38758,2,0,B|360:340,1,70,0|0,1:0|0:0,0:0:0:0:
200,256,39172,1,0,1:0:0:0:
200,256,39275,1,0,0:0:0:0:
200,256,39379,2,2,B|48:264,1,140,8|0,0:0|0:0,0:0:0:0:
60,263,41034,2,0,B|48:296,5,23.3333333333333,0|0|0|0|0|0,0:0|0:0|0:0|0:0|0:0|0:0,0:0:0:0:
60,263,41448,54,0,B|88:216|64:144,1,105,4|0,0:0|0:0,0:0:0:0:
69,161,41861,1,8,0:0:0:0:
240,232,42068,2,0,B|200:232|168:208,1,70
416,344,42482,2,0,B|352:320|264:328,1,140,2|0,0:0|0:0,0:0:0:0:
344,208,43103,2,0,B|316:160|344:88,1,105
337,106,43517,1,8,0:0:0:0:
376,8,43724,1,0,0:0:0:0:
337,106,43930,1,0,0:0:0:0:
232,152,44137,2,0,B|165:172|93:148,1,140,2|0,0:0|0:0,0:0:0:0:
24,312,44758,6,0,B|64:271|117:268,1,105
116,267,45172,2,0,B|144:288|200:304,1,70,8|0,0:0|0:0,0:0:0:0:
288,328,45586,1,0,0:0:0:0:
288,328,45792,1,2,0:0:0:0:
352,240,45999,1,0,0:0:0:0:
288,328,46206,1,0,0:0:0:0:
352,240,46413,2,0,B|406:256|454:232,1,105
454,231,46827,2,0,B|464:136,1,70,8|0,0:0|0:0,0:0:0:0:
288,48,47241,2,0,B|278:143,1,70,0|2,0:0|0:0,0:0:0:0:
104,208,47655,2,0,B|104:192,7,17.5
104,208,48068,54,0,B|112:96,1,105,0|0,0:0|0:0,0:0:0:0:
111,103,48482,1,8,0:0:0:0:
96,320,48689,2,0,B|163:301|235:304,1,140,0|2,0:0|0:0,0:0:0:0:
336,304,49310,1,8,0:0:0:0:
424,336,49517,1,0,0:0:0:0:
336,304,49724,2,0,B|342:234,1,70,0|0,0:0|0:0,0:0:0:0:
344,192,50034,2,0,B|392:192|456:184,1,105
248,112,50551,1,0,0:0:0:0:
248,112,50758,2,0,B|184:120|104:120,1,140,2|0,0:0|0:0,0:0:0:0:
48,296,51379,6,0,B|96:280|160:288,1,105,0|0,0:0|0:0,0:0:0:0:
176,296,51792,1,8,0:0:0:0:
248,192,51999,1,0,0:0:0:0:
336,280,52206,1,0,0:0:0:0:
272,376,52413,1,2,0:0:0:0:
272,376,52517,1,0,0:0:0:0:
272,376,52620,2,0,B|360:368,1,70,8|0,0:0|0:0,0:0:0:0:
248,192,53034,2,0,B|256:104,1,70,0|0,0:0|0:0,0:0:0:0:
256,96,53344,2,0,B|303:97|360:88,1,105
472,64,53861,1,0,0:0:0:0:
472,64,54068,2,0,B|480:128|480:208,1,140,2|0,0:0|0:0,0:0:0:0:
504,368,54689,53,12,0:0:0:0:
200,160,54999,1,0,0:0:0:0:
200,160,55103,1,8,0:0:0:0:
112,112,55310,1,0,0:0:0:0:
88,208,55517,1,2,0:0:0:0:
88,208,55620,2,0,B|64:288,1,70,0|0,0:0|0:0,0:0:0:0:
176,304,55930,2,0,B|256:328,1,70,8|0,0:0|0:0,0:0:0:0:
400,360,56344,6,0,B|416:312|400:248,1,105,2|0,0:0|0:0,0:0:0:0:
401,256,56758,1,8,0:0:0:0:
288,200,56965,1,0,0:0:0:0:
336,88,57172,1,2,0:0:0:0:
336,88,57275,2,0,B|248:80,1,70
152,64,57586,2,0,B|144:96|144:152,1,70,8|0,0:0|0:0,0:0:0:0:
260,262,57999,54,0,B|400:256,1,140,2|8,0:0|0:0,0:0:0:0:
136,272,58827,1,2,0:0:0:0:
136,272,58930,2,0,B|152:352,1,70
248,240,59241,2,0,B|232:160,1,70,8|0,0:0|0:0,0:0:0:0:
16,288,59655,5,2,0:0:0:0:
88,104,59965,1,0,0:0:0:0:
88,104,60068,1,8,0:0:0:0:
192,88,60275,1,0,0:0:0:0:
288,72,60482,1,2,0:0:0:0:
288,72,60586,2,0,B|368:56,1,70
448,32,60896,2,0,B|475:20,8,17.5
480,208,61620,53,0,0:0:0:0:
480,208,61724,1,8,0:0:0:0:
456,312,61930,1,0,0:0:0:0:
352,288,62137,1,2,0:0:0:0:
352,288,62241,2,0,B|272:264,1,70,0|0,0:0|0:0,0:0:0:0:
160,256,62551,2,0,B|152:288|160:344,1,70,8|0,0:0|0:0,0:0:0:0:
232,160,62965,2,0,B|240:128|232:72,1,70,2|0,0:0|0:0,0:0:0:0:
234,90,63275,1,0,0:0:0:0:
234,90,63379,1,8,0:0:0:0:
80,96,63586,1,0,0:0:0:0:
336,152,63792,1,2,0:0:0:0:
336,152,63896,2,0,B|424:144,1,70
448,240,64206,2,0,B|360:248,1,70,8|0,0:0|0:0,0:0:0:0:
240,344,64620,6,0,B|379:337,1,140,2|8,0:0|0:0,0:0:0:0:
128,232,65448,1,2,0:0:0:0:
128,232,65551,2,0,B|112:152,1,70
224,152,65861,2,0,B|296:152,1,70,8|0,0:0|0:0,0:0:0:0:
424,144,66275,53,2,0:0:0:0:
352,320,66586,1,0,0:0:0:0:
352,320,66689,1,8,0:0:0:0:
256,328,66896,1,0,0:0:0:0:
160,336,67103,2,0,B|0:336,2,140,2|8|4,0:0|0:0|0:0,0:0:0:0:
111,238,80137,6,0,B|216:232,1,105.000004005432
336,216,80758,1,2,0:0:0:0:
216,232,80965,1,0,0:0:0:0:
336,216,81172,54,0,B|416:224,1,70,2|0,0:0|0:0,0:0:0:0:
216,232,81586,2,0,B|216:152|224:72,2,140,0|2|0,0:0|0:0|0:0,0:0:0:0:
336,216,82620,2,0,B|328:304,1,70,2|0,0:0|0:0,0:0:0:0:
208,360,83034,2,0,B|64:365,1,140
32,272,83655,2,0,B|112:268,1,70,2|0,0:0|0:0,0:0:0:0:
256,280,84068,2,0,B|325:286,1,70,0|0,0:0|0:0,0:0:0:0:
456,312,84482,6,0,B|472:248|472:144,1,140,2|0,0:0|0:0,0:0:0:0:
471,173,85103,2,0,B|328:152,1,140,2|0,0:0|0:0,0:0:0:0:
184,120,85724,1,0,0:0:0:0:
320,112,85930,1,2,0:0:0:0:
328,248,86137,1,2,0:0:0:0:
192,256,86344,1,0,0:0:0:0:
184,120,86551,1,0,0:0:0:0:
192,256,86758,2,0,B|128:216|40:256,1,140,2|2,0:0|0:0,0:0:0:0:
328,248,87379,2,0,B|392:224,1,70,0|0,1:0|0:0,0:0:0:0:
416,312,87792,54,0,B|283:358,1,140,0|2,1:0|0:0,0:0:0:0:
195,294,88413,2,0,B|328:248,1,140,0|0,1:0|0:0,0:0:0:0:
464,200,89034,1,4,0:0:0:0:
328,248,89241,2,0,B|313:167|336:96,1,140,2|0,0:0|1:0,0:0:0:0:
240,40,89861,2,0,B|224:64|200:96,1,70,2|2,0:0|0:0,0:0:0:0:
120,248,90275,2,0,B|144:232|176:208,1,70,4|0,1:2|0:0,0:0:0:0:
64,64,90689,2,0,B|80:88|104:120,1,70,4|0,1:2|0:0,0:0:0:0:
224,296,91103,6,0,B|376:280,1,140,0|0,1:2|0:0,0:0:0:0:
288,200,91724,2,0,B|144:216,1,140,6|2,0:0|0:0,0:0:0:0:
16,224,92344,1,4,0:0:0:0:
136,208,92551,2,0,B|100:136|132:72,1,140,0|0,1:0|1:0,0:0:0:0:
304,32,93172,2,0,B|280:112,1,70,2|10,0:0|0:0,0:0:0:0:
352,288,93586,2,0,B|376:208,1,70,4|0,1:2|0:0,0:0:0:0:
512,119,93999,2,0,B|528:160|512:224,1,105,4|0,1:2|0:0,0:0:0:0:
499,247,94413,53,4,0:0:0:0:
489,265,94517,1,0,0:0:0:0:
479,283,94620,1,0,0:0:0:0:
466,299,94724,1,0,0:0:0:0:
451,313,94827,2,0,B|310:324,1,140,4|8,0:0|0:0,0:0:0:0:
192,328,95448,1,8,0:0:0:0:
80,328,95655,1,0,0:0:0:0:
66,307,95758,1,0,0:0:0:0:
58,283,95861,1,0,0:0:0:0:
55,258,95965,1,0,0:0:0:0:
57,233,96068,5,0,0:0:0:0:
66,210,96172,1,0,0:0:0:0:
80,190,96275,1,0,0:0:0:0:
102,180,96379,1,0,0:0:0:0:
126,177,96482,1,8,0:0:0:0:
150,179,96586,1,0,0:0:0:0:
172,187,96689,1,0,0:0:0:0:
194,196,96792,1,0,0:0:0:0:
218,200,96896,1,0,0:0:0:0:
242,198,96999,1,0,0:0:0:0:
265,191,97103,1,0,0:0:0:0:
286,179,97206,1,0,0:0:0:0:
304,162,97310,1,8,0:0:0:0:
320,143,97413,1,0,0:0:0:0:
332,121,97517,1,0,0:0:0:0:
339,97,97620,1,0,0:0:0:0:
344,72,97724,54,0,B|504:56,1,140,4|0,0:0|0:0,0:0:0:0:
248,32,98344,2,0,B|88:48,1,140,8|8,0:0|0:0,0:0:0:0:
16,104,98965,1,0,0:0:0:0:
29,124,99068,1,0,0:0:0:0:
49,138,99172,1,0,0:0:0:0:
71,142,99275,1,0,0:0:0:0:
95,139,99379,1,0,0:0:0:0:
120,136,99482,1,0,0:0:0:0:
145,138,99586,1,0,0:0:0:0:
168,147,99689,1,0,0:0:0:0:
188,161,99792,1,8,0:0:0:0:
198,183,99896,1,0,0:0:0:0:
201,207,99999,1,0,0:0:0:0:
199,231,100103,1,0,0:0:0:0:
191,253,100206,1,0,0:0:0:0:
176,272,100310,1,0,0:0:0:0:
153,282,100413,1,0,0:0:0:0:
128,284,100517,1,0,0:0:0:0:
107,280,100620,1,8,0:0:0:0:
86,267,100724,1,0,0:0:0:0:
61,263,100827,1,0,0:0:0:0:
37,270,100930,1,0,0:0:0:0:
17,284,101034,6,0,B|18:360,1,70
40,352,101344,1,0,0:0:0:0:
64,360,101448,1,0,0:0:0:0:
168,336,101655,2,8,B|248:320|336:328,1,140
448,328,102275,1,0,0:0:0:0:
452,303,102379,1,0,0:0:0:0:
456,279,102482,1,0,0:0:0:0:
457,254,102586,1,0,0:0:0:0:
457,229,102689,5,0,0:0:0:0:
457,204,102792,1,0,0:0:0:0:
456,179,102896,1,0,0:0:0:0:
455,154,102999,1,0,0:0:0:0:
452,129,103103,1,8,0:0:0:0:
449,104,103206,1,0,0:0:0:0:
446,79,103310,1,0,0:0:0:0:
440,55,103413,1,0,0:0:0:0:
411,68,103517,1,0,0:0:0:0:
380,75,103620,1,0,0:0:0:0:
348,80,103724,1,0,0:0:0:0:
316,80,103827,1,0,0:0:0:0:
284,76,103930,1,8,0:0:0:0:
252,70,104034,1,0,0:0:0:0:
222,59,104137,1,0,0:0:0:0:
194,44,104241,1,0,0:0:0:0:
165,29,104344,22,0,B|147:31,32,17.5,0|0|0|0|0|0|0|0|0|0|0|0|0|0|0|0|0|0|0|0|0|0|0|0|0|0|0|0|0|0|0|0|4,0:0|0:0|0:0|0:0|0:0|0:0|0:0|0:0|0:0|0:0|0:0|0:0|0:0|0:0|0:0|0:0|0:0|0:0|0:0|0:0|0:0|0:0|0:0|0:0|0:0|0:0|0:0|0:0|0:0|0:0|0:0|0:0|0:0,0:0:0:0:
256,192,106103,12,4,107655,0:0:0:0:
256,192,119861,12,4,120896,0:0:0:0:
160,160,121103,21,0,0:0:0:0:
256,128,121310,1,8,0:0:0:0:
352,88,121517,2,4,B|512:88,1,140,0|0,1:0|1:0,0:0:0:0:
320,264,122137,1,8,1:0:0:0:
320,264,122551,6,0,B|336:232|336:192,1,70,0|0,1:0|0:0,0:0:0:0:
264,96,122965,1,8,1:0:0:0:
160,160,123172,2,0,B|144:192|144:232,1,70,2|0,0:3|1:0,0:0:0:0:
144,352,123586,1,0,0:0:0:0:
320,264,123792,1,0,1:0:0:0:
320,264,123896,1,0,0:0:0:0:
320,264,123999,1,0,0:0:0:0:
320,264,124103,1,0,0:0:0:0:
320,264,124206,54,0,B|480:248,1,140,0|8,1:0|1:0,0:0:0:0:
376,168,124827,2,4,B|216:184,1,140,0|0,1:0|1:0,0:0:0:0:
80,208,125448,2,0,B|72:176|72:128,1,70,8|0,1:0|0:0,0:0:0:0:
208,176,125861,2,0,B|224:256|224:320,1,140,0|8,1:0|0:0,0:0:0:0:
280,64,126482,2,0,B|286:96|288:144,1,70,2|0,0:3|1:0,0:0:0:0:
136,280,126896,1,0,0:0:0:0:
314,256,127103,2,0,B|351:257|384:264,1,70,0|0,1:0|0:0,0:0:0:0:
480,288,127517,5,4,0:0:0:0:
483,256,127620,1,0,0:0:0:0:
484,224,127724,1,0,0:0:0:0:
482,192,127827,1,0,0:0:0:0:
473,161,127930,1,8,0:0:0:0:
451,137,128034,1,0,0:0:0:0:
422,124,128137,1,0,0:0:0:0:
390,118,128241,1,0,0:0:0:0:
358,120,128344,1,0,0:0:0:0:
327,129,128448,1,0,0:0:0:0:
302,149,128551,1,8,0:0:0:0:
281,172,128655,1,0,0:0:0:0:
273,202,128758,1,8,0:0:0:0:
277,233,128861,1,0,0:0:0:0:
294,259,128965,1,0,0:0:0:0:
321,273,129068,1,0,0:0:0:0:
352,274,129172,53,0,0:0:0:0:
378,257,129275,1,0,0:0:0:0:
395,230,129379,1,0,0:0:0:0:
395,198,129482,1,0,0:0:0:0:
381,169,129586,1,8,0:0:0:0:
350,161,129689,1,0,0:0:0:0:
318,165,129792,1,0,0:0:0:0:
292,182,129896,1,0,0:0:0:0:
266,200,129999,1,0,0:0:0:0:
235,209,130103,1,0,0:0:0:0:
203,209,130206,1,8,0:0:0:0:
172,199,130310,1,0,0:0:0:0:
148,178,130413,1,8,0:0:0:0:
132,150,130517,1,0,0:0:0:0:
121,120,130620,1,0,0:0:0:0:
116,88,130724,1,0,0:0:0:0:
122,57,130827,22,0,B|126:17,3,35,4|0|0|0,0:0|0:0|0:0|0:0,0:0:0:0:
224,80,131241,22,0,B|220:120,3,35,8|0|0|0,0:0|0:0|0:0|0:0,0:0:0:0:
336,72,131655,22,0,B|340:32,3,35,4|0|0|0,0:0|0:0|0:0|0:0,0:0:0:0:
438,95,132068,54,0,B|434:135,3,35,8|0|0|0,0:0|0:0|0:0|0:0,0:0:0:0:
504,216,132482,38,0,B|510:191,32,17.5,4|0|0|0|0|0|0|0|4|0|0|0|0|0|0|0|4|0|0|0|0|0|0|0|4|0|0|0|0|0|0|0|4,0:0|0:0|0:0|0:0|0:0|0:0|0:0|0:0|0:0|0:0|0:0|0:0|0:0|0:0|0:0|0:0|0:0|0:0|0:0|0:0|0:0|0:0|0:0|0:0|0:0|0:0|0:0|0:0|0:0|0:0|0:0|0:0|0:0,0:0:0:0:
440,296,134344,37,0,0:0:0:0:
328,328,134551,2,0,B|288:336|240:312,1,83.9999974365235,0|8,0:0|0:0,0:0:0:0:
224,144,134965,2,0,B|272:136|320:160,1,83.9999974365235,0|8,0:0|0:0,0:0:0:0:
96,336,135379,1,4,0:0:0:0:
0,264,135586,2,2,B|72:216|176:240,1,167.999994873047
161,236,136103,1,0,0:0:0:0:
161,236,136206,1,8,0:0:0:0:
320,272,136413,1,2,0:0:0:0:
320,272,136620,2,2,B|432:264,1,83.9999974365235,2|8,0:0|0:0,0:0:0:0:
435,89,137034,2,2,B|351:95,1,83.9999974365235,0|8,0:0|0:0,0:0:0:0:
352,96,137344,1,0,0:0:0:0:
352,96,137448,22,0,B|292:78|212:62,1,125.999996154785,4|0,0:0|0:0,0:0:0:0:
229,65,137861,1,0,0:0:0:0:
16,64,138068,2,0,B|63:75|120:96,1,83.9999974365235,8|0,0:0|0:0,0:0:0:0:
240,200,138482,1,10,0:0:0:0:
88,312,138689,2,0,B|96:256|108:230,1,83.9999974365235,4|2,0:0|0:0,0:0:0:0:
240,200,139103,2,2,L|407:191,1,167.999994873047,0|2,0:0|0:0,0:0:0:0:
440,336,139724,2,2,L|272:344,1,167.999994873047,4|2,0:0|0:0,0:0:0:0:
240,200,140344,1,6,0:0:0:0:
200,48,140551,1,8,0:0:0:0:
240,200,140758,38,0,B|128:216,1,83.9999974365235,4|0,0:0|0:0,0:0:0:0:
128,208,141068,1,0,0:0:0:0:
104,200,141172,1,0,0:0:0:0:
324,270,141379,2,0,B|360:296|376:336,1,83.9999974365235,8|0,0:0|0:0,0:0:0:0:
352,160,141793,1,10,0:0:0:0:
224,288,141999,1,4,0:0:0:0:
167,105,142206,2,2,B|82:110|10:158,1,167.999994873047
8,176,142724,1,0,0:0:0:0:
8,192,142827,1,8,0:0:0:0:
8,320,143034,1,2,0:0:0:0:
224,288,143241,2,2,B|216:176,1,83.9999974365235,2|8,0:0|0:0,0:0:0:0:
376,56,143655,2,2,B|368:168,1,83.9999974365235,0|8,0:0|0:0,0:0:0:0:
368,160,143965,1,0,0:0:0:0:
367,179,144068,22,0,P|434:180|512:176,1,125.999996154785,4|0,0:0|0:0,0:0:0:0:
496,160,144482,1,2,0:0:0:0:
296,80,144689,2,0,B|256:64|192:64,1,83.9999974365235,8|0,0:0|0:0,0:0:0:0:
80,168,145103,1,10,0:0:0:0:
208,272,145310,2,0,P|248:280|296:280,1,83.9999974365235,4|2,0:0|0:0,0:0:0:0:
80,168,145724,2,2,P|63:250|56:336,1,167.999994873047,4|2,0:0|0:0,0:0:0:0:
496,184,146344,54,2,B|456:208|456:208|376:198|293:193,1,210.000008010865,4|10,0:0|0:0,0:0:0:0:
96,160,146965,1,6,0:0:0:0:
272,184,147172,1,8,0:0:0:0:
96,160,147379,6,0,B|117:89|117:25,1,136.499993751526,4|0,0:0|0:0,0:0:0:0:
116,25,147793,1,0,0:0:0:0:
280,64,147999,2,0,B|270:104|267:154,1,90.9999958343508,8|0,0:0|0:0,0:0:0:0:
160,344,148413,1,10,0:0:0:0:
264,288,148620,2,2,B|313:291|368:304,1,90.9999958343508,4|2,0:0|0:0,0:0:0:0:
354,300,148930,1,0,0:0:0:0:
354,300,149034,1,4,0:0:0:0:
472,328,149241,1,2,0:0:0:0:
432,176,149448,2,0,B|424:72,1,90.9999958343508,8|2,0:0|0:0,0:0:0:0:
257,197,149861,2,0,B|264:288,1,90.9999958343508,2|8,0:0|0:0,0:0:0:0:
232,112,150275,1,6,0:0:0:0:
206,79,150379,1,0,0:0:0:0:
168,62,150482,1,0,0:0:0:0:
126,58,150586,1,0,0:0:0:0:
87,71,150689,38,0,B|89:217,1,136.499993751526
88,207,151103,1,8,0:0:0:0:
88,376,151310,1,0,0:0:0:0:
184,240,151517,1,0,0:0:0:0:
184,240,151724,1,10,0:0:0:0:
32,288,151930,1,0,0:0:0:0:
184,344,152137,1,2,0:0:0:0:
424,208,152344,22,2,B|425:71,1,136.499993751526,0|2,0:0|0:0,0:0:0:0:
425,70,152758,1,8,0:0:0:0:
256,272,152965,2,2,B|328:352|448:288,1,181.999991668702,4|2,0:0|0:0,0:0:0:0:
224,128,153586,1,6,0:0:0:0:
96,176,153792,1,8,0:0:0:0:
128,320,153999,5,4,0:0:0:0:
256,272,154206,1,0,0:0:0:0:
352,176,154413,5,8,0:0:0:0:
224,128,154620,1,0,0:0:0:0:
368,328,154827,5,0,0:0:0:0:
496,280,155034,1,0,0:0:0:0:
440,56,155241,1,8,0:0:0:0:
304,104,155448,1,0,0:0:0:0:
256,272,155655,21,0,0:0:0:0:
256,272,155861,1,0,0:0:0:0:
128,104,156068,1,8,0:0:0:0:
128,104,156275,1,0,0:0:0:0:
108,252,156482,1,8,0:0:0:0:
108,252,156689,1,8,0:0:0:0:
276,123,156896,1,0,0:0:0:0:
276,123,157103,1,0,0:0:0:0:
448,328,157310,21,4,0:0:0:0:
429,291,157413,1,0,0:0:0:0:
399,262,157517,1,0,0:0:0:0:
361,245,157620,1,0,0:0:0:0:
320,237,157724,1,0,0:0:0:0:
279,238,157827,1,0,0:0:0:0:
243,258,157930,1,0,0:0:0:0:
214,287,158034,1,0,0:0:0:0:
183,314,158137,1,0,0:0:0:0:
143,327,158241,1,0,0:0:0:0:
102,326,158344,1,0,0:0:0:0:
63,310,158448,1,0,0:0:0:0:
44,273,158551,1,0,0:0:0:0:
35,232,158655,1,0,0:0:0:0:
37,191,158758,1,0,0:0:0:0:
52,153,158861,1,0,0:0:0:0:
83,126,158965,54,0,B|102:108,32,22.7499989585877,4|0|0|0|0|0|0|0|4|0|0|0|0|0|0|0|4|0|0|0|0|0|0|0|4|0|0|0|0|0|0|0|4,0:0|0:0|0:0|0:0|0:0|0:0|0:0|0:0|0:0|0:0|0:0|0:0|0:0|0:0|0:0|0:0|0:0|0:0|0:0|0:0|0:0|0:0|0:0|0:0|0:0|0:0|0:0|0:0|0:0|0:0|0:0|0:0|0:0,0:0:0:0:
