osu file format v5

[General]
AudioFilename: 08-Drive.mp3
AudioLeadIn: 0
PreviewTime: -1
Countdown: 1
SampleSet: Soft
StackLeniency: 0.7
Mode: 0
LetterboxInBreaks: 1
EditorDistanceSpacing: 1.20000004768372

[Metadata]
Title:Drive
Artist:Incubus
Creator:ctrl
Version:Sliders!
Source:
Tags:

[Difficulty]
HPDrainRate:7
CircleSize:5
OverallDifficulty:7
SliderMultiplier:1
SliderTickRate:2

[Events]
//Background and Video events
0,0,"drive3.png"
//Break Periods
2,159008,165197
//Storyboard Layer 0 (Background)
//Storyboard Layer 1 (Failing)
//Storyboard Layer 2 (Passing)
//Storyboard Layer 3 (Foreground)
//Storyboard Sound Samples
//Background Colour Transformations
3,100,128,64,64

[TimingPoints]
10720,331.308669243512,4,2,0,100,1,0
21321,-200,4,2,0,100,0,0
22066,-100,4,2,0,100,0,0
28360,-200,4,2,0,100,0,0
29353,-100,4,2,0,100,0,0
44261,-200,4,2,0,100,0,0
46248,-100,4,2,0,100,0,0
47241,-200,4,2,0,100,0,0
49232,-100,4,2,0,100,0,0
107873,-200,4,2,0,100,0,0
109860,-100,4,2,0,100,0,0
110853,-200,4,2,0,100,0,0
113172,-100,4,2,0,100,0,0
148290,-200,4,2,0,100,0,0
170818,-100,4,2,0,100,0,0

[Colours]
Combo1 : 255,255,255
Combo2 : 217,184,123
Combo3 : 74,0,0
Combo4 : 77,77,77
Combo5 : 128,0,128

[HitObjects]
96,192,10720,2,0,B|64:160|96:128|128:128|128:160,2,100,0|0|8
192,256,11713,2,8,B|224:320,1,50,0|8
352,224,12210,2,0,B|352:160,1,50,0|0
288,64,12707,2,0,B|192:128,1,100,8|0
256,224,13370,6,0,B|288:256|256:288|224:288|224:256,1,100
192,224,13867,2,0,B|160:192|128:224,1,50,0|8
96,320,14364,2,0,B|64:352|32:320,1,50,0|8
32,64,14861,6,0,B|96:64,1,50
64,96,15193,6,0,B|128:96,1,50,0|8
96,128,15523,6,0,B|160:128,1,50,0|8
256,128,16020,6,0,B|288:160|256:192|224:192|224:160,2,100,0|0|8
192,224,17013,2,8,B|224:288,1,50,0|8
320,256,17510,2,0,B|352:192,1,50,0|0
288,96,18008,2,0,B|192:160,1,100,8|0
448,288,18671,6,0,B|480:320|448:352|416:352|416:320,1,100
384,256,19168,2,0,B|352:224|320:256,1,50,0|8
224,288,19665,2,0,B|192:320|160:288,1,50,0|8
224,80,20328,6,0,B|288:80,1,50
416,160,20660,6,0,B|416:224,1,50,8|0
288,304,20991,6,0,B|224:304,1,50
80,192,21321,6,0,B|112:144|144:240|176:176,1,100,0|8
320,96,22314,6,0,B|352:64|384:96,2,50
192,160,22977,2,0,B|288:192,1,100,0|8
448,192,23805,2,0,B|448:256,1,50
352,288,24301,2,0,B|288:256,1,50,0|0
224,64,24964,2,0,B|288:128|128:96|128:128|192:160,1,150,0|8
128,192,25627,2,0,B|224:224,1,100,0|8
384,32,26290,6,0,B|352:128|384:128,1,100
447,128,26787,2,0,B|473:127|441:223,1,100
64,192,27946,2,0,B|128:192,1,50
192,192,28442,2,0,B|224:128|256:256|288:160,1,125
384,64,29601,6,0,B|448:160,1,100,0|8
384,256,30264,2,0,B|320:288,1,50,0|8
160,96,30761,6,0,B|224:96,1,50
352,192,31093,6,0,B|288:192,1,50,0|8
160,288,31424,6,0,B|224:288,1,50
480,304,32251,6,0,B|368:304,1,100,0|8
256,304,32914,2,0,B|144:304,2,100
400,112,34074,6,0,B|352:80,2,50
400,176,34571,2,0,B|336:256,1,100,8|0
240,240,35068,2,0,B|224:288|192:288|176:240,2,100,8|0|8
64,160,36227,2,0,B|48:160|32:144|32:128|48:112|64:112|80:128|80:144|112:128,1,100,0|8
144,176,36724,2,0,B|160:176|176:192|176:208|160:224|144:224|128:208|128:192|80:192|144:272,1,150,0|8
192,272,37387,2,0,B|224:304|256:272,2,50,0|0|8
256,48,38546,6,0,B|288:32|304:64,1,50,8|0
304,128,38878,2,0,B|320:160|352:128,1,50,0|8
464,32,39375,2,0,B|416:192,1,150,0|12
320,256,40203,6,0,B|208:256,1,100,0|8
192,128,40865,2,0,B|256:128,1,50,0|8
400,128,41363,6,0,B|336:128,1,50
448,176,41695,6,0,B|448:240,1,50,0|8
352,256,42026,6,0,B|416:256,1,50
208,256,42854,6,0,B|176:291|112:291|80:227|96:163,1,200
96,96,43682,2,0,B|48:64,1,50,0|0
112,80,44013,2,0,B|160:128,1,50
208,64,44510,2,0,B|256:32|304:32|336:64|336:128|304:176|256:176,1,250,8|0
256,240,46330,2,0,B|256:304,1,50
352,192,46827,2,0,B|352:128,1,50
304,64,47490,2,0,B|256:32|208:32|176:64|176:128|208:176|256:176,1,250
224,320,50143,6,0,B|240:368|288:368|288:304,2,100
224,256,50971,2,0,B|224:208|208:192,1,50,0|8
159,176,51302,2,0,B|153:175|153:127,1,50,0|0
288,64,52130,2,0,B|256:48|288:16|304:32,4,50,0|0|8|0|0
496,208,54284,6,0,B|464:256,1,50
432,304,54615,2,0,B|405:346,1,50,0|0
336,336,54947,2,0,B|320:288,1,50,0|8
336,160,55444,2,0,B|363:135|363:71|331:7|235:-25|171:7|139:39|139:135|203:199|235:199,1,450
272,256,57100,2,0,B|336:256,1,50
368,304,57431,2,0,B|336:368,2,50,0|0|8
416,256,57928,2,0,B|448:224|448:224|128:224|128:224|256:64|256:64|320:48|320:48|288:32,1,650
176,48,60247,6,0,B|144:112,1,50,0|8
112,144,60578,2,0,B|112:208,1,50,0|0
64,320,61075,2,0,B|160:352,1,100,0|8
288,320,61738,2,0,B|400:320,1,100,0|8
416,96,62732,2,0,B|416:208,1,100,0|8
32,48,64721,6,0,B|144:48,1,100
208,80,65382,2,0,B|208:144,1,50
144,128,65713,2,0,B|208:128,1,50,8|0
208,192,66045,2,0,B|208:128,1,50,8|0
272,128,66376,2,0,B|208:128,1,50,0|0
222,128,66708,2,0,B|160:144|128:192|144:240|144:304|176:288,1,200,8|0
464,64,68034,6,0,B|512:80|464:240|400:240,1,200
256,160,69358,2,0,B|240:96,1,50
288,192,69689,2,8,B|352:224,1,50,8|0
240,208,70020,2,0,B|208:256,1,50,0|8
80,80,70849,6,0,B|112:48|112:96,3,50,0|8|0|0
112,144,71512,2,0,B|112:304,1,150
176,304,72175,2,0,B|208:336|208:288,3,50,0|8|0|0
208,240,72837,2,0,B|208:80,1,150,0|0
320,64,73666,2,0,B|400:80|400:192|352:240,1,200,8|0
64,128,75322,6,0,B|176:128,1,100
272,64,75985,2,0,B|240:16,1,50,0|0
288,160,76316,2,0,B|288:96,1,50,8|0
208,208,76647,2,0,B|272:192,1,50,8|0
224,304,76979,2,0,B|192:256,1,50,0|0
288,320,77310,2,0,B|384:320|432:272|448:224|432:208,1,200,8|0
208,80,78635,6,0,B|176:32|144:32|144:96,1,100,0|8
144,207,79298,2,0,B|145:256|113:256|81:208,1,100,0|0
64,80,79960,2,0,B|160:144,1,100,0|8
240,224,80623,2,0,B|288:256,1,50,0|8
352,144,81617,6,0,B|351:134|383:118|415:134|415:182,2,100,8|0|0
256,80,82611,2,0,B|208:48|144:80|128:160|160:192,1,200
240,288,83605,2,0,B|272:336|336:304,2,100,0|0|8
64,176,85758,6,0,B|48:144|64:128,1,50,8|0
64,64,86090,2,0,B|64:48|96:32|128:32|160:48|160:64,1,100,0|8
176,112,86587,2,0,B|272:144,1,100,0|8
256,336,87415,6,0,B|256:272,1,50
256,32,87911,2,0,B|256:96,1,50,0|8
256,192,88408,2,0,B|320:192,1,50,0|8
480,224,89568,6,0,B|448:272,2,50,8|0|0
400,128,90231,2,0,B|368:80|320:144,2,100,8|0|8
208,96,91225,2,0,B|208:160,1,50,0|8
16,288,91887,2,0,B|48:336,1,50
400,320,92881,6,0,B|320:256,1,100
256,32,93544,2,0,B|224:80,1,50,8|0
128,160,93875,2,0,B|176:192,1,50,0|8
464,48,94372,6,0,B|416:80,1,50
304,160,94703,2,0,B|256:192,1,50,0|8
160,272,95035,2,0,B|112:304,1,50
48,48,96526,6,0,B|32:80|48:112|64:96,1,50
96,224,97023,2,0,B|144:256,1,50,8|0
256,304,97520,2,0,B|288:336|320:336|368:304,1,100,8|0
400,272,98017,2,0,B|448:240,1,50
464,176,98348,2,0,B|416:144,1,50
368,112,98679,2,0,B|320:144,1,50,8|0
304,208,99011,2,0,B|352:240,1,50,0|8
176,336,99673,2,0,B|128:288,1,50,8|0
79,192,100170,6,0,B|150:122,1,100,8|0
256,48,100833,2,0,B|304:80,1,50
368,176,101330,2,0,B|320:224,1,50,0|8
208,208,101827,2,0,B|192:144,1,50,0|8
32,288,102489,2,0,B|80:144|48:464|160:144|112:208|208:160|128:464|-32:384|48:304|80:304,1,300
128,304,103815,2,0,B|240:304,1,100,0|8
352,304,104477,2,0,B|416:304,1,50,0|8
256,48,105140,6,0,B|256:112,1,50
80,192,105471,2,0,B|144:192,1,50,8|0
256,336,105802,2,0,B|256:272,1,50
288,224,106134,2,0,B|336:192|288:144|272:112|176:176|240:224,1,200,0|8
192,64,107293,6,0,B|224:16,1,50
288,16,107625,2,0,B|320:64,1,50
272,112,108121,2,0,B|224:112|224:112|224:224|336:192|336:192|320:144|320:144,1,250,8|0
384,80,109942,6,0,B|432:48,2,50
400,144,110439,2,0,B|416:192,3,50,0|8|0|0
416,224,111101,2,0,B|352:432|256:320|269:258|304:208,1,300
304,144,113254,6,0,B|272:96,1,50,0|8
208,112,113586,2,0,B|160:160,1,50
48,128,114083,2,0,B|64:32|80:32|96:32,1,100,0|8
445,39,115077,2,0,B|432:-16|368:48,1,100,8|0
288,32,115738,2,0,B|304:80,1,50,0|0
256,96,116070,2,0,B|240:144,1,50,8|0
272,192,116401,2,0,B|288:240,2,50,0|8|0
16,48,117893,6,0,B|64:32,1,50
128,32,118224,2,0,B|128:96,1,50,0|0
192,112,118555,2,0,B|240:96,1,50,0|8
384,48,119052,2,0,B|464:48|464:48|384:112|384:112|464:112|464:112|512:160|512:160|384:160,1,450
336,192,120709,2,0,B|288:224,2,50
240,256,121206,2,0,B|176:288,2,50,0|8|0
256,32,121703,6,0,B|256:144,1,100
480,192,122365,2,0,B|368:192,1,100,0|8
256,352,123028,2,0,B|256:240,1,100
16,192,123691,2,0,B|128:192,1,100,0|8
432,64,124353,2,0,B|352:128,1,100
432,320,125016,2,0,B|352:256,1,100
80,320,125678,2,0,B|160:256,1,100
80,64,126341,2,0,B|160:128,1,100
208,160,126838,2,0,B|256:192,1,50,8|0
272,128,127169,2,0,B|304:80,1,50,8|0
304,320,128328,6,0,B|192:320,2,100
368,224,129157,2,0,B|368:160,1,50,0|8
288,80,129488,2,0,B|224:80,1,50,0|8
144,176,129820,2,0,B|144:226,1,50,0|0
224,320,130151,2,0,B|288:320,3,50,0|0|8|0
288,160,130979,2,0,B|224:160|224:160|224:224|224:224|288:224|288:224|288:192,1,200,8|0
336,176,131808,6,0,B|400:176,1,50
384,80,132139,2,0,B|416:128,1,50,0|0
400,272,132470,2,0,B|416:224,1,50,0|0
448,64,132802,2,0,B|448:128,1,50,0|0
448,288,133133,2,0,B|448:224,1,50,0|8
480,176,133464,2,0,B|416:176,2,50,0|0|8
64,144,134458,6,0,B|80:96,1,50,0|8
160,32,134789,2,0,B|224:0,1,50
320,16,135121,2,0,B|380:38,1,50,0|0
431,95,135452,2,0,B|447:143,1,50,8|0
448,240,135783,2,0,B|432:288,1,50,0|8
368,352,136114,2,0,B|304:384,1,50
192,368,136446,2,0,B|132:346,1,50,0|0
80,288,136777,2,0,B|65:241,1,50,8|0
288,224,137274,2,0,B|256:240|208:208|240:160|272:160,1,100,8|4
256,144,138765,6,0,B|272:80,1,50
288,160,139096,2,0,B|336:144,1,50
304,192,139428,2,0,B|368:208,1,50
288,224,139759,2,0,B|304:272,1,50,0|8
256,240,140090,2,0,B|240:304,1,50,0|8
224,224,140422,2,0,B|176:256,1,50,0|0
208,192,140753,2,0,B|144:176,1,50,8|0
224,160,141084,2,0,B|192:112,1,50,0|8
256,144,141416,2,0,B|272:80,2,50,0|4|0
80,128,142243,6,0,B|80:16,1,100,0|8
256,240,142906,2,0,B|256:128,1,100
432,354,143569,2,0,B|432:240,1,100,0|8
272,176,144232,2,0,B|224:208,1,50,0|8
208,96,145226,2,0,B|224:64|288:64|304:96,2,100,8|0|0
320,144,146220,2,0,B|352:160|368:224|320:240,2,100,0|8|0
304,288,147213,2,0,B|288:320|224:320|208:288,1,100
192,240,147876,2,0,B|160:224|144:160|192:144,1,100,8|0
416,32,148538,6,0,B|448:32|464:48|464:32|480:64|448:80|432:96,1,100,0|8
383,111,149532,2,0,B|376:119|344:135|360:167|360:151|376:167|408:167,1,100,0|0
352,208,150526,2,0,B|304:240,1,50,8|0
48,48,151188,6,0,B|160:48,1,100,0|8
464,48,152182,2,0,B|464:160,1,100
480,304,153176,2,0,B|432:336,1,50,8|0
368,336,153839,2,0,B|320:304,1,50
256,160,154502,6,0,B|208:192|304:176|256:208,1,75,8|8
256,112,155495,2,0,B|288:112,2,25,0|0|8
464,368,156821,6,0,B|460:352|352:352|592:208|336:304|416:207|400:176,1,200
336,112,158477,2,0,B|288:96,1,50,8|0
480,32,166097,6,0,B|400:112,1,100
368,144,167091,2,0,B|352:176,1,25,0|0
320,176,167423,2,0,B|288:192,1,25,0|0
304,224,167754,2,0,B|288:256,1,25,8|0
272,272,168085,2,0,B|240:288,1,25,0|0
224,288,168417,2,0,B|176:304|128:288|128:272,1,100,0|8
96,224,169410,2,0,B|64:192|80:176,3,50,0|0|0|8
272,176,171066,6,0,B|352:112,2,100,0|0|8
160,256,172060,2,0,B|240:192,1,100,0|0
352,112,172723,2,0,B|272:176,1,100,0|8
272,48,173551,2,0,B|304:32|320:48,2,50
416,128,174213,2,0,B|448:160|416:192,2,50,0|8|0
368,176,174710,2,0,B|352:144|336:128|304:112|272:112,7,100,0|0|0|8|0|0|0|8
192,32,177361,6,0,B|128:112,1,100
320,128,178023,2,0,B|256:208,1,100,0|8
256,80,178686,2,0,B|192:160,1,100
384,176,179349,2,0,B|320:256,1,100,0|8
448,208,180343,6,0,B|384:208,1,50
448,160,180674,2,0,B|384:160,1,50
272,64,181005,6,0,B|272:128,1,50
224,64,181337,2,0,B|224:128,1,50
64,176,181668,6,0,B|128:176,1,50
64,224,181999,2,0,B|128:224,1,50
240,320,182330,6,0,B|240:256,1,50
288,320,182662,2,0,B|288:256,1,50
256,216,182993,6,0,B|256:104,1,100,12|0
209,143,183656,2,0,B|225:96,1,50,8|0
300,238,183987,2,0,B|288:287,1,50
300,144,184318,2,0,B|288:96,1,50,0|0
224,240,184650,2,0,B|240:288,1,50
272,192,184981,2,0,B|384:192,1,100,8|0
240,192,185644,2,0,B|128:192,1,100
272,32,186306,6,0,B|256:16|224:48,2,50,8|0|0
239,80,186803,2,0,B|212:108|196:92,1,50,0|0
320,96,187300,6,0,B|400:96|384:176,1,100,0|8
256,160,187963,2,0,B|270:217|190:217,1,100
79,271,188625,2,0,B|66:327|140:326,1,100,0|8
256,272,189288,2,0,B|288:272|304:288|288:320,1,50,0|8
288,32,190116,6,0,B|240:64,1,50,0|8
240,128,190448,2,0,B|288:160,1,50
288,224,190779,2,0,B|240:256,1,50,0|0
224,320,191110,2,0,B|272:368,1,50,8|0
416,288,191441,6,0,B|464:288|448:240,1,50,0|8
451,122,191773,2,0,B|464:96|416:96,1,50,0|0
336,192,192104,6,0,B|224:192,1,100,0|8
160,192,192601,2,8,B|96:192,2,50,0|0|8
224,192,193098,2,0,B|288:192,1,50,0|0
32,368,194423,6,0,B|64:320,1,50
272,176,194920,2,0,B|288:208|272:240|240:240|224:208|240:176|224:144|192:176|208:208|192:240|176:240|160:208|176:176,1,200,0|8
176,48,195914,2,0,B|176:112,1,50
224,64,196245,2,0,B|176:112,1,50
240,112,196577,2,0,B|176:112,1,50
208,160,196908,2,0,B|176:112,1,50,8|0
160,160,197239,2,0,B|176:112,1,50,0|8
464,32,197902,6,0,B|464:144,1,100,0|8
464,256,198565,2,0,B|464:368,1,100,0|0
336,352,199227,2,0,B|224:352,1,100,0|8
464,32,199890,2,8,B|464:96,1,50,0|8
80,352,200884,6,0,B|80:240,1,100,8|0
80,128,201547,2,0,B|80:16,1,100,0|0
208,32,202209,2,0,B|320:32,1,100,8|0
432,32,202872,2,8,B|432:144,1,100,0|0
432,256,203534,2,0,B|432:368,1,100,8|0
144,256,204197,6,0,B|96:224,1,50
144,160,204528,2,0,B|144:112,2,25
144,256,204859,6,0,B|192:224,1,50,8|0
144,327,205190,2,0,B|144:352,2,25
64,240,205522,2,0,B|64:265,2,25
224,240,205853,2,0,B|224:265,2,25
256,96,206192,6,0,B|256:128,2,25,8|0|0
320,80,206523,2,0,B|320:105,2,25,0|0|0
384,64,206854,6,0,B|384:176,1,100
144,192,207517,6,0,B|176:192,2,25,8|0|0
128,256,207848,2,0,B|153:256,2,25,0|0|0
112,320,208179,6,0,B|224:320,1,100
160,176,208835,6,0,B|192:208,2,25,8|0|0
304,191,209166,2,0,B|287:174,2,25,0|0|0
222,174,209498,2,0,B|240:192,2,25
367,191,209836,2,0,B|350:174,2,25,0|0|0
304,112,210167,2,0,B|240:112,1,50,8|0
224,240,210499,2,0,B|288:240,1,50,0|8
256,320,211486,6,0,B|256:256,1,50,8|0
288,208,211817,2,0,B|304:160,1,50
288,96,212148,2,0,B|256:32,1,50
192,64,212480,2,0,B|160:128,2,50,0|0|8
208,224,213473,6,0,B|208:160,2,50
256,176,213970,2,0,B|256:240,2,50,0|8|0
304,224,214467,2,0,B|304:160,2,50
192,192,215137,6,0,B|224:192,2,25
256,128,215468,2,0,B|256:160,2,25,8|0|0
320,192,215800,2,0,B|295:192,2,25,0|0|0
256,256,216131,2,0,B|256:224,2,25,0|0|0
144,192,216462,2,0,B|112:192,2,25
256,80,216793,2,0,B|256:32,2,25,8|0|0
368,192,217125,2,0,B|400:192,2,25
256,304,217456,2,0,B|256:336,2,25
256,128,217787,2,0,B|256:192,2,50,0|0|8
256,272,218284,2,0,B|256:208,2,50,0|0|8
176,128,219444,6,0,B|208:96,2,25,8|0|0
352,128,219775,2,0,B|384:160,2,25
336,256,220107,2,0,B|320:288,2,25
176,272,220438,2,0,B|144:240,2,25
256,78,220769,2,0,B|256:128,1,50,8|0
256,160,221101,2,0,B|256:224,1,50,0|8
256,16,222094,6,0,B|256:80,1,50,8|0
256,112,222426,2,0,B|224:48,2,50
256,176,222923,2,0,B|288:112,2,50
256,240,223420,2,0,B|224:176,2,50,8|0|0
256,304,223917,2,0,B|288:240,2,50
256,192,224407,6,0,B|192:192,1,50
256,192,224738,2,0,B|320:192,1,50,8|0
256,192,225069,2,0,B|208:240|176:208|160:192,1,100,0|0
176,64,225732,2,0,B|192:32|224:32,1,50
271,63,226063,2,0,B|308:62|340:94|336:144,1,100,8|0
224,320,226560,6,0,B|160:320,1,50,4|0
288,320,226891,2,0,B|352:320,1,50,0|4
256,192,227720,5,4
256,192,227810,1,0
256,192,227893,1,0
256,192,227976,1,0
256,192,228058,1,0
