osu file format v5

[General]
AudioFilename: 08-Drive.mp3
AudioLeadIn: 0
PreviewTime: -1
Countdown: 1
SampleSet: Soft
StackLeniency: 0.7
Mode: 0
LetterboxInBreaks: 1
EditorDistanceSpacing: 1.20000004768372

[Metadata]
Title:Drive
Artist:Incubus
Creator:ctrl
Version:Simple
Source:
Tags:

[Difficulty]
HPDrainRate:3
CircleSize:4
OverallDifficulty:3
SliderMultiplier:0.6
SliderTickRate:1

[Events]
//Background and Video events
0,0,"drive3.png"
//Break Periods
2,80826,84818
2,94409,95420
2,104371,105575
2,148081,156712
2,167628,169633
2,179887,182554
2,203741,204752
2,210699,215353
2,221301,223968
//Storyboard Layer 0 (Background)
//Storyboard Layer 1 (Failing)
//Storyboard Layer 2 (Passing)
//Storyboard Layer 3 (Foreground)
//Storyboard Sound Samples
//Background Colour Transformations
3,100,128,64,64

[TimingPoints]
10720,331.308669243512,4,2,0,90,1,0

[Colours]
Combo1 : 255,255,255
Combo2 : 217,184,123
Combo3 : 74,0,0
Combo4 : 77,77,77
Combo5 : 128,0,128

[HitObjects]
128,192,10720,1,0
256,192,11382,1,8
384,192,12045,2,0,B|416:128|416:64|320:64,1,180
256,64,13370,5,0
256,192,14032,1,8
256,320,14695,2,0,B|320:352|384:352|384:256,1,180
384,192,16020,5,0
256,192,16682,1,8
128,192,17346,2,0,B|96:256|96:320|192:320,1,180
256,320,18671,5,0
256,192,19333,1,8
224,64,19996,2,0,B|160:96|96:96|96:0,1,180
64,64,21321,5,0
256,192,22315,2,0,B|320:224,1,60,0|0
384,320,23972,5,0
256,320,24634,1,8
128,320,25297,2,0,B|128:128,1,180
128,64,26622,5,0
256,64,27284,1,8
384,64,27948,2,0,B|288:224,1,180
224,256,29273,5,0
128,160,29935,1,8
128,16,30598,2,0,B|320:16,1,180
384,16,31923,1,0
480,224,32917,6,0,B|480:288,1,60
192,288,34574,5,0
288,160,35236,1,8
152,104,35899,2,0,B|184:40|248:40|312:72,1,180
376,88,37224,5,0
264,176,37886,1,8
168,280,38549,2,0,B|264:312|360:312,1,180
416,320,39875,5,0
416,192,40537,1,8
416,64,41200,2,0,B|288:224|288:32|96:64|320:192|128:192,1,360
96,320,43850,6,0,B|0:320|0:224|96:224,1,180
320,256,45838,5,0
416,160,46500,1,8
320,64,47163,2,0,B|96:64|96:256|320:256,1,420
368,120,50145,5,0
232,168,50807,1,8
352,248,51470,2,0,B|416:280,4,60,0|0|0|8|8
320,128,54121,6,0,B|352:96,2,30
256,192,54783,1,8
160,288,55446,2,0,B|-64:288|-64:96|160:96,1,420,0|8
288,32,58428,5,0
192,128,59091,1,8
320,192,59753,2,0,B|416:192|416:128,1,120
352,128,60747,5,0
192,128,61410,1,8
304,216,62072,1,0
168,264,62735,2,0,B|168:328,1,60,0|8
96,160,64723,6,0,B|192:64,1,120,0|8
320,64,66048,1,8
320,192,66711,1,8
320,320,67373,2,0,B|160:224,1,180
112,192,68699,5,0
256,192,69361,1,0
400,192,70024,2,0,B|304:288,1,120
224,256,71018,6,0,B|192:192,1,60
192,128,71680,1,0
320,128,72343,2,0,B|352:192,1,60
352,256,73006,1,0
96,160,75325,6,0,B|160:64|256:64,1,180,0|8
320,64,76650,2,0,B|320:192,1,120,8|8
320,320,77975,2,0,B|160:224,1,180
128,160,79300,5,0
224,64,79963,1,0
288,192,80626,1,0
416,64,86258,6,0,B|320:224,1,180
288,288,87583,2,0,B|112:208,1,180
128,128,88908,2,0,B|320:128,1,180
352,192,90234,6,0,B|192:288,1,180
128,320,91559,2,0,B|96:128,1,180
160,96,92884,2,0,B|256:224|288:128|256:32|320:160,1,240
128,160,96860,6,0,B|160:32|96:32|128:160|192:96,1,180
256,64,98185,6,0,B|320:64,1,60
384,64,98848,1,0
448,64,99179,1,0
448,288,100173,6,0,B|384:288,1,60
320,288,100835,1,0
256,288,101167,1,0
192,288,101498,1,0
128,288,101829,1,0
256,192,102492,12,0,104149
448,192,107130,6,0,B|384:192,4,60
160,192,109781,6,0,B|96:192,4,60,0|0|0|0|0
224,192,111437,1,0
288,192,111769,1,0
352,192,112100,1,0
416,192,112431,1,0
256,64,113425,6,0,B|256:32,2,30
352,192,114419,1,0
256,320,115082,1,0
160,192,115744,2,0,B|96:192,2,60
192,128,117732,6,0,B|160:96,2,30
256,192,118394,1,8
352,288,119057,2,0,B|576:288|576:96|352:96,1,420,0|8
224,32,122039,5,0
320,128,122702,1,8
192,192,123364,2,0,B|96:192|96:128,1,120,0|8
168,120,124359,5,0
328,120,125022,1,8
216,208,125684,1,0
352,256,126347,2,0,B|352:320,1,60,0|8
96,224,128334,6,0,B|192:320,1,120,0|8
320,320,129659,1,8
320,192,130322,1,8
320,64,130984,2,0,B|160:160,1,180
112,192,132310,5,0
256,192,132972,1,0
400,192,133635,2,0,B|304:96,1,120
224,128,134629,6,0,B|192:192,1,60
192,256,135291,1,0
320,256,135954,2,0,B|352:192,1,60
352,128,136617,1,0
96,224,138936,6,0,B|160:320|256:320,1,180,0|8
320,320,140261,2,0,B|320:192,1,120,8|8
320,64,141586,2,0,B|160:160,1,180
128,224,142911,5,0
224,320,143574,1,0
288,192,144237,1,0
96,128,145231,2,0,B|128:96|160:128,1,60
192,256,146225,2,0,B|224:384|256:256|320:96|288:352|448:320|416:288,1,300
8,56,157821,5,0
112,24,158152,6,0,B|240:24|240:24|240:72|240:72|112:72|112:72|112:136|112:136|240:136|240:136|240:248|240:248|112:248|112:248|112:360|112:360|168:360|168:360|168:296|168:296|224:296|224:296|224:360|224:360|280:360|280:360|280:304|280:304|336:304|336:304|336:104|336:104|288:104|288:104|288:288,1,1680
128,160,171073,6,0,B|160:160|192:192,1,60
256,64,172067,2,0,B|384:64|384:192|256:192,1,240
256,256,173723,2,0,B|256:288,1,30
320,288,174220,2,0,B|320:256,1,30
384,288,174717,2,0,B|480:192|384:64,2,240,0|0|0
224,288,178030,5,0
128,160,178693,1,0
256,64,179356,2,0,B|320:64,1,60
96,224,183994,6,0,B|192:320,1,120,0|8
320,320,185319,1,8
320,192,185982,1,8
320,64,186644,2,0,B|160:160,1,180
112,192,187970,5,0
256,192,188632,1,0
400,192,189295,2,0,B|304:96,1,120
224,128,190289,6,0,B|192:192,1,60
192,256,190951,1,0
320,256,191614,2,0,B|352:192,1,60
352,128,192277,1,0
96,224,194596,6,0,B|160:320|256:320,1,180,0|8
320,320,195921,2,0,B|320:192,1,120,8|8
320,64,197246,2,0,B|160:160,1,180
128,224,198571,5,0
224,320,199234,1,0
288,192,199897,1,0
96,128,200891,2,0,B|128:96|160:128,1,60
192,256,201885,2,0,B|224:384|256:256|320:96|288:352|448:320|416:288,1,300
256,192,206192,12,0,207186
256,192,207517,12,0,208511
256,192,208842,12,0,210499
256,192,216793,12,0,217787
256,192,218119,12,0,219113
256,192,219444,12,0,221101
224,256,225408,6,0,B|224:192,1,60
224,128,226070,1,0
288,128,226401,2,0,B|288:192,1,60
288,256,227064,1,0
256,16,227727,6,0,B|256:320,1,300
