osu file format v5

[General]
AudioFilename: 08-Drive.mp3
AudioLeadIn: 0
PreviewTime: -1
Countdown: 1
SampleSet: Soft
StackLeniency: 0.7
Mode: 0
LetterboxInBreaks: 1
EditorDistanceSpacing: 1.20000004768372

[Metadata]
Title:Drive
Artist:Incubus
Creator:ctrl
Version:Normal
Source:
Tags:

[Difficulty]
HPDrainRate:6
CircleSize:5
OverallDifficulty:5
SliderMultiplier:0.5
SliderTickRate:1

[Events]
//Background and Video events
0,0,"drive3.png"
//Break Periods
2,92255,95242
2,104371,105575
2,148412,156952
2,165971,169872
2,204072,204909
//Storyboard Layer 0 (Background)
//Storyboard Layer 1 (Failing)
//Storyboard Layer 2 (Passing)
//Storyboard Layer 3 (Foreground)
//Storyboard Sound Samples
//Background Colour Transformations
3,100,128,64,64

[TimingPoints]
10720,331.308669243512,4,2,0,90,1,0

[Colours]
Combo1 : 255,255,255
Combo2 : 217,184,123
Combo3 : 74,0,0
Combo4 : 77,77,77
Combo5 : 128,0,128

[HitObjects]
288,32,10720,1,0
288,96,11052,1,0
288,160,11383,1,8
352,128,11714,1,0
320,160,11880,1,8
160,192,12708,5,8
192,128,13039,1,0
256,160,13370,1,0
224,224,13702,1,0
288,256,14033,5,8
320,192,14364,1,0
320,224,14530,1,8
256,288,15026,5,0
256,224,15358,1,8
256,160,15689,1,0
288,96,16020,5,0
352,96,16351,1,0
416,96,16683,1,8
384,32,17014,1,0
416,64,17179,1,8
320,192,18007,5,8
288,256,18339,1,0
224,224,18670,1,0
256,160,19001,1,0
192,128,19332,1,8
160,192,19664,1,0
160,160,19829,1,8
256,192,20326,6,0,B|288:192,5,25
320,192,21320,5,0
128,192,22313,1,0
128,128,22645,1,0
352,64,23806,5,0
352,96,23972,1,0
352,160,24303,1,0
352,192,24469,1,0
352,288,24965,1,0
120,288,26126,5,0
120,192,26623,1,0
120,160,26788,1,0
120,96,27119,1,0
264,24,27948,5,0
264,56,28114,1,0
264,120,28445,2,0,B|264:248,1,125
328,248,29605,1,0
360,192,29936,1,8
392,248,30267,1,0
392,224,30433,1,8
288,192,30929,6,8,B|256:192,4,25,0|0|0|0|8
288,256,31923,5,0
96,288,32917,1,0
96,256,33082,2,0,B|96:176,1,75
32,96,34076,5,0
64,64,34242,1,0
128,32,34573,1,0
192,64,34904,1,0
224,96,35070,1,8
288,64,35402,1,0
352,96,35733,1,8
448,160,36230,5,0
384,160,36562,2,0,B|352:160,1,25
288,224,37224,1,8
320,288,37555,1,0
288,256,37721,1,8
448,288,38549,5,8
384,288,38880,1,0
352,288,39046,1,0
288,288,39377,1,0
192,288,39874,1,8
128,256,40206,5,0
192,224,40537,1,8
128,192,40868,1,0
160,192,41034,1,8
256,224,41531,6,8,B|288:224,4,25,0|0|0|0|8
320,256,42525,1,0
128,128,43685,5,0
160,128,43850,1,0
192,128,44016,1,0
224,128,44182,1,0
288,128,44513,5,0
352,128,44844,2,0,B|448:128|448:224|336:224,1,200
304,224,46335,1,0
272,224,46501,1,0
208,224,46833,1,0
176,224,46998,1,0
112,224,47330,1,0
80,224,47495,2,0,B|-16:224|-16:320|80:320|80:320|104:320,1,200
160,320,49151,1,0
224,320,49483,1,0
352,320,50145,6,0,B|352:216,1,100,0|8
352,96,51470,1,8
480,160,52132,1,0
448,224,52464,1,8
512,224,52795,1,0
192,96,54285,5,0
224,96,54451,1,0
288,96,54782,1,0
416,96,55445,2,0,B|512:96|512:192|400:192,1,200
384,192,56935,5,0
352,192,57101,1,0
320,192,57266,1,0
288,192,57432,1,0
256,192,57598,1,0
192,192,57929,1,0
160,176,58094,2,0,B|144:176|128:208|160:208|160:208,7,50,0|0|0|8|0|0|0|8
176,192,60579,5,0
208,192,60744,1,0
272,192,61407,1,0
336,192,62069,1,8
400,192,62732,2,0,B|432:192,6,25,0|0|0|8|0|8|8
224,128,64723,5,0
288,96,65054,2,0,B|288:64,2,25
352,128,65713,1,8
416,160,66044,2,8,B|320:192,1,100
192,192,67373,1,8
96,96,68035,1,8
0,192,68698,1,0
96,288,69360,1,0
160,320,69691,5,8
192,256,70023,1,0
192,288,70188,1,8
288,192,70851,5,0
256,192,71016,1,0
224,192,71182,1,0
160,192,71513,1,0
64,96,72176,5,0
96,64,72341,2,0,B|96:32,2,25
128,96,72838,1,0
288,96,73666,6,0,B|320:96,1,25
352,96,73997,1,0
128,160,75157,6,0,B|128:192,1,25
192,224,75654,2,0,B|192:256,2,25
256,192,76316,1,8
320,192,76647,2,8,B|416:224,1,100,8|8
448,96,77972,1,0
320,96,78635,1,8
320,224,79297,1,0
448,224,79963,2,0,B|448:256,2,25,0|0|8
192,224,81620,5,0
192,160,81951,1,0
224,32,82613,2,0,B|256:32,6,25,0|0|0|0|0|0|8
192,32,83773,2,0,B|160:32,5,25,0|0|0|8|8|8
384,32,85760,6,0,B|352:32,1,25
320,32,86091,1,0
448,256,87416,2,0,B|416:256,1,25
352,288,87913,2,0,B|320:288,1,25
256,320,88410,2,0,B|224:320,1,25
128,160,89571,6,0,B|160:160,1,25
192,160,89903,1,0
240,208,90234,1,0
288,256,90565,2,0,B|320:256,1,25,0|0
256,160,91890,2,0,B|288:160,1,25
480,320,96528,6,0,B|448:320,1,25
416,96,97853,1,0
384,128,98184,2,0,B|352:128,1,25
320,160,98681,2,0,B|288:160,1,25
256,192,99178,1,0
128,288,100006,6,0,B|160:288,1,25
192,256,100503,1,0
224,224,100834,1,0
256,192,101165,2,0,B|288:192,1,25
256,192,102407,12,0,104157
128,256,107296,5,0
160,256,107461,1,0
192,256,107627,1,0
224,256,107793,1,0
288,256,108124,5,0
352,256,108455,2,0,B|448:256|448:160|352:160,1,187.5
320,160,109946,2,0,B|288:160,1,25
224,160,110444,1,0
192,160,110609,1,0
128,160,110941,1,0
96,160,111106,2,0,B|0:160|0:64|96:64|96:64|144:64,1,225
176,64,112762,1,0
240,64,113094,1,0
352,64,113756,6,0,B|352:168,1,100,0|8
352,288,115081,1,8
480,224,115743,1,0
448,160,116075,1,8
512,160,116406,1,0
192,288,117896,5,0
224,288,118062,1,0
288,288,118393,1,0
416,288,119056,2,0,B|512:288|512:192|400:192,1,200
368,192,120546,5,0
336,192,120712,1,0
304,192,120877,1,0
272,192,121043,1,0
240,192,121209,1,0
176,192,121540,1,0
144,176,121708,2,0,B|128:176|112:208|144:208|144:208,7,50,0|0|0|8|0|0|0|8
224,192,124355,5,0
352,192,125018,1,0
480,192,125680,1,8
480,64,126343,2,0,B|480:32,6,25,0|0|0|8|0|8|8
224,256,128334,5,0
288,288,128665,2,0,B|288:320,2,25
352,256,129324,1,8
416,224,129655,2,8,B|320:192,1,100
192,192,130984,1,8
96,288,131646,1,8
0,192,132309,1,0
96,96,132971,1,0
160,64,133302,5,8
192,128,133634,1,0
192,96,133799,1,8
288,192,134462,5,0
256,192,134627,1,0
224,192,134793,1,0
160,192,135124,1,0
64,288,135787,5,0
96,320,135952,2,0,B|96:352,2,25
128,288,136449,1,0
288,288,137277,6,0,B|320:288,1,25
352,288,137608,1,0
128,224,138768,6,0,B|128:192,1,25
192,160,139265,2,0,B|192:128,2,25
256,192,139927,1,8
320,192,140258,2,8,B|416:160,1,100,8|8
448,288,141583,1,0
320,288,142246,1,8
320,160,142908,1,0
448,160,143574,2,0,B|448:128,2,25,0|0|8
192,160,145231,5,0
192,224,145562,1,0
224,352,146224,2,0,B|256:352,6,25,0|0|0|0|0|0|8
192,352,147384,2,0,B|160:352,5,25,0|0|0|8|8|8
368,48,158152,6,0,B|320:-16|256:-16|160:0|144:48,1,250
96,80,160140,2,0,B|57:93|41:189|41:253|105:301,1,250
160,336,162128,2,0,B|208:400|272:400|368:384|384:336,1,250
432,304,164115,2,0,B|496:256|496:192|480:96|432:80,1,250
192,288,171072,5,0
256,288,171403,1,0
384,288,172066,2,0,B|480:288|480:192|368:192,1,200
320,192,173557,6,0,B|320:160,2,25,0|0|0
256,192,174220,1,0
192,192,174551,1,0
160,208,174717,2,0,B|144:208|128:176|160:176|160:176,7,50,0|0|0|8|0|0|0|8
224,192,177366,1,0
352,192,178030,1,0
480,192,178693,1,8
384,96,179356,2,0,B|384:64,5,25
352,96,180349,2,0,B|352:128,3,25
320,96,181012,2,0,B|320:64,3,25
288,96,181674,2,0,B|288:128,3,25
256,96,182337,2,0,B|256:64,4,25
288,256,183994,5,0
224,288,184325,2,0,B|224:320,2,25
160,256,184984,1,8
96,224,185315,2,8,B|192:192,1,100
320,192,186644,1,8
416,288,187306,1,8
512,192,187969,1,0
416,96,188631,1,0
352,64,188962,5,8
320,128,189294,1,0
320,96,189459,1,8
224,192,190122,5,0
256,192,190287,1,0
288,192,190453,1,0
352,192,190784,1,0
448,288,191447,5,0
416,320,191612,2,0,B|416:352,2,25
384,288,192109,1,0
224,288,192937,6,0,B|192:288,1,25
160,288,193268,1,0
384,224,194428,6,0,B|384:192,1,25
320,160,194925,2,0,B|320:128,2,25
256,192,195587,1,8
192,192,195918,2,8,B|96:160,1,100,8|8
64,288,197243,1,0
192,288,197906,1,8
192,160,198568,1,0
64,160,199234,2,0,B|64:128,2,25,0|0|8
320,160,200891,5,0
320,224,201222,1,0
288,352,201884,2,0,B|256:352,6,25,0|0|0|0|0|0|8
320,352,203044,2,0,B|352:352,5,25,0|0|0|8|8|8
256,192,206109,12,0,206689
256,192,207435,12,0,208018
160,192,208842,6,0,B|192:192,1,25
256,192,209339,1,0
320,192,209670,2,0,B|352:192,1,25
32,96,211492,5,0
72,144,211823,1,0
112,96,212155,2,0,B|112:64,2,25
288,64,213479,5,0
288,96,213645,1,0
288,160,213976,1,0
288,224,214307,1,0
288,256,214473,2,0,B|288:288,2,25,0|0|0
192,160,216793,5,0
224,192,216958,1,0
256,256,217290,1,0
320,96,218119,5,0
288,128,218284,1,0
256,192,218615,1,0
256,352,219443,6,0,B|256:320,1,25
256,256,219940,1,0
256,192,220271,2,0,B|256:160,1,25
448,144,222092,5,0
408,192,222424,1,0
360,160,222755,2,0,B|360:128,2,25
328,160,223252,2,0,B|328:128,2,25
296,160,223749,2,0,B|296:128,2,25
264,160,224245,2,0,B|264:128,2,25
232,160,224742,2,0,B|232:128,2,25
168,160,225405,5,0
168,216,225736,1,0
168,272,226067,1,0
240,224,226564,1,0
272,240,226730,1,0
304,320,227064,1,0
256,192,227475,12,0,229225
