osu file format v9

[General]
AudioFilename: incubus - ana molly.mp3
AudioLeadIn: 0
PreviewTime: 63520
Countdown: 0
SampleSet: Normal
StackLeniency: 0.7
Mode: 0
LetterboxInBreaks: 1

[Editor]
Bookmarks: 12993,38257,63520
DistanceSpacing: 1.1
BeatDivisor: 4
GridSize: 4

[Metadata]
Title:Anna Molly
Artist:Incubus
Creator:Katsuri
Version:Normal
Source:
Tags:anomaly Nyquill

[Difficulty]
HPDrainRate:2
CircleSize:3
OverallDifficulty:2
ApproachRate:3
SliderMultiplier:1
SliderTickRate:2

[Events]
//Background and Video events
0,0,"incubus-208226.jpg"
//Break Periods
2,82623,87283
//Storyboard Layer 0 (Background)
//Storyboard Layer 1 (Fail)
//Storyboard Layer 2 (Pass)
//Storyboard Layer 3 (Foreground)
//Storyboard Sound Samples
//Background Colour Transformations
3,100,163,162,255

[TimingPoints]
13011,394.386564564367,4,1,0,70,1,0
23954,-100,4,1,0,70,0,0
25632,-100,4,2,0,100,0,0
63492,-100,4,1,0,70,0,1
76112,-100,4,1,0,70,0,0
107663,-100,4,1,0,70,0,1
130150,-100,4,1,0,70,0,1
130544,-100,4,1,0,60,0,1
130939,-100,4,1,0,40,0,1
131334,-100,4,1,0,20,0,1
131729,-100,4,1,0,10,0,1
132123,-100,4,1,0,5,0,1
132904,-100,4,1,0,5,0,0

[Colours]
Combo1 : 255,193,102
Combo2 : 180,75,61
Combo3 : 97,100,239
Combo4 : 91,94,125

[HitObjects]
56,144,13011,2,0,B|108:240|84:348,1,200,0|8
244,284,14391,1,0
384,336,14982,1,0
384,336,15377,2,0,B|372:224|440:140,1,200,8|0
352,76,16560,6,0,B|297:63|240:76,1,100,0|8
112,156,17546,1,0
52,308,18138,2,8,B|164:272|248:344,1,200,0|8
352,332,19321,6,0,B|404:244,1,100
500,192,20109,2,0,B|408:160|344:52,1,200,8|0
240,68,21293,1,0
132,92,21687,1,8
92,196,22081,1,8
80,304,22476,6,0,B|176:260|284:312,1,200,2|8
376,268,23659,2,0,B|452:176,1,100,2|0
344,136,24448,1,0
256,72,24842,1,8
168,136,25236,1,8
60,148,25631,6,0,B|140:228|116:332,1,200,0|8
228,320,26814,2,0,B|332:288,1,100,8|0
432,312,27603,1,8
476,212,27997,2,0,B|432:112|492:4,1,200,0|0
376,40,29180,2,0,B|264:80,1,100,8|0
184,124,29969,1,8
184,124,30364,1,4
256,192,30462,12,4,31941
48,148,32730,5,0
112,56,33124,1,8
196,124,33519,2,0,B|244:152|304:124,1,100,0|8
368,48,34307,1,0
368,48,34702,2,0,B|364:172|420:240,1,200,8|8
208,304,36279,1,8
104,344,36674,2,8,B|0:192|124:56,1,300
212,120,38251,6,0,B|276:180|368:128,1,150,0|0
440,200,39237,2,0,B|460:316,2,100,0|8|0
456,92,40420,2,0,B|432:32|364:28,1,100,0|4
220,44,41406,6,0,B|148:88|60:52,1,150,0|4
80,168,42392,2,0,B|56:248|100:320,1,150,0|2
196,268,43378,1,8
300,308,43773,1,2
408,284,44167,1,8
376,180,44561,6,0,B|332:116|376:24,1,150,0|4
260,48,45547,2,0,B|192:64,2,50,0|0|2
280,156,46336,1,2
176,188,46731,1,2
140,84,47125,1,6
64,232,47717,6,0,B|144:260|160:356,1,150,2|4
268,328,48702,1,0
368,276,49097,2,4,B|428:288|480:272,1,100
256,192,49688,12,4,50872
328,72,51858,6,0,B|436:92,2,100,0|8|0
232,124,53041,2,4,B|176:188|88:168,1,150
108,280,54027,6,0,B|164:308,3,50,0|2|0|4
260,320,55013,2,0,B|324:284|404:328,1,150
356,228,55999,2,0,B|420:240|464:276|464:276|496:196,1,200,2|4
452,116,57182,6,2,B|400:40|312:80,1,150,2|6
220,36,58168,2,0,B|112:56,1,100,2|0
64,148,58957,2,2,B|36:244,2,100
92,296,60337,6,4,B|140:184|256:248|256:248|372:184|420:296,1,400,4|0
256,192,62112,12,4,63492
124,132,64281,6,2,B|96:232,2,100
216,72,65464,1,8
324,96,65858,2,2,B|424:64,2,100
364,200,67041,1,8
348,308,67436,6,2,B|256:240|164:308,1,200
68,360,68619,1,8
52,260,69013,2,2,B|24:156,1,100,0|8
64,60,69802,6,0,B|124:96|160:72|196:48|256:84,1,200,0|8
448,60,71380,2,0,B|388:96|352:72|316:48|256:84,1,200,0|8
88,328,72957,2,4,B|120:264|196:232|256:220|316:232|392:264|424:328,2,400
28,248,76507,5,8
108,184,76901,1,0
60,96,77296,1,8
256,52,78084,5,8
204,136,78479,1,0
308,136,78873,1,8
484,248,79662,5,8
404,184,80056,1,0
452,96,80451,1,8
256,192,80845,12,4,82423
256,44,88733,5,0
256,156,89127,1,8
56,244,89916,2,0,B|76:328|160:348,1,150,8|2
256,300,90902,1,2
357,346,91296,2,0,B|436:328|456:244,1,150,2|0
332,132,92479,6,0,B|340:32,2,100,8|0|2
256,212,93663,1,8
180,132,94057,2,0,B|172:32,1,100,2|8
48,144,95043,6,0,B|0:220|12:316|116:340,1,250,2|8
200,268,96423,2,0,B|208:164,1,100,0|2
304,168,97212,2,0,B|312:268,1,100,0|2
464,144,98198,6,0,B|512:220|500:316|396:340,1,250,2|8
312,268,99578,2,0,B|304:164,1,100,0|2
207,168,100367,2,0,B|216:256|180:316,1,150,0|2
92,248,101353,6,0,B|76:148,1,100,0|8
256,24,102536,1,8
324,112,102931,2,2,B|368:112|375:127|420:132,2,100
256,200,104114,1,8
256,192,104508,12,4,107663
384,252,108452,6,2,B|420:152,2,100
288,308,109635,1,8
180,296,110030,2,2,B|121:288|90:328,2,100
148,192,111213,1,8
164,84,111607,6,2,B|256:152|348:84,1,200
440,24,112790,1,8
460,124,113185,2,2,B|488:228,1,100,0|8
448,324,113973,6,0,B|388:288|352:312|316:336|256:300,1,200,0|8
64,324,115551,2,0,B|124:288|160:312|196:336|256:300,1,200,0|8
424,56,117129,2,4,B|392:120|316:152|256:164|196:152|120:120|88:56,2,400
440,276,121072,6,0,B|352:336,1,100,0|8
256,288,121861,1,0
148,307,122256,2,2,B|168:228|88:172|31:183,1,200
120,116,123439,5,0
224,80,123833,2,0,B|312:36,2,100,8|0|8
320,132,125016,1,0
400,336,125805,1,2
468,256,126199,1,2
468,148,126594,6,0,B|424:100|356:100|336:172|316:248|256:260|196:248|176:172|156:100|88:100|44:148,1,500,4|2
48,256,128960,1,2
152,296,129355,1,2
256,192,129749,12,0,132904
