osu file format v12

[General]
AudioFilename: I wanted you - Ina.mp3
AudioLeadIn: 0
PreviewTime: 112460
Countdown: 0
SampleSet: Soft
StackLeniency: 0.7
Mode: 0
LetterboxInBreaks: 1

[Editor]
DistanceSpacing: 1
BeatDivisor: 4
GridSize: 4

[Metadata]
Title:I wanted you
TitleUnicode:I wanted you
Artist:Ina
ArtistUnicode:Ina
Creator:Zejky
Version:Normal
Source:
Tags:Kazumikos Wroldsen
BeatmapID:151102
BeatmapSetID:48090

[Difficulty]
HPDrainRate:4
CircleSize:4
OverallDifficulty:4
ApproachRate:5
SliderMultiplier:2.6
SliderTickRate:2

[Events]
//Background and Video events
0,0,"BG2.jpg",0,0
//Break Periods
2,82724,97154
2,163092,175810
//Storyboard Layer 0 (Background)
//Storyboard Layer 1 (Fail)
//Storyboard Layer 2 (Pass)
//Storyboard Layer 3 (Foreground)
//Storyboard Sound Samples
//Background Colour Transformations
3,100,163,162,255

[TimingPoints]
1548,1008.40336134454,4,2,1,40,1,0
49951,-100,4,2,1,45,0,1
50077,-100,4,2,1,45,0,0
66085,-100,4,2,1,45,0,1
66211,-100,4,2,1,45,0,0
82220,-100,4,2,1,30,0,0
98354,-100,4,2,1,40,0,0
114489,-100,4,2,1,45,0,1
114615,-100,4,2,1,45,0,0
130623,-100,4,2,1,45,0,1
130749,-100,4,2,1,45,0,0
146758,-100,4,2,1,40,0,0
161758,-100,4,2,1,35,0,0
162010,-100,4,2,1,30,0,0
162262,-100,4,2,1,25,0,0
162640,-100,4,2,1,20,0,0
162766,-100,4,2,1,15,0,0
163018,-100,4,2,1,10,0,0
177010,-100,4,3,1,40,0,0
177514,-100,4,2,1,45,0,0
179026,-100,4,2,1,45,0,1
209279,-100,4,2,1,40,0,1
209783,-100,4,2,1,35,0,1
210287,-100,4,2,1,30,0,1
210791,-100,4,2,1,20,0,1
211295,-100,4,2,1,15,0,0

[Colours]
Combo1 : 255,216,157
Combo2 : 255,255,255
Combo3 : 255,193,164
Combo4 : 174,70,78

[HitObjects]
136,72,17682,1,2,0:0:0:0:
56,172,18186,2,0,B|28:240|56:320,2,130,0|8|2,0:0|0:0|0:0,0:0:0:0:
168,240,19699,2,0,B|190:310|263:353,1,130
292,220,20707,1,8,0:0:0:0:
392,300,21211,1,0,0:0:0:0:
412,172,21716,1,2,0:0:0:0:
344,60,22220,6,0,B|404:24|488:60,2,130,0|8|2,0:0|0:0|0:0,0:0:0:0:
224,108,23732,2,0,B|188:108|188:108|132:92|132:92|80:92,1,130
48,212,24741,1,8,0:0:0:0:
152,288,25245,1,10,0:0:0:0:
236,188,25749,1,2,0:0:0:0:
364,188,26253,6,0,B|408:160|456:160|500:188,2,130,0|8|2,0:0|0:0|0:0,0:0:0:0:
396,316,27766,2,0,B|352:344|304:344|260:316,1,130
248,196,28774,1,8,0:0:0:0:
304,80,29279,5,10,0:0:0:0:
240,68,29531,1,0,0:0:0:0:
176,80,29783,1,2,0:0:0:0:
68,156,30287,2,0,B|36:224|72:292,2,130,0|8|0,0:0|0:0|0:0,0:0:0:0:
176,80,31800,2,0,B|120:24|52:28,2,130,0|2|10,0:0|0:0|0:0,0:0:0:0:
256,180,33312,1,10,0:0:0:0:
380,148,33816,1,2,0:0:0:0:
344,272,34321,6,0,B|392:324|484:316,2,130,0|8|2,0:0|0:0|0:0,0:0:0:0:
224,332,35833,2,0,B|84:332,1,130
120,204,36842,1,8,0:0:0:0:
44,100,37346,2,0,B|44:32,2,65,8|0|2,0:0|0:0|0:0,0:0:0:0:
168,60,38354,6,0,B|300:60,1,130,0|8,0:0|0:0,0:0:0:0:
220,164,39363,2,0,B|372:164,1,130,2|0,0:0|0:0,0:0:0:0:
268,264,40371,2,0,B|344:264,2,65,0|0|8,0:0|0:0|0:0,0:0:0:0:
152,324,41379,2,0,B|92:348|92:348|20:348,1,130,10|2,0:0|0:0,0:0:0:0:
76,228,42388,6,0,B|44:168|80:100,1,130,0|8,0:0|0:0,0:0:0:0:
192,168,43396,1,2,0:0:0:0:
256,56,43900,2,0,B|292:56|292:56|356:44|356:44|392:44,2,130,0|2|8,0:0|0:0|0:0,0:0:0:0:
372,116,45413,2,0,B|488:116,2,65,8|0|2,0:0|0:0|0:0,0:0:0:0:
304,228,46421,6,0,B|376:240|412:308,1,130,0|8,0:0|0:0,0:0:0:0:
288,356,47430,1,2,0:0:0:0:
224,348,47682,1,0,0:0:0:0:
160,356,47934,1,2,0:0:0:0:
52,280,48438,1,2,0:0:0:0:
28,220,48690,2,0,B|24:184|40:152,1,65,2|10,0:0|0:0,0:0:0:0:
168,152,49447,1,0,0:0:0:0:
180,88,49699,1,0,0:0:0:0:
236,52,49951,6,0,B|284:24|368:40,1,130,6|0,0:0|0:0,0:0:0:0:
276,136,50959,2,0,B|200:160,2,65,8|2|0,0:0|0:0|0:0,0:0:0:0:
308,192,51716,2,0,B|444:216,1,130,2|0,0:0|0:0,0:0:0:0:
344,304,52724,6,0,B|288:336,1,65,2|8,0:0|0:0,0:0:0:0:
224,348,53228,2,0,B|156:348,1,65,2|2,0:0|0:0,0:0:0:0:
96,336,53732,1,0,0:0:0:0:
56,284,53984,2,0,B|32:220|64:136,1,130,2|0,0:0|0:0,0:0:0:0:
180,112,54993,1,8,0:0:0:0:
220,60,55245,1,2,0:0:0:0:
284,40,55497,1,0,0:0:0:0:
348,52,55749,2,0,B|420:72|452:132,1,130,2|2,0:0|0:0,0:0:0:0:
392,244,56758,6,0,B|424:256|456:244,2,65,2|8|2,0:0|0:0|0:0,0:0:0:0:
340,208,57514,2,0,B|304:196|260:208,1,65,10|0,0:0|0:0,0:0:0:0:
216,228,58018,1,2,0:0:0:0:
132,328,58522,6,0,P|160:348|208:352,2,65,0|2|0,0:0|0:0|0:0,0:0:0:0:
84,284,59279,1,2,0:0:0:0:
40,160,59783,1,2,0:0:0:0:
20,96,60035,1,0,0:0:0:0:
48,36,60287,1,2,0:0:0:0:
172,68,60791,6,0,B|188:36|228:36,2,65,0|0|2,0:0|0:0|0:0,0:0:0:0:
228,100,61548,2,0,B|288:128|368:96,1,130,2|0,0:0|0:0,0:0:0:0:
356,232,62556,5,0,0:0:0:0:
348,296,62808,2,0,B|388:300|412:268,2,65,2|8|0,0:0|0:0|0:0,0:0:0:0:
296,256,63564,2,0,B|232:228|164:256,1,130,2|0,0:0|0:0,0:0:0:0:
44,208,64573,5,0,0:0:0:0:
84,156,64825,2,0,B|112:136|152:156,1,65,2|8,0:0|0:0,0:0:0:0:
116,212,65329,2,0,B|96:240|116:280,2,65,2|10|0,0:0|0:0|0:0,0:0:0:0:
172,244,66085,2,0,B|240:260|312:240,1,130,6|0,0:0|0:0,0:0:0:0:
232,132,67094,5,8,0:0:0:0:
172,112,67346,2,0,P|136:104|120:60,1,65,2|0,0:0|0:0,0:0:0:0:
176,48,67850,2,0,B|240:24|312:52,1,130,2|0,0:0|0:0,0:0:0:0:
404,96,68858,6,0,B|444:88|484:116,1,65,2|8,0:0|0:0,0:0:0:0:
428,160,69363,2,0,B|468:176|484:212,1,65,2|2,0:0|0:0,0:0:0:0:
492,264,69867,1,0,0:0:0:0:
456,320,70119,2,0,P|404:356|336:320,1,130,2|0,0:0|0:0,0:0:0:0:
296,292,70875,2,0,P|228:288|156:304,1,130,0|2,0:0|0:0,0:0:0:0:
108,324,71632,1,0,0:0:0:0:
52,356,71884,2,0,B|16:296|52:224,1,130,2|0,0:0|0:0,0:0:0:0:
168,184,72892,6,0,P|184:212|208:236,2,65,2|8|2,0:0|0:0|0:0,0:0:0:0:
156,120,73648,1,10,0:0:0:0:
196,68,73900,1,0,0:0:0:0:
260,52,74153,2,0,B|320:36|400:56,1,130,2|0,0:0|0:0,0:0:0:0:
424,108,74909,2,0,B|396:136|344:136,1,65,2|8,0:0|0:0,0:0:0:0:
300,140,75413,1,2,0:0:0:0:
376,240,75917,2,0,B|432:204|500:236,1,130,2|0,0:0|0:0,0:0:0:0:
432,348,76926,5,0,0:0:0:0:
384,304,77178,2,0,B|348:296|304:308,1,65,10|0,0:0|0:0,0:0:0:0:
264,336,77682,2,0,B|240:360|200:356,2,65,10|0|0,0:0|0:0|0:0,0:0:0:0:
168,248,78690,5,0,0:0:0:0:
116,208,78942,2,0,B|44:208,1,65,2|8,0:0|0:0,0:0:0:0:
64,144,79447,1,2,0:0:0:0:
104,92,79699,2,0,B|240:92,1,130,2|0,0:0|0:0,0:0:0:0:
234,92,80707,5,0,0:0:0:0:
352,44,81211,1,8,0:0:0:0:
352,44,81716,1,8,0:0:0:0:
456,124,82220,1,6,0:0:0:0:
204,180,98354,5,2,0:0:0:0:
156,300,98858,2,0,B|88:268|76:200,2,130,0|8|2,0:0|0:0|0:0,0:0:0:0:
284,272,100371,2,0,B|340:240|412:260,1,130
340,148,101379,2,0,B|312:96|336:44|336:44|312:24,1,130,8|0,0:0|0:0,0:0:0:0:
436,92,102388,1,2,0:0:0:0:
318,29,102892,6,0,B|240:16|168:44,1,130,0|8,0:0|0:0,0:0:0:0:
252,152,103900,2,0,B|284:216|256:288,1,130,2|0,0:0|0:0,0:0:0:0:
140,228,104909,2,0,B|68:228,2,65,0|0|8,0:0|0:0|0:0,0:0:0:0:
92,108,105917,2,0,B|124:48|208:36,1,130,10|2,0:0|0:0,0:0:0:0:
176,168,106926,5,0,0:0:0:0:
208,224,107178,1,0,0:0:0:0:
180,284,107430,1,8,0:0:0:0:
292,348,107934,2,0,B|428:336,1,130,2|0,0:0|0:0,0:0:0:0:
352,228,108942,2,0,B|288:232,2,65,0|0|8,0:0|0:0|0:0,0:0:0:0:
416,116,109951,2,0,B|288:128,1,130,8|2,0:0|0:0,0:0:0:0:
172,68,110959,6,0,B|132:64|88:80,1,65
88,136,111463,2,0,B|56:156|4:144,2,65,8|0|0,0:0|0:0|0:0,0:0:0:0:
96,268,112472,1,2,0:0:0:0:
212,328,112976,1,0,0:0:0:0:
276,328,113228,2,0,B|344:328,1,65,2|10,0:0|0:0,0:0:0:0:
436,240,113984,2,0,B|416:204|424:176,1,65
484,152,114489,6,0,B|496:80|448:24,1,130,6|0,0:0|0:0,0:0:0:0:
360,120,115497,2,0,B|296:152|232:148,1,130,10|0,0:0|0:0,0:0:0:0:
176,116,116253,1,0,0:0:0:0:
124,80,116505,1,2,0:0:0:0:
60,96,116758,1,0,0:0:0:0:
92,220,117262,6,0,B|80:256|104:292,1,65,2|8,0:0|0:0,0:0:0:0:
148,324,117766,1,2,0:0:0:0:
212,332,118018,1,2,0:0:0:0:
272,312,118270,1,2,0:0:0:0:
336,308,118522,2,0,B|412:308|468:340,1,130,2|0,0:0|0:0,0:0:0:0:
408,220,119531,2,0,B|380:160|408:80,1,130,10|0,0:0|0:0,0:0:0:0:
460,60,120287,2,0,B|476:96|460:140,2,65,2|0|2,0:0|0:0|0:0,0:0:0:0:
336,104,121295,6,0,B|300:116|260:100,1,65,2|8,0:0|0:0,0:0:0:0:
216,68,121800,1,2,0:0:0:0:
152,76,122052,2,0,B|116:87|81:121,1,65,10|0,0:0|0:0,0:0:0:0:
52,156,122556,2,0,B|36:228|84:288,1,130,2|0,0:0|0:0,0:0:0:0:
192,344,123564,1,10,0:0:0:0:
312,296,124069,1,0,0:0:0:0:
376,296,124321,2,0,B|444:292|500:256,1,130,2|0,0:0|0:0,0:0:0:0:
388,188,125329,5,2,0:0:0:0:
440,148,125581,1,8,0:0:0:0:
388,108,125833,1,0,0:0:0:0:
332,72,126085,2,0,B|264:52|200:72,1,130,2|0,0:0|0:0,0:0:0:0:
148,188,127094,5,0,0:0:0:0:
104,236,127346,2,0,B|40:236,2,65,2|8|0,0:0|0:0|0:0,0:0:0:0:
128,296,128102,2,0,B|180:316|272:300,1,130,2|0,0:0|0:0,0:0:0:0:
384,276,129111,5,0,0:0:0:0:
420,328,129363,2,0,B|456:344|488:324,1,65,2|8,0:0|0:0,0:0:0:0:
496,264,129867,1,2,0:0:0:0:
504,200,130119,1,10,0:0:0:0:
488,136,130371,1,0,0:0:0:0:
460,80,130623,6,0,P|400:52|344:84,1,130,6|0,0:0|0:0,0:0:0:0:
312,132,131379,2,0,P|252:160|196:128,1,130,2|0,0:0|0:0,0:0:0:0:
228,260,132388,1,2,0:0:0:0:
212,324,132640,1,2,0:0:0:0:
152,344,132892,1,0,0:0:0:0:
44,276,133396,6,0,B|20:252|24:216,2,65,2|8|2,0:0|0:0|0:0,0:0:0:0:
88,228,134153,2,0,B|124:220|132:172,1,65,2|0,0:0|0:0,0:0:0:0:
136,120,134657,2,0,P|168:56|232:28,1,130,2|0,0:0|0:0,0:0:0:0:
276,56,135413,2,0,P|336:68|420:44,1,130,2|0,0:0|0:0,0:0:0:0:
456,172,136421,1,2,0:0:0:0:
464,236,136674,1,2,0:0:0:0:
408,268,136926,1,0,0:0:0:0:
288,320,137430,6,0,P|310:348|347:362,2,65,0|8|0,0:0|0:0|0:0,0:0:0:0:
300,256,138186,2,0,P|304:220|288:184,1,65,8|0,0:0|0:0,0:0:0:0:
240,228,138690,2,0,B|168:204|112:244,1,130,2|0,0:0|0:0,0:0:0:0:
80,296,139447,1,0,0:0:0:0:
48,352,139699,1,10,0:0:0:0:
4,228,140203,1,2,0:0:0:0:
52,184,140455,2,0,P|88:132|48:56,1,130,0|0,0:0|0:0,0:0:0:0:
200,68,141463,6,0,B|236:76|264:68,1,65,2|8,0:0|0:0,0:0:0:0:
324,40,141968,1,0,0:0:0:0:
356,96,142220,2,0,B|356:160|392:160|392:224,1,130,10|0,0:0|0:0,0:0:0:0:
296,308,143228,5,0,0:0:0:0:
232,292,143480,2,0,B|200:308|168:292,2,65,2|8|0,0:0|0:0|0:0,0:0:0:0:
196,236,144237,2,0,B|152:220|128:244|128:244|52:244,1,130,2|0,0:0|0:0,0:0:0:0:
104,120,145245,1,0,0:0:0:0:
204,40,145749,1,8,0:0:0:0:
268,28,146001,1,0,0:0:0:0:
332,40,146253,1,8,0:0:0:0:
400,152,146758,5,2,0:0:0:0:
400,152,147262,1,2,0:0:0:0:
344,268,147766,1,8,0:0:0:0:
224,316,148270,1,0,0:0:0:0:
120,240,148774,2,0,B|88:232|52:240,2,65,2|0|0,0:0|0:0|0:0,0:0:0:0:
208,144,149783,2,0,B|172:76|88:68,1,130,8|0,0:0|0:0,0:0:0:0:
232,36,150791,5,2,0:0:0:0:
232,36,151295,1,2,0:0:0:0:
344,100,151800,2,0,B|408:100,2,65,8|0|0,0:0|0:0|0:0,0:0:0:0:
280,212,152808,2,0,B|216:212,2,65,2|0|0,0:0|0:0|0:0,0:0:0:0:
368,308,153816,2,0,B|232:336,1,130,10|0,0:0|0:0,0:0:0:0:
116,360,154825,5,2,0:0:0:0:
116,360,155329,1,2,0:0:0:0:
56,244,155833,2,0,B|96:184|68:104,1,130,8|0,0:0|0:0,0:0:0:0:
188,56,156842,2,0,B|216:36|252:56,2,65,2|2|2,0:0|0:0|0:0,0:0:0:0:
220,184,157850,1,10,0:0:0:0:
348,156,158354,2,0,B|388:92|468:92,2,130,8|2|0,0:0|0:0|0:0,0:0:0:0:
404,272,159867,1,8,0:0:0:0:
296,348,160371,5,0,0:0:0:0:
232,340,160623,2,0,B|196:332|172:300,2,65,0|2|2,0:0|0:0|0:0,0:0:0:0:
256,192,161379,12,2,162892,0:0:0:0:
356,68,177010,5,4,0:0:0:0:
304,188,177514,1,0,0:0:0:0:
336,244,177766,6,0,B|352:276|332:312,1,65
280,272,178270,2,0,B|248:256|212:272,1,65
168,312,178774,1,0,0:0:0:0:
108,332,179026,6,0,B|64:288|84:208,1,130,6|0,0:0|0:0,0:0:0:0:
128,88,180035,1,10,0:0:0:0:
188,60,180287,2,0,B|256:60,1,65
280,120,180791,2,0,B|280:192,2,65,2|2|0,0:0|0:0|0:0,0:0:0:0:
340,96,181548,1,0,0:0:0:0:
388,140,181800,6,0,B|460:140,2,65,2|8|2,0:0|0:0|0:0,0:0:0:0:
368,204,182556,2,0,B|356:240|372:276,1,65,2|0,0:0|0:0,0:0:0:0:
316,304,183060,2,0,B|256:328|176:300,1,130,2|0,0:0|0:0,0:0:0:0:
104,204,184069,2,0,B|68:196|40:208,2,65,8|2|0,0:0|0:0|0:0,0:0:0:0:
140,148,184825,2,0,B|132:76|200:40,1,130,2|0,0:0|0:0,0:0:0:0:
252,156,185833,6,0,B|288:168|320:156,1,65,2|8,0:0|0:0,0:0:0:0:
288,100,186337,1,2,0:0:0:0:
328,48,186590,2,0,B|364:36|392:48,1,65,10|0,0:0|0:0,0:0:0:0:
432,100,187094,1,2,0:0:0:0:
400,224,187598,2,0,B|416:296|488:332,1,130,2|8,0:0|0:0,0:0:0:0:
344,328,188606,1,2,0:0:0:0:
288,296,188858,2,0,B|224:256|148:292,1,130,2|0,0:0|0:0,0:0:0:0:
52,220,189867,6,0,B|36:188|52:152,2,65,2|8|0,0:0|0:0|0:0,0:0:0:0:
108,188,190623,2,0,B|188:192|240:156,1,130,2|0,0:0|0:0,0:0:0:0:
272,108,191379,1,0,0:0:0:0:
328,76,191632,1,0,0:0:0:0:
372,124,191884,6,0,B|404:120|432:160,2,65,2|8|0,0:0|0:0|0:0,0:0:0:0:
368,188,192640,2,0,B|416:248|380:320,1,130,2|0,0:0|0:0,0:0:0:0:
256,284,193648,5,0,0:0:0:0:
204,324,193900,2,0,B|172:336|136:324,1,65,2|8,0:0|0:0,0:0:0:0:
104,272,194405,1,2,0:0:0:0:
76,212,194657,2,0,B|112:200|152:216,1,65,10|0,0:0|0:0,0:0:0:0:
136,148,195161,2,0,B|96:84|136:24,1,130,6|0,0:0|0:0,0:0:0:0:
248,88,196169,1,8,0:0:0:0:
304,56,196421,1,2,0:0:0:0:
368,36,196674,1,0,0:0:0:0:
428,64,196926,2,0,B|488:116|488:188,1,130,2|0,0:0|0:0,0:0:0:0:
380,248,197934,6,0,B|368:220|380:176,2,65,2|8|2,0:0|0:0|0:0,0:0:0:0:
384,312,198690,2,0,B|352:324|308:320,1,65,2|0,0:0|0:0,0:0:0:0:
268,280,199195,1,2,0:0:0:0:
144,320,199699,2,0,P|72:292|60:228,1,130,2|8,0:0|0:0,0:0:0:0:
164,180,200707,1,2,0:0:0:0:
176,116,200959,2,0,B|232:76|324:84,1,130,2|0,0:0|0:0,0:0:0:0:
392,176,201968,6,0,P|416:192|436:252,2,65,2|8|2,0:0|0:0|0:0,0:0:0:0:
368,236,202724,2,0,B|352:264|312:288,1,65,10|0,0:0|0:0,0:0:0:0:
264,312,203228,2,0,B|200:336|128:304,1,130,2|0,0:0|0:0,0:0:0:0:
236,224,204237,2,0,B|164:224,2,65,8|2|0,0:0|0:0|0:0,0:0:0:0:
296,200,204993,2,0,B|344:148|324:68,1,130,2|2,0:0|0:0,0:0:0:0:
200,112,206001,5,2,0:0:0:0:
152,68,206253,1,8,0:0:0:0:
88,64,206505,1,0,0:0:0:0:
44,112,206758,2,0,B|12:176|44:252,1,130,2|0,0:0|0:0,0:0:0:0:
112,344,207766,5,0,0:0:0:0:
156,296,208018,2,0,B|188:308|224:296,1,65,10|0,0:0|0:0,0:0:0:0:
256,244,208522,2,0,B|288:232|324:244,1,65,0|2,0:0|0:0,0:0:0:0:
256,192,209026,12,4,211295,0:0:0:0:
