osu file format v12

[General]
AudioFilename: I wanted you - Ina.mp3
AudioLeadIn: 0
PreviewTime: 112460
Countdown: 0
SampleSet: Soft
StackLeniency: 0.7
Mode: 0
LetterboxInBreaks: 1

[Editor]
Bookmarks: 17668,162878
DistanceSpacing: 1
BeatDivisor: 8
GridSize: 4

[Metadata]
Title:I wanted you
TitleUnicode:I wanted you
Artist:Ina
ArtistUnicode:Ina
Creator:Zejky
Version:Hard
Source:
Tags:Kazumikos Wroldsen
BeatmapID:148858
BeatmapSetID:48090

[Difficulty]
HPDrainRate:5
CircleSize:4
OverallDifficulty:6
ApproachRate:7
SliderMultiplier:3.2
SliderTickRate:1

[Events]
//Background and Video events
0,0,"BG3.jpg",0,0
//Break Periods
2,82724,97346
2,163092,176110
//Storyboard Layer 0 (Background)
//Storyboard Layer 1 (Fail)
//Storyboard Layer 2 (Pass)
//Storyboard Layer 3 (Foreground)
//Storyboard Sound Samples
//Background Colour Transformations
3,100,163,162,255

[TimingPoints]
1548,1008.40336134454,4,2,1,40,1,0
33312,-100,4,2,1,35,0,0
33816,-100,4,2,1,40,0,0
37346,-100,4,2,1,35,0,0
37850,-100,4,2,1,40,0,0
49951,-100,4,2,1,45,0,1
50077,-100,4,2,1,45,0,0
66085,-100,4,2,1,45,0,1
66211,-100,4,2,1,45,0,0
82220,-100,4,2,1,40,0,0
114489,-100,4,2,1,45,0,1
114615,-100,4,2,1,45,0,0
130623,-100,4,2,1,45,0,1
130749,-100,4,2,1,45,0,0
146758,-100,4,2,1,40,0,0
161505,-100,4,2,1,40,0,0
162262,-100,4,2,1,25,0,0
162514,-100,4,2,1,20,0,0
162766,-100,4,2,1,15,0,0
177010,-100,4,3,1,30,0,0
177514,-100,4,2,1,45,0,0
179026,-83.3333333333333,4,2,1,45,0,1
210161,-83.3333333333333,4,2,1,35,0,1
210413,-83.3333333333333,4,2,1,30,0,1
210791,-83.3333333333333,4,2,1,25,0,1
211295,-83.3333333333333,4,2,1,35,0,0

[Colours]
Combo1 : 255,216,157
Combo2 : 255,255,255
Combo3 : 255,193,164
Combo4 : 174,70,78

[HitObjects]
104,64,17682,1,2,0:0:0:0:
104,64,18186,2,0,B|48:128|68:232,1,160,0|8,0:0|0:0,0:0:0:0:
140,188,18942,1,0,0:0:0:0:
172,112,19195,2,0,B|224:72|340:76,1,160,2|0,0:0|0:0,0:0:0:0:
404,92,19951,1,0,0:0:0:0:
468,140,20203,2,0,B|504:212|472:320,2,160,0|8|2,0:0|0:0|0:0,0:0:0:0:
304,296,21716,1,2,0:0:0:0:
304,296,22220,6,0,B|236:264|240:184|292:152,1,160,0|8,0:0|0:0,0:0:0:0:
352,132,22976,1,0,0:0:0:0:
288,84,23228,2,0,B|256:16|176:20|144:72,1,160,2|0,0:0|0:0,0:0:0:0:
212,116,23984,1,0,0:0:0:0:
156,176,24237,2,0,B|64:220|8:136,2,160,0|10|10,0:0|0:0|0:0,0:0:0:0:
156,176,25749,1,2,0:0:0:0:
132,336,26253,6,0,B|208:372|292:336,1,160,0|8,0:0|0:0,0:0:0:0:
328,268,27010,1,0,0:0:0:0:
248,268,27262,2,0,B|208:288|156:260,2,80,2|0|0,0:0|0:0|0:0,0:0:0:0:
288,200,28018,1,0,0:0:0:0:
328,268,28270,2,0,B|380:244|376:148|316:124,2,160,0|8|8,0:0|0:0|0:0,0:0:0:0:
288,200,29531,1,0,0:0:0:0:
220,156,29783,6,0,B|60:156,2,160,2|0|10,0:0|0:0|0:0,0:0:0:0:
264,88,31043,1,0,0:0:0:0:
184,84,31295,2,0,B|160:52|120:32,1,80
184,84,31800,2,0,P|144:148|192:232,1,160,2|0,0:0|0:0,0:0:0:0:
256,220,32556,1,0,0:0:0:0:
312,164,32808,2,0,B|356:204|340:288|280:296,1,160,8|8,0:0|0:0,0:0:0:0:
136,344,33816,1,2,0:0:0:0:
456,280,34321,6,0,B|488:200|452:116,1,160,0|8,0:0|0:0,0:0:0:0:
408,60,35077,1,0,0:0:0:0:
356,120,35329,2,0,B|302:52|211:41,1,160,2|0,0:0|0:0,0:0:0:0:
172,104,36085,2,0,B|60:104,1,80
132,176,36590,1,0,0:0:0:0:
52,172,36842,2,0,B|48:236|108:276|176:248,1,160,8|8,0:0|0:0,0:0:0:0:
159,253,37850,1,2,0:0:0:0:
292,344,38354,6,0,B|208:344,2,80,0|0|8,0:0|0:0|0:0,0:0:0:0:
380,208,39363,2,0,B|476:208,2,80,2|0|0,0:0|0:0|0:0,0:0:0:0:
292,40,40371,1,0,0:0:0:0:
220,72,40623,2,0,B|192:92|176:140,1,80,0|8,0:0|0:0,0:0:0:0:
144,212,41127,1,0,0:0:0:0:
192,276,41379,1,8,0:0:0:0:
100,144,41632,1,0,0:0:0:0:
192,276,41884,1,2,0:0:0:0:
192,276,42388,6,0,B|116:276|116:276|104:312|80:328|40:332,1,160,0|8,0:0|0:0,0:0:0:0:
44,252,43144,1,0,0:0:0:0:
192,276,43396,2,0,B|268:276|268:276|280:240|304:224|344:220,1,160,2|0,0:0|0:0,0:0:0:0:
344,300,44153,2,0,B|436:300,1,80
404,224,44657,2,0,B|488:224,2,80,0|8|0,0:0|0:0|0:0,0:0:0:0:
420,144,45413,2,0,B|324:144,1,80,8|0,0:0|0:0,0:0:0:0:
340,144,45917,1,2,0:0:0:0:
212,48,46421,6,0,B|120:48,1,80
72,100,46926,1,8,0:0:0:0:
68,180,47178,1,0,0:0:0:0:
72,100,47430,1,0,0:0:0:0:
144,132,47682,2,0,B|236:132,1,80,2|0,0:0|0:0,0:0:0:0:
216,212,48186,2,0,B|128:212,1,80,0|2,0:0|0:0,0:0:0:0:
84,272,48690,6,0,B|56:312|80:356,1,80,2|10,0:0|0:0,0:0:0:0:
148,316,49195,1,0,0:0:0:0:
148,316,49447,2,0,B|240:316,1,80
461,339,49951,6,0,B|384:364|304:340,1,160,6|0,0:0|0:0,0:0:0:0:
424,272,50707,2,0,B|384:280|344:272,1,80,2|8,0:0|0:0,0:0:0:0:
384,200,51211,2,0,B|424:192|464:200,1,80,2|0,0:0|0:0,0:0:0:0:
344,272,51716,2,0,B|292:240|288:160|352:124,1,160,2|0,0:0|0:0,0:0:0:0:
412,108,52472,1,0,0:0:0:0:
412,108,52724,5,2,0:0:0:0:
348,60,52976,1,10,0:0:0:0:
272,36,53228,1,0,0:0:0:0:
192,36,53480,1,2,0:0:0:0:
116,60,53732,1,0,0:0:0:0:
68,124,53984,6,0,B|44:172|44:216|44:216|84:280,1,160,2|0,0:0|0:0,0:0:0:0:
156,288,54741,2,0,B|256:288,1,80,2|8,0:0|0:0,0:0:0:0:
368,348,55245,2,0,B|288:348,1,80,2|0,0:0|0:0,0:0:0:0:
344,272,55749,2,0,B|424:272,2,80,2|0|2,0:0|0:0|0:0,0:0:0:0:
208,212,56505,2,0,B|288:212,1,80,0|2,0:0|0:0,0:0:0:0:
132,184,57010,5,10,0:0:0:0:
80,124,57262,2,0,P|56:76|72:28,1,80,2|10,0:0|0:0,0:0:0:0:
136,68,57766,1,2,0:0:0:0:
216,68,58018,6,0,B|292:32|396:64,1,160,2|0,0:0|0:0,0:0:0:0:
340,132,58774,2,0,B|296:116|248:140,1,80,2|8,0:0|0:0,0:0:0:0:
304,200,59279,2,0,B|348:216|396:192,1,80,2|0,0:0|0:0,0:0:0:0:
432,260,59783,2,0,B|356:296|252:264,1,160,2|0,0:0|0:0,0:0:0:0:
275,270,60539,1,0,0:0:0:0:
204,308,60791,6,0,B|184:260|220:212,1,80,0|10,0:0|0:0,0:0:0:0:
140,188,61295,1,0,0:0:0:0:
208,230,61548,2,0,B|240:156|200:68,1,160,2|2,0:0|0:0,0:0:0:0:
124,64,62304,2,0,B|36:64,2,80,0|0|2,0:0|0:0|0:0,0:0:0:0:
203,75,63060,5,10,0:0:0:0:
280,56,63312,1,0,0:0:0:0:
360,44,63564,2,0,B|448:20|520:56,2,160,2|2|2,0:0|0:0|0:0,0:0:0:0:
404,112,64825,5,2,0:0:0:0:
472,152,65077,1,8,0:0:0:0:
404,192,65329,1,2,0:0:0:0:
472,232,65581,1,8,0:0:0:0:
404,272,65833,1,0,0:0:0:0:
472,312,66085,6,0,B|440:364|356:364|328:292,1,160,6|0,0:0|0:0,0:0:0:0:
260,324,66842,2,0,B|216:340|176:320,1,80,2|8,0:0|0:0,0:0:0:0:
220,252,67346,2,0,B|204:208|224:168,1,80,2|0,0:0|0:0,0:0:0:0:
292,212,67850,2,0,B|312:144|280:44,1,160,2|0,0:0|0:0,0:0:0:0:
283,54,68606,1,0,0:0:0:0:
208,80,68858,6,0,B|116:80,2,80,2|10|0,0:0|0:0|0:0,0:0:0:0:
283,54,69615,2,0,B|372:56,1,80,2|0,0:0|0:0,0:0:0:0:
456,186,70119,2,0,B|508:152|496:80|444:52,1,160,2|0,0:0|0:0,0:0:0:0:
408,124,70875,2,0,B|328:124,1,80,2|8,0:0|0:0,0:0:0:0:
456,186,71379,2,0,B|476:228|452:284,1,80,2|0,0:0|0:0,0:0:0:0:
388,224,71884,2,0,B|312:192|224:224,1,160,2|0,0:0|0:0,0:0:0:0:
231,221,72640,1,0,0:0:0:0:
276,288,72892,6,0,B|316:276|368:296,1,80,2|8,0:0|0:0,0:0:0:0:
312,360,73396,1,2,0:0:0:0:
276,288,73648,1,10,0:0:0:0:
284,208,73900,1,0,0:0:0:0:
232,148,74153,6,0,B|168:88|68:104,1,160,2|0,0:0|0:0,0:0:0:0:
32,40,74909,2,0,B|80:36|112:16,1,80,2|8,0:0|0:0,0:0:0:0:
240,97,75413,2,0,B|192:93|164:76,1,80,2|0,0:0|0:0,0:0:0:0:
320,80,75917,2,0,B|356:32|448:52|456:116,1,160,2|0,0:0|0:0,0:0:0:0:
452,101,76674,5,0,0:0:0:0:
380,136,76926,1,0,0:0:0:0:
452,180,77178,1,10,0:0:0:0:
380,216,77430,1,0,0:0:0:0:
308,250,77682,2,0,B|140:252,1,160,2|2,0:0|0:0,0:0:0:0:
116,180,78438,2,0,B|28:180,1,80
68,108,78942,5,2,0:0:0:0:
228,108,79195,1,10,0:0:0:0:
148,108,79447,1,0,0:0:0:0:
308,108,79699,2,0,B|480:108,1,160,2|0,0:0|0:0,0:0:0:0:
440,32,80455,1,0,0:0:0:0:
360,32,80707,1,0,0:0:0:0:
280,32,80959,1,2,0:0:0:0:
200,32,81211,1,8,0:0:0:0:
200,32,81716,5,8,0:0:0:0:
120,32,82220,1,4,0:0:0:0:
212,48,98354,5,2,0:0:0:0:
212,48,98858,2,0,B|136:8|48:56,1,160,0|8,0:0|0:0,0:0:0:0:
96,120,99615,1,0,0:0:0:0:
44,180,99867,2,0,B|-4:256|52:348,1,160,2|0,0:0|0:0,0:0:0:0:
112,292,100623,1,0,0:0:0:0:
180,332,100875,2,0,B|228:256|172:164,1,160,0|8,0:0|0:0,0:0:0:0:
112,136,101632,1,0,0:0:0:0:
72,64,101884,1,2,0:0:0:0:
184,108,102136,1,2,0:0:0:0:
280,36,102388,1,2,0:0:0:0:
280,36,102892,6,0,B|340:36|340:36|372:60|372:60|432:60|432:60,1,160,0|8,0:0|0:0,0:0:0:0:
488,116,103648,1,0,0:0:0:0:
408,132,103900,2,0,B|348:132|348:132|316:108|316:108|256:108|256:108,1,160,2|0,0:0|0:0,0:0:0:0:
288,180,104657,1,0,0:0:0:0:
364,208,104909,2,0,B|420:200|468:272|428:324,1,160,0|8,0:0|0:0,0:0:0:0:
368,284,105665,1,0,0:0:0:0:
312,340,105917,1,10,0:0:0:0:
312,340,106421,1,2,0:0:0:0:
152,360,106926,6,0,B|92:384|20:356|28:276,1,160,0|8,0:0|0:0,0:0:0:0:
108,288,107682,1,0,0:0:0:0:
108,288,107934,2,0,B|108:220|108:220|152:192|148:132,1,160,2|0,0:0|0:0,0:0:0:0:
148,142,108942,5,0,0:0:0:0:
68,148,109194,1,0,0:0:0:0:
108,76,109447,2,0,B|152:52|208:84,1,80,8|0,0:0|0:0,0:0:0:0:
148,142,109951,1,8,0:0:0:0:
148,142,110455,1,2,0:0:0:0:
392,52,110959,6,0,B|428:24|480:52,2,80,0|0|8,0:0|0:0|0:0,0:0:0:0:
436,120,111716,1,2,0:0:0:0:
384,184,111968,2,0,B|288:184,2,80,0|2|2,0:0|0:0|0:0,0:0:0:0:
436,120,112724,1,2,0:0:0:0:
460,196,112976,2,0,B|436:236|404:264,1,80,2|2,0:0|0:0,0:0:0:0:
344,304,113480,5,10,0:0:0:0:
268,328,113732,1,0,0:0:0:0:
188,332,113984,1,2,0:0:0:0:
116,296,114237,1,0,0:0:0:0:
52,248,114489,6,0,P|24:172|60:88,1,160,6|0,0:0|0:0,0:0:0:0:
120,136,115245,1,2,0:0:0:0:
240,32,115497,1,0,0:0:0:0:
155,29,115749,2,0,B|83:63,1,80,2|0,0:0|0:0,0:0:0:0:
152,208,116253,2,0,B|228:172|228:172|303:172,1,160,2|0,0:0|0:0,0:0:0:0:
303,172,117010,1,0,0:0:0:0:
303,172,117262,5,2,0:0:0:0:
376,132,117514,2,0,B|460:132,2,80,10|0|2,0:0|0:0|0:0,0:0:0:0:
308,88,118270,1,0,0:0:0:0:
240,44,118522,2,0,B|216:92|216:92|120:136,1,160,2|0,0:0|0:0,0:0:0:0:
83,63,119279,2,0,B|160:28,1,80,2|8,0:0|0:0,0:0:0:0:
119,136,119783,2,0,B|44:172,1,80,2|0,0:0|0:0,0:0:0:0:
106,352,120287,2,0,B|64:372|0:312|28:248,1,160,2|0,0:0|0:0,0:0:0:0:
100,272,121043,1,0,0:0:0:0:
176,300,121295,6,0,B|264:300,1,80,2|8,0:0|0:0,0:0:0:0:
328,340,121800,1,2,0:0:0:0:
408,328,122052,1,10,0:0:0:0:
436,252,122304,1,0,0:0:0:0:
396,184,122556,2,0,B|340:160|348:56|424:44,1,160,2|0,0:0|0:0,0:0:0:0:
440,120,123312,2,0,B|520:120,1,80,2|8,0:0|0:0,0:0:0:0:
398,52,123816,2,0,B|320:16|224:36,2,160,2|2|2,0:0|0:0|0:0,0:0:0:0:
360,124,125077,1,0,0:0:0:0:
280,124,125329,5,0,0:0:0:0:
160,193,125581,1,10,0:0:0:0:
280,263,125833,1,0,0:0:0:0:
204,124,126085,2,0,B|156:96|112:128|112:128|44:128,2,160,8|0|0,0:0|0:0|0:0,0:0:0:0:
160,192,127346,5,2,0:0:0:0:
280,300,127598,1,10,0:0:0:0:
128,344,127850,1,0,0:0:0:0:
204,320,128102,2,0,B|252:356|316:352|376:308,1,160,2|0,0:0|0:0,0:0:0:0:
416,268,128858,2,0,B|504:268,1,80
472,192,129363,5,2,0:0:0:0:
392,196,129615,1,8,0:0:0:0:
428,124,129867,1,2,0:0:0:0:
348,128,130119,1,10,0:0:0:0:
384,56,130371,1,0,0:0:0:0:
304,60,130623,6,0,B|264:52|232:28|232:28|192:8|148:28,1,160,6|0,0:0|0:0,0:0:0:0:
188,96,131379,1,2,0:0:0:0:
260,132,131632,1,8,0:0:0:0:
192,176,131884,2,0,B|96:176,1,80,2|0,0:0|0:0,0:0:0:0:
84,252,132388,2,0,B|56:292|80:336,2,80,2|0|0,0:0|0:0|0:0,0:0:0:0:
152,296,133144,1,0,0:0:0:0:
224,332,133396,6,0,B|324:316,1,80,2|8,0:0|0:0,0:0:0:0:
456,296,133900,2,0,B|376:308,1,80,2|2,0:0|0:0,0:0:0:0:
328,244,134405,1,0,0:0:0:0:
456,296,134657,2,0,B|504:216|444:116,1,160,2|0,0:0|0:0,0:0:0:0:
380,144,135413,1,0,0:0:0:0:
420,76,135665,2,0,B|484:20,1,80,10|0,0:0|0:0,0:0:0:0:
380,144,136169,1,0,0:0:0:0:
340,76,136421,2,0,B|256:48|180:76,1,160,2|0,0:0|0:0,0:0:0:0:
124,128,137178,1,0,0:0:0:0:
84,196,137430,5,2,0:0:0:0:
168,196,137682,1,8,0:0:0:0:
240,232,137934,1,2,0:0:0:0:
308,272,138186,1,10,0:0:0:0:
244,320,138438,1,0,0:0:0:0:
308,272,138690,6,0,B|340:236|420:232|464:292,1,160,2|0,0:0|0:0,0:0:0:0:
484,204,139447,2,0,B|484:100,1,80,2|8,0:0|0:0,0:0:0:0:
408,144,139951,2,0,B|396:192|344:200,1,80,2|0,0:0|0:0,0:0:0:0:
276,180,140455,2,0,B|288:132|340:124,1,80,2|0,0:0|0:0,0:0:0:0:
324,44,140959,1,0,0:0:0:0:
252,80,141211,1,0,0:0:0:0:
188,40,141463,5,2,0:0:0:0:
147,153,141716,1,10,0:0:0:0:
108,40,141968,1,0,0:0:0:0:
147,153,142220,2,0,B|112:208|192:268|148:324,2,160,10|0|0,0:0|0:0|0:0,0:0:0:0:
220,188,143480,5,2,0:0:0:0:
316,116,143732,1,10,0:0:0:0:
256,304,143984,1,0,0:0:0:0:
352,232,144237,2,0,B|424:176,1,80,2|0,0:0|0:0,0:0:0:0:
256,304,144741,6,0,B|184:248,1,80,2|0,0:0|0:0,0:0:0:0:
52,224,145245,2,0,B|124:280,2,80,2|0|8,0:0|0:0|0:0,0:0:0:0:
100,160,146001,2,0,L|192:160,1,80,0|8,0:0|0:0,0:0:0:0:
72,40,146758,5,2,0:0:0:0:
92,44,147010,1,2,0:0:0:0:
112,40,147262,1,2,0:0:0:0:
132,44,147514,1,2,0:0:0:0:
200,84,147766,6,0,B|312:84,1,80,8|0,0:0|0:0,0:0:0:0:
424,36,148270,2,0,B|344:36,1,80
280,84,148774,1,2,0:0:0:0:
352,124,149026,2,0,B|456:124,1,80
328,200,149531,2,0,B|244:200,1,80,0|8,0:0|0:0,0:0:0:0:
400,232,150035,1,0,0:0:0:0:
352,296,150287,2,0,B|296:296|296:296|248:280|248:280|184:280,1,160,2|2,0:0|0:0,0:0:0:0:
176,284,151043,5,2,0:0:0:0:
156,280,151295,1,2,0:0:0:0:
136,284,151548,1,2,0:0:0:0:
76,232,151800,6,0,B|56:196|76:152,1,80,8|0,0:0|0:0,0:0:0:0:
148,192,152304,1,0,0:0:0:0:
148,192,152556,1,2,0:0:0:0:
288,112,152808,2,0,B|308:76|288:32,1,80,2|0,0:0|0:0,0:0:0:0:
216,72,153312,1,2,0:0:0:0:
216,72,153816,2,0,B|148:84|84:52|84:52|92:96,1,160,10|0,0:0|0:0,0:0:0:0:
388,144,154825,5,2,0:0:0:0:
408,140,155077,1,2,0:0:0:0:
428,144,155329,1,2,0:0:0:0:
448,140,155581,1,2,0:0:0:0:
408,296,155833,6,0,B|496:296,1,80,8|0,0:0|0:0,0:0:0:0:
364,232,156338,2,0,B|312:232|312:232|260:200|260:200|196:200,1,160,0|2,0:0|0:0,0:0:0:0:
164,264,157094,1,0,0:0:0:0:
96,304,157346,2,0,B|80:264|96:220,1,80,2|0,0:0|0:0,0:0:0:0:
186,95,157850,2,0,B|100:96,1,80,2|0,0:0|0:0,0:0:0:0:
228,28,158354,1,8,0:0:0:0:
228,28,158858,2,0,B|416:28,1,160,2|0,0:0|0:0,0:0:0:0:
388,28,159867,1,8,0:0:0:0:
428,184,160371,5,0,0:0:0:0:
380,248,160623,2,0,B|288:248,2,80
444,296,161379,1,0,0:0:0:0:
384,348,161632,1,2,0:0:0:0:
384,348,162388,5,2,0:0:0:0:
332,286,162640,1,2,0:0:0:0:
305,361,162892,1,4,0:0:0:0:
64,328,177010,5,4,0:0:0:0:
64,328,177514,2,0,P|56:288|72:236,1,80,2|0,0:0|0:0,0:0:0:0:
136,288,178018,2,0,P|144:248|128:196,1,80,2|0,0:0|0:0,0:0:0:0:
180,144,178522,2,0,P|155:112|105:90,1,80,2|2,0:0|0:0,0:0:0:0:
256,68,179026,6,0,B|252:104|252:104|260:136|260:136|257:162,1,95.9999970703126,6|0,0:0|0:0,0:0:0:0:
389,114,179531,2,0,B|416:60|384:12,2,95.9999970703126,0|2|8,0:0|0:0|0:0,0:0:0:0:
316,68,180287,1,2,0:0:0:0:
220,48,180539,1,2,0:0:0:0:
236,144,180791,5,0,0:0:0:0:
68,112,181043,1,2,0:0:0:0:
204,224,181295,1,0,0:0:0:0:
76,200,181548,1,2,0:0:0:0:
172,304,181800,1,0,0:0:0:0:
172,304,182052,2,0,B|68:304,1,95.9999970703126,10|0,0:0|0:0,0:0:0:0:
236,144,182556,2,0,B|352:144,1,95.9999970703126,2|0,0:0|0:0,0:0:0:0:
196,64,183060,6,0,B|260:71|328:47|328:47|384:63,1,191.999994140625,2|0,0:0|0:0,0:0:0:0:
332,144,183816,1,2,0:0:0:0:
276,224,184069,2,0,B|176:224,1,95.9999970703126,8|2,0:0|0:0,0:0:0:0:
432,144,184573,1,0,0:0:0:0:
328,316,184825,2,0,B|436:316,1,95.9999970703126,2|0,0:0|0:0,0:0:0:0:
240,300,185329,1,2,0:0:0:0:
144,316,185581,1,0,0:0:0:0:
48,300,185833,6,0,P|60:248|84:204,1,95.9999970703126,2|10,0:0|0:0,0:0:0:0:
172,180,186337,2,0,P|160:232|140:269,1,95.9999970703126,2|10,0:0|0:0,0:0:0:0:
132,92,186842,1,0,0:0:0:0:
208,32,187094,6,0,B|256:16|304:32,1,95.9999970703126,2|0,0:0|0:0,0:0:0:0:
446,112,187598,2,0,B|400:128|352:112,2,95.9999970703126,0|2|8,0:0|0:0|0:0,0:0:0:0:
496,192,188354,2,0,P|472:232|428:268,1,95.9999970703126,2|0,0:0|0:0,0:0:0:0:
360,324,188858,1,0,0:0:0:0:
268,304,189111,1,0,0:0:0:0:
176,324,189363,6,0,P|108:336|72:348,2,95.9999970703126,2|2|2,0:0|0:0|0:0,0:0:0:0:
116,252,190119,2,0,P|80:236|24:160,2,95.9999970703126,0|0|2,0:0|0:0|0:0,0:0:0:0:
204,212,190875,1,2,0:0:0:0:
280,156,191127,1,0,0:0:0:0:
184,140,191379,5,0,0:0:0:0:
260,84,191632,1,2,0:0:0:0:
344,36,191884,1,0,0:0:0:0:
424,212,192136,2,0,B|440:260|496:276,1,95.9999970703126,2|0,0:0|0:0,0:0:0:0:
412,100,192640,2,0,B|396:52|340:36,1,95.9999970703126,2|0,0:0|0:0,0:0:0:0:
248,28,193144,5,2,0:0:0:0:
112,72,193396,1,0,0:0:0:0:
88,212,193648,2,0,B|60:264|92:316,1,95.9999970703126,2|0,0:0|0:0,0:0:0:0:
160,348,194153,2,0,B|185:307|157:255,2,95.9999970703126,8|0|8,0:0|0:0|0:0,0:0:0:0:
88,212,194909,1,0,0:0:0:0:
176,172,195161,6,0,P|212:200|272:216,2,95.9999970703126,6|0|0,0:0|0:0|0:0,0:0:0:0:
104,108,195917,1,2,0:0:0:0:
184,56,196169,1,8,0:0:0:0:
260,112,196421,2,0,B|360:112,1,95.9999970703126,2|0,0:0|0:0,0:0:0:0:
168,156,196926,2,0,B|120:100|44:88|44:88|24:44,1,191.999994140625,2|2,0:0|0:0,0:0:0:0:
100,204,197682,1,0,0:0:0:0:
100,204,197934,6,0,B|0:204,1,95.9999970703126,2|10,0:0|0:0,0:0:0:0:
232,312,198438,2,0,B|336:312,1,95.9999970703126,0|2,0:0|0:0,0:0:0:0:
68,284,198942,1,0,0:0:0:0:
160,260,199195,2,0,B|208:264|232:220|232:220|348:220,1,191.999994140625,2|0,0:0|0:0,0:0:0:0:
256,148,199951,1,2,0:0:0:0:
328,100,200203,2,0,B|440:100,1,95.9999970703126,8|2,0:0|0:0,0:0:0:0:
256,148,200707,1,0,0:0:0:0:
71,104,200959,2,0,B|176:104|176:104|200:60|248:64,1,191.999994140625,2|2,0:0|0:0,0:0:0:0:
247,63,201716,1,0,0:0:0:0:
328,100,201968,5,2,0:0:0:0:
184,196,202220,1,10,0:0:0:0:
328,272,202472,1,0,0:0:0:0:
176,352,202724,2,0,B|136:352|136:352|120:336|120:336|72:336,1,95.9999970703126,8|2,0:0|0:0,0:0:0:0:
328,272,203228,6,0,B|448:260|484:168,1,191.999994140625,2|0,0:0|0:0,0:0:0:0:
256,320,203984,1,2,0:0:0:0:
244,236,204237,2,0,B|152:172,1,95.9999970703126,8|2,0:0|0:0,0:0:0:0:
80,176,204741,1,0,0:0:0:0:
299,39,204993,2,0,B|228:44|192:112|192:112|164:100|136:112,1,191.999994140625,2|2,0:0|0:0,0:0:0:0:
296,148,205749,1,0,0:0:0:0:
296,148,206001,6,0,B|408:148,1,95.9999970703126,2|8,0:0|0:0,0:0:0:0:
120,252,206505,2,0,B|216:252,1,95.9999970703126,2|2,0:0|0:0,0:0:0:0:
84,172,207010,1,2,0:0:0:0:
220,68,207262,1,0,0:0:0:0:
72,156,207514,1,2,0:0:0:0:
228,84,207766,1,0,0:0:0:0:
64,140,208018,6,0,B|164:140,1,95.9999970703126,2|8,0:0|0:0,0:0:0:0:
328,100,208522,2,0,B|232:100,1,95.9999970703126,2|0,0:0|0:0,0:0:0:0:
160,140,209026,1,2,0:0:0:0:
328,100,209279,1,0,0:0:0:0:
84,172,209531,1,0,0:0:0:0:
220,68,209783,1,0,0:0:0:0:
348,184,210035,5,2,0:0:0:0:
292,20,210287,1,10,0:0:0:0:
256,144,210539,1,2,0:0:0:0:
404,244,210791,1,2,0:0:0:0:
404,244,211295,5,4,0:0:0:0:
