osu file format v12

[General]
AudioFilename: I wanted you - Ina.mp3
AudioLeadIn: 0
PreviewTime: 112460
Countdown: 0
SampleSet: Soft
StackLeniency: 0.7
Mode: 0
LetterboxInBreaks: 1

[Editor]
DistanceSpacing: 0.8
BeatDivisor: 4
GridSize: 4

[Metadata]
Title:I wanted you
TitleUnicode:I wanted you
Artist:Ina
ArtistUnicode:Ina
Creator:Zejky
Version:Easy
Source:
Tags:Kazumikos Wroldsen
BeatmapID:176894
BeatmapSetID:48090

[Difficulty]
HPDrainRate:3
CircleSize:3
OverallDifficulty:2
ApproachRate:2
SliderMultiplier:2
SliderTickRate:2

[Events]
//Background and Video events
0,0,"BG1.jpg",0,0
//Break Periods
2,82724,96794
2,163130,175450
//Storyboard Layer 0 (Background)
//Storyboard Layer 1 (Fail)
//Storyboard Layer 2 (Pass)
//Storyboard Layer 3 (Foreground)
//Storyboard Sound Samples
//Background Colour Transformations
3,100,163,162,255

[TimingPoints]
1548,1008.40336134454,4,2,1,40,1,0
18690,-100,4,2,2,40,0,0
18942,-100,4,2,1,40,0,0
22724,-100,4,2,2,40,0,0
22976,-100,4,2,1,40,0,0
26758,-100,4,2,2,40,0,0
27010,-100,4,2,1,40,0,0
29783,-100,4,2,1,40,0,0
34825,-100,4,2,2,40,0,0
35077,-100,4,2,1,40,0,0
36842,-100,4,2,1,30,0,0
37850,-100,4,2,1,40,0,0
38858,-100,4,2,2,40,0,0
39111,-100,4,2,1,40,0,0
42892,-100,4,2,2,40,0,0
43144,-100,4,2,1,40,0,0
49951,-100,4,2,1,45,0,1
50077,-100,4,2,1,45,0,0
66085,-100,4,2,1,45,0,1
66211,-100,4,2,1,45,0,0
82220,-100,4,2,1,30,0,0
98354,-100,4,2,1,40,0,0
99363,-100,4,2,2,40,0,0
99615,-100,4,2,1,40,0,0
103396,-100,4,2,2,40,0,0
103648,-100,4,2,1,40,0,0
107430,-100,4,2,2,40,0,0
107682,-100,4,2,1,40,0,0
114489,-100,4,2,1,45,0,1
114615,-100,4,2,1,45,0,0
130623,-100,4,2,1,45,0,1
130749,-100,4,2,1,45,0,0
146758,-100,4,2,1,40,0,0
154321,-100,4,2,2,40,0,0
154573,-100,4,2,1,40,0,0
161758,-100,4,2,1,35,0,0
162010,-100,4,2,1,30,0,0
162262,-100,4,2,1,25,0,0
162514,-100,4,2,1,20,0,0
162766,-100,4,2,1,15,0,0
177010,-100,4,3,1,30,0,0
179026,-100,4,2,1,45,0,1
189111,-100,4,2,1,45,0,1
194657,-100,4,2,2,45,0,1
194909,-100,4,2,1,45,0,1
210413,-100,4,2,1,45,0,1
210665,-100,4,2,1,30,0,1
211295,-100,4,2,1,35,0,0

[Colours]
Combo1 : 255,216,157
Combo2 : 255,255,255
Combo3 : 255,193,164
Combo4 : 174,70,78

[HitObjects]
84,68,17682,1,2,0:0:0:0:
80,148,18186,2,0,B|120:248|224:280,2,200,0|2|0,0:0|0:0|0:0,0:0:0:0:
152,112,20707,1,8,0:0:0:0:
232,124,21211,1,0,0:0:0:0:
232,124,21716,1,2,0:0:0:0:
288,68,22220,6,0,B|388:28|488:76,2,200,0|2|0,0:0|0:0|0:0,0:0:0:0:
212,40,24741,1,8,0:0:0:0:
212,40,25245,1,10,0:0:0:0:
152,92,25749,1,2,0:0:0:0:
100,152,26253,6,0,B|164:232|136:352,2,200,0|2|0,0:0|0:0|0:0,0:0:0:0:
152,92,28774,2,0,B|200:112|256:88,1,100,8|8,0:0|0:0,0:0:0:0:
312,40,29783,5,2,0:0:0:0:
376,88,30287,2,0,B|424:68|480:92,2,100,0|8|0,0:0|0:0|0:0,0:0:0:0:
340,160,31800,1,2,0:0:0:0:
388,224,32304,2,0,B|424:272|396:328,2,100,0|8|8,0:0|0:0|0:0,0:0:0:0:
328,280,33816,1,2,0:0:0:0:
256,316,34321,6,0,B|156:280|56:324,2,200,0|2|0,0:0|0:0|0:0,0:0:0:0:
264,236,36842,1,8,0:0:0:0:
264,236,37346,1,8,0:0:0:0:
332,196,37850,1,2,0:0:0:0:
304,120,38354,6,0,B|380:48|504:64,2,200,0|2|0,0:0|0:0|0:0,0:0:0:0:
276,44,40875,1,8,0:0:0:0:
276,44,41379,1,8,0:0:0:0:
204,80,41884,1,2,0:0:0:0:
180,156,42388,6,0,B|56:160|8:48,2,200,0|2|0,0:0|0:0|0:0,0:0:0:0:
228,220,44909,1,8,0:0:0:0:
152,240,45413,2,0,B|94:245|63:295,1,100,8|2,0:0|0:0,0:0:0:0:
124,344,46421,1,0,0:0:0:0:
204,344,46926,6,0,B|312:344,1,100,8|0,0:0|0:0,0:0:0:0:
368,292,47934,1,2,0:0:0:0:
368,292,48438,1,2,0:0:0:0:
436,248,48942,6,0,B|400:184|492:116|448:48,1,200,8|4,0:0|0:0,0:0:0:0:
380,92,50455,1,2,0:0:0:0:
312,48,50959,1,8,0:0:0:0:
172,124,51968,5,2,0:0:0:0:
108,76,52472,1,2,0:0:0:0:
48,128,52976,2,0,B|-8:228|56:332,1,200,8|2,0:0|0:0,0:0:0:0:
116,360,54489,1,2,0:0:0:0:
188,324,54993,1,8,0:0:0:0:
344,352,56001,5,2,0:0:0:0:
420,328,56505,1,2,0:0:0:0:
452,256,57010,1,8,0:0:0:0:
452,256,57514,1,8,0:0:0:0:
384,212,58018,2,0,B|344:92|464:28,1,200,2|8,0:0|0:0,0:0:0:0:
292,80,60035,5,2,0:0:0:0:
224,40,60539,1,2,0:0:0:0:
148,64,61043,2,0,B|96:40|48:68,2,100,10|2|2,0:0|0:0|0:0,0:0:0:0:
124,140,62556,1,2,0:0:0:0:
100,216,63060,2,0,B|152:240|200:212,2,100,10|2|2,0:0|0:0|0:0,0:0:0:0:
56,280,64573,5,2,0:0:0:0:
116,332,65077,1,8,0:0:0:0:
116,332,65581,1,8,0:0:0:0:
192,308,66085,2,0,B|292:256|400:316,1,200,6|8,0:0|0:0,0:0:0:0:
284,184,68102,5,2,0:0:0:0:
364,168,68606,1,2,0:0:0:0:
440,140,69111,2,0,B|408:52|296:112|284:8,1,200,8|2,0:0|0:0,0:0:0:0:
208,24,70623,1,2,0:0:0:0:
128,36,71127,1,10,0:0:0:0:
88,192,72136,5,2,0:0:0:0:
24,240,72640,1,2,0:0:0:0:
36,320,73144,1,10,0:0:0:0:
112,340,73648,1,10,0:0:0:0:
176,292,74153,2,0,P|272:292|368:364,1,200,2|10,0:0|0:0,0:0:0:0:
440,212,76169,5,2,0:0:0:0:
476,140,76674,1,2,0:0:0:0:
436,72,77178,1,10,0:0:0:0:
360,44,77682,2,0,B|308:16|252:48,1,100,2|2,0:0|0:0,0:0:0:0:
220,108,78690,1,2,0:0:0:0:
168,172,79195,2,0,B|120:200|60:164,2,100,10|2|2,0:0|0:0|0:0,0:0:0:0:
312,240,81211,5,8,0:0:0:0:
312,240,81715,1,8,0:0:0:0:
304,320,82220,1,4,0:0:0:0:
180,104,98354,5,2,0:0:0:0:
256,68,98858,2,0,B|356:104|456:60,2,200,0|2|0,0:0|0:0|0:0,0:0:0:0:
248,148,101378,1,8,0:0:0:0:
248,148,101884,1,8,0:0:0:0:
180,188,102388,1,2,0:0:0:0:
208,264,102892,6,0,B|132:336|8:320,2,200,0|2|0,0:0|0:0|0:0,0:0:0:0:
236,340,105413,1,8,0:0:0:0:
236,340,105917,1,8,0:0:0:0:
308,304,106420,1,2,0:0:0:0:
332,228,106926,6,0,B|456:224|504:336,2,200,0|2|0,0:0|0:0|0:0,0:0:0:0:
284,164,109447,1,8,0:0:0:0:
360,144,109951,2,0,B|418:139|449:89,1,100,8|2,0:0|0:0,0:0:0:0:
388,40,110959,1,0,0:0:0:0:
308,40,111463,6,0,B|200:40,1,100,8|0,0:0|0:0,0:0:0:0:
144,92,112472,1,2,0:0:0:0:
144,92,112976,1,2,0:0:0:0:
76,136,113480,6,0,B|112:200|20:268|64:336,1,200,8|4,0:0|0:0,0:0:0:0:
132,292,114993,1,2,0:0:0:0:
200,336,115497,1,8,0:0:0:0:
340,260,116504,5,2,0:0:0:0:
404,308,117010,1,2,0:0:0:0:
464,256,117514,2,0,B|520:156|456:52,1,200,8|2,0:0|0:0,0:0:0:0:
396,24,119025,1,2,0:0:0:0:
324,60,119531,1,8,0:0:0:0:
168,32,120539,5,2,0:0:0:0:
92,56,121043,1,2,0:0:0:0:
60,128,121548,1,8,0:0:0:0:
60,128,122052,1,8,0:0:0:0:
128,172,122556,2,0,B|168:292|48:356,1,200,2|8,0:0|0:0,0:0:0:0:
220,304,124573,5,2,0:0:0:0:
288,344,125077,1,2,0:0:0:0:
364,320,125581,2,0,B|416:344|464:316,2,100,10|2|2,0:0|0:0|0:0,0:0:0:0:
388,244,127094,1,2,0:0:0:0:
412,168,127598,2,0,B|360:144|312:172,2,100,10|2|2,0:0|0:0|0:0,0:0:0:0:
456,104,129111,5,2,0:0:0:0:
396,52,129615,1,8,0:0:0:0:
396,52,130119,1,8,0:0:0:0:
320,76,130623,2,0,B|220:128|112:68,1,200,6|8,0:0|0:0,0:0:0:0:
228,200,132640,5,2,0:0:0:0:
148,216,133144,1,2,0:0:0:0:
72,244,133648,2,0,B|104:332|216:272|228:376,1,200,8|2,0:0|0:0,0:0:0:0:
304,360,135161,1,2,0:0:0:0:
384,348,135665,1,10,0:0:0:0:
424,192,136674,5,2,0:0:0:0:
488,144,137178,1,2,0:0:0:0:
476,64,137682,1,10,0:0:0:0:
400,44,138186,1,10,0:0:0:0:
336,92,138690,2,0,P|240:92|144:20,1,200,2|10,0:0|0:0,0:0:0:0:
72,172,140707,5,2,0:0:0:0:
36,244,141210,1,2,0:0:0:0:
76,312,141716,1,10,0:0:0:0:
152,340,142220,2,0,B|204:368|260:336,1,100,2|2,0:0|0:0,0:0:0:0:
292,276,143228,1,2,0:0:0:0:
344,212,143732,2,0,B|392:184|452:220,2,100,10|2|2,0:0|0:0|0:0,0:0:0:0:
200,144,145749,5,8,0:0:0:0:
200,144,146253,1,8,0:0:0:0:
208,64,146758,2,0,B|312:64,1,100,2|0,0:0|0:0,0:0:0:0:
380,32,147766,5,8,0:0:0:0:
448,76,148270,2,0,B|500:168|436:280,1,200,2|0,0:0|0:0,0:0:0:0:
392,328,149783,1,8,0:0:0:0:
328,284,150287,2,0,B|220:284,1,100,2|0,0:0|0:0,0:0:0:0:
156,320,151295,1,2,0:0:0:0:
92,272,151800,6,0,B|72:225|12:217,1,100
40,144,152808,2,0,B|100:136|124:80,1,100,2|0,0:0|0:0,0:0:0:0:
172,152,153816,2,0,B|256:200|376:184,1,200,8|0,0:0|0:0,0:0:0:0:
440,156,155329,1,2,0:0:0:0:
420,80,155833,6,0,B|368:56|308:84,1,100,8|0,0:0|0:0,0:0:0:0:
252,44,156842,2,0,B|200:20|140:48,2,100,2|2|8,0:0|0:0|0:0,0:0:0:0:
256,124,158354,1,8,0:0:0:0:
320,172,158858,2,0,B|420:172,1,100,2|0,0:0|0:0,0:0:0:0:
480,224,159867,1,8,0:0:0:0:
256,192,160371,12,0,162892,0:0:0:0:
128,72,177010,5,4,0:0:0:0:
128,72,179026,6,0,B|156:176|84:264,1,200,4|8,0:0|0:0,0:0:0:0:
224,340,181043,1,2,0:0:0:0:
300,312,181548,1,2,0:0:0:0:
376,336,182052,2,0,B|468:292|464:156,1,200,8|2,0:0|0:0,0:0:0:0:
444,92,183564,1,2,0:0:0:0:
392,32,184069,1,8,0:0:0:0:
256,116,185077,5,2,0:0:0:0:
192,68,185581,1,2,0:0:0:0:
116,48,186085,1,8,0:0:0:0:
116,48,186590,1,8,0:0:0:0:
40,68,187094,2,0,B|16:160|56:280,1,200,2|0,0:0|0:0,0:0:0:0:
200,324,189111,5,2,0:0:0:0:
276,352,189615,1,2,0:0:0:0:
348,320,190119,2,0,B|400:340|456:320,2,100,10|2|2,0:0|0:0|0:0,0:0:0:0:
312,248,191632,1,2,0:0:0:0:
252,192,192136,2,0,B|200:168|132:196,2,100,10|2|2,0:0|0:0|0:0,0:0:0:0:
312,248,193648,1,2,0:0:0:0:
384,216,194153,6,0,B|464:132|420:16,1,200,8|4,0:0|0:0,0:0:0:0:
344,40,195665,1,2,0:0:0:0:
280,88,196169,1,8,0:0:0:0:
128,40,197178,5,2,0:0:0:0:
68,92,197682,1,2,0:0:0:0:
56,172,198186,2,0,B|41:288|133:344,1,200,8|0,0:0|0:0,0:3:0:0:
212,352,199699,1,2,0:0:0:0:
288,328,200203,1,8,0:0:0:0:
196,196,201211,5,2,0:0:0:0:
176,120,201716,1,2,0:0:0:0:
224,56,202220,1,8,0:0:0:0:
224,56,202724,1,8,0:0:0:0:
300,32,203228,2,0,B|404:12|500:68,1,200,2|8,0:0|0:0,0:0:0:0:
412,204,205245,5,2,0:0:0:0:
432,280,205749,1,2,0:0:0:0:
372,336,206253,2,0,B|280:280|168:324,1,200,8|0,0:0|0:0,0:0:0:0:
108,284,207766,1,2,0:0:0:0:
164,228,208270,2,0,B|280:208|328:80,1,200,8|2,0:0|0:0,0:0:0:0:
236,92,209783,21,2,0:0:0:0:
168,52,210287,2,0,B|116:36|48:60,1,100,10|2,0:0|0:0,0:0:0:0:
28,124,211295,1,4,0:0:0:0:
