osu file format v12

[General]
AudioFilename: Fall- Ina.mp3
AudioLeadIn: 750
PreviewTime: 45405
Countdown: 0
SampleSet: None
StackLeniency: 0.7
Mode: 0
LetterboxInBreaks: 1
WidescreenStoryboard: 1

[Editor]
Bookmarks: 11523
DistanceSpacing: 1
BeatDivisor: 4
GridSize: 4
TimelineZoom: 1

[Metadata]
Title:Fall
TitleUnicode:Fall
Artist:Ina
ArtistUnicode:Ina
Creator:Zejky
Version:X and Y
Source:
Tags:wroldsen
BeatmapID:391289
BeatmapSetID:160168

[Difficulty]
HPDrainRate:5
CircleSize:4
OverallDifficulty:4
ApproachRate:5
SliderMultiplier:1.59999990463257
SliderTickRate:1

[Events]
//Background and Video events
0,0,"BG.jpg",0,0
//Break Periods
2,71523,81617
2,128193,137876
//Storyboard Layer 0 (Background)
//Storyboard Layer 1 (Fail)
//Storyboard Layer 2 (Pass)
//Storyboard Layer 3 (Foreground)
//Storyboard Sound Samples
//Background Colour Transformations
3,100,163,162,255

[TimingPoints]
935,705.882352941176,4,2,1,60,1,0
46111,-100,4,2,1,60,0,1
68699,-100,4,2,1,60,0,0
105405,-100,4,2,1,60,0,1
127993,-100,4,2,1,60,0,0
139287,-100,4,2,1,60,0,1
161876,-100,4,2,1,60,0,0

[Colours]
Combo1 : 255,128,192
Combo2 : 255,128,128
Combo3 : 255,255,128
Combo4 : 128,255,128
Combo5 : 128,255,255

[HitObjects]
120,72,12229,6,0,L|36:72,2,79.9999952316285,0|0|8,0:0|0:0|0:0,0:0:0:0:
92,148,13287,2,0,L|176:148,1,79.9999952316285
240,104,13993,2,0,L|280:104,2,39.9999976158142,0|0|8,0:0|0:0|0:0,0:0:0:0:
264,180,14699,2,0,L|348:180,1,79.9999952316285
412,136,15405,6,0,L|452:136,2,39.9999976158142,0|0|8,0:0|0:0|0:0,0:0:0:0:
432,212,16111,2,0,L|344:212,1,79.9999952316285
304,276,16817,2,0,L|256:276,2,39.9999976158142,0|0|8,0:0|0:0|0:0,0:0:0:0:
280,200,17523,2,0,L|172:200,1,79.9999952316285
156,132,18229,6,0,L|64:132,1,79.9999952316285,0|8,0:0|0:0,0:0:0:0:
104,56,18934,2,0,L|204:56,1,79.9999952316285
248,104,19640,2,0,L|308:104,2,39.9999976158142,0|0|8,0:0|0:0|0:0,0:0:0:0:
164,240,20699,6,0,L|80:240,2,79.9999952316285,0|0|8,0:0|0:0|0:0,0:0:0:0:
296,332,22111,2,0,L|384:332,1,79.9999952316285
352,256,22817,2,0,L|456:256,2,79.9999952316285,8|0|0,0:0|0:0|0:0,0:0:0:0:
320,180,23876,6,0,L|224:180,1,79.9999952316285,0|8,0:0|0:0,0:0:0:0:
180,124,24582,2,0,L|88:124,1,79.9999952316285
36,172,25287,2,0,L|-8:172,2,39.9999976158142,0|0|8,0:0|0:0|0:0,0:0:0:0:
84,236,25993,2,0,L|184:236,1,79.9999952316285
128,308,26699,6,0,L|68:308,2,39.9999976158142,0|0|8,0:0|0:0|0:0,0:0:0:0:
188,364,27405,2,0,L|280:364,1,79.9999952316285
332,316,28111,2,0,L|384:316,2,39.9999976158142,0|0|8,0:0|0:0|0:0,0:0:0:0:
292,244,28817,2,0,L|204:244,1,79.9999952316285
232,168,29523,6,0,L|332:168,2,79.9999952316285,0|8|0,0:0|0:0|0:0,0:0:0:0:
152,168,30582,2,0,L|48:168,2,79.9999952316285,0|0|8,0:0|0:0|0:0,0:0:0:0:
196,16,31993,6,0,L|108:16,2,79.9999952316285,0|0|8,0:0|0:0|0:0,0:0:0:0:
268,52,33052,2,0,L|364:52,1,79.9999952316285
284,200,34111,2,0,L|444:200,1,159.999990463257,8|0,0:0|0:0,0:0:0:0:
472,276,35170,6,0,L|384:276,1,79.9999952316285,0|8,0:0|0:0,0:0:0:0:
416,352,35876,2,0,L|336:352,1,79.9999952316285
256,352,36582,2,0,L|168:352,1,79.9999952316285,0|8,0:0|0:0,0:0:0:0:
96,352,37287,2,0,L|0:352,2,79.9999952316285
92,272,38346,2,0,L|172:272,1,79.9999952316285,8|0,0:0|0:0,0:0:0:0:
48,172,39405,6,0,L|128:172,3,79.9999952316285,0|8|0|2,0:0|0:0|0:0|0:0,0:0:0:0:
100,96,40817,2,0,L|192:96,1,79.9999952316285,0|8,0:0|0:0,0:0:0:0:
252,128,41523,2,0,L|348:128,1,79.9999952316285
404,160,42229,2,0,L|496:160,2,79.9999952316285,0|8|0,0:0|0:0|0:0,0:0:0:0:
336,204,43287,2,0,L|160:204,3,159.999990463257,0|0|0|8,0:0|0:0|0:0|0:0,0:0:0:0:
96,64,46111,6,0,L|276:64,1,159.999990463257,0|8,0:0|0:0,0:0:0:0:
416,64,47523,2,0,L|236:64,1,159.999990463257,0|8,0:0|0:0,0:0:0:0:
172,200,48934,6,0,L|340:200,1,159.999990463257,0|8,0:0|0:0,0:0:0:0:
216,312,50346,2,0,L|304:312,2,79.9999952316285,0|0|8,0:0|0:0|0:0,0:0:0:0:
136,172,51758,6,0,L|300:172,1,159.999990463257,0|8,0:0|0:0,0:0:0:0:
416,64,53170,2,0,L|252:64,1,159.999990463257,0|8,0:0|0:0,0:0:0:0:
104,108,54582,6,0,L|12:108,1,79.9999952316285
48,184,55287,2,0,L|144:184,1,79.9999952316285,8|0,0:0|0:0,0:0:0:0:
156,260,55993,2,0,L|64:260,1,79.9999952316285
100,336,56699,2,0,L|196:336,1,79.9999952316285,8|0,0:0|0:0,0:0:0:0:
248,296,57405,6,0,L|440:296,1,159.999990463257,0|8,0:0|0:0,0:0:0:0:
480,152,58817,2,0,L|312:152,1,159.999990463257,0|8,0:0|0:0,0:0:0:0:
420,28,60229,6,0,L|252:28,1,159.999990463257,0|8,0:0|0:0,0:0:0:0:
120,104,61640,2,0,L|36:104,2,79.9999952316285,0|0|8,0:0|0:0|0:0,0:0:0:0:
208,236,63052,6,0,L|28:236,1,159.999990463257,0|8,0:0|0:0,0:0:0:0:
172,340,64464,2,0,L|264:340,2,79.9999952316285,0|0|8,0:0|0:0|0:0,0:0:0:0:
256,192,65876,12,0,68699,0:0:0:0:
196,336,82817,6,0,L|292:336,2,79.9999952316285,0|0|8,0:0|0:0|0:0,0:0:0:0:
172,260,83876,2,0,L|80:260,1,79.9999952316285
44,196,84582,2,0,L|0:196,2,39.9999976158142,0|0|8,0:0|0:0|0:0,0:0:0:0:
100,140,85287,2,0,L|196:140,1,79.9999952316285
248,96,85993,6,0,L|300:96,2,39.9999976158142,0|0|8,0:0|0:0|0:0,0:0:0:0:
204,28,86699,2,0,L|96:28,1,79.9999952316285
56,72,87405,2,0,L|4:72,2,39.9999976158142,0|0|8,0:0|0:0|0:0,0:0:0:0:
92,144,88111,2,0,L|-4:144,1,79.9999952316285
36,220,88817,6,0,L|124:220,1,79.9999952316285,0|8,0:0|0:0,0:0:0:0:
196,220,89523,2,0,L|312:220,1,79.9999952316285
356,220,90229,2,0,L|420:220,2,39.9999976158142,0|0|8,0:0|0:0|0:0,0:0:0:0:
264,92,91287,6,0,L|376:92,1,79.9999952316285
424,92,91993,2,0,L|480:92,2,39.9999976158142,8|0|0,0:0|0:0|0:0,0:0:0:0:
396,16,92699,2,0,L|308:16,1,79.9999952316285
240,44,93405,2,0,L|136:44,2,79.9999952316285,8|0|0,0:0|0:0|0:0,0:0:0:0:
264,120,94464,6,0,L|360:120,1,79.9999952316285,0|8,0:0|0:0,0:0:0:0:
308,192,95170,2,0,L|404:192,1,79.9999952316285
356,264,95876,2,0,L|452:264,1,79.9999952316285,0|8,0:0|0:0,0:0:0:0:
396,336,96582,2,0,L|492:336,2,79.9999952316285
316,336,97640,2,0,L|208:336,1,79.9999952316285,8|0,0:0|0:0,0:0:0:0:
104,248,98699,6,0,L|8:248,3,79.9999952316285,0|8|0|0,0:0|0:0|0:0|0:0,0:0:0:0:
56,176,100111,2,0,L|156:176,1,79.9999952316285,0|8,0:0|0:0,0:0:0:0:
216,176,100817,2,0,L|316:176,1,79.9999952316285
272,100,101523,2,0,L|172:100,1,79.9999952316285,0|8,0:0|0:0,0:0:0:0:
112,100,102229,2,0,L|12:100,2,79.9999952316285
84,176,103287,2,0,L|252:176,2,159.999990463257,0|0|8,0:0|0:0|0:0,0:0:0:0:
136,328,105405,6,0,L|228:328,1,79.9999952316285
296,328,106111,2,0,L|376:328,1,79.9999952316285,8|0,0:0|0:0,0:0:0:0:
376,248,106817,2,0,L|296:248,1,79.9999952316285
216,248,107523,2,0,L|172:248,2,39.9999976158142,8|0|0,0:0|0:0|0:0,0:0:0:0:
244,172,108229,6,0,L|164:172,1,79.9999952316285
192,96,108934,2,0,L|280:96,1,79.9999952316285,8|0,0:0|0:0,0:0:0:0:
300,20,109640,2,0,L|128:20,2,159.999990463257,0|8|0,0:0|0:0|0:0,0:0:0:0:
368,60,111405,6,0,L|428:60,2,39.9999976158142,0|0|8,0:0|0:0|0:0,0:0:0:0:
316,120,112111,2,0,L|268:120,2,39.9999976158142
376,172,112817,2,0,L|472:172,2,79.9999952316285,0|8|0,0:0|0:0|0:0,0:0:0:0:
312,220,113876,2,0,L|136:220,3,159.999990463257,0|8|0|8,0:0|0:0|0:0|0:0,0:0:0:0:
52,96,116699,6,0,L|160:96,1,79.9999952316285
204,60,117405,2,0,L|300:60,1,79.9999952316285,8|0,0:0|0:0,0:0:0:0:
348,108,118111,2,0,L|444:108,1,79.9999952316285
468,176,118817,2,0,L|512:176,2,39.9999976158142,8|0|0,0:0|0:0|0:0,0:0:0:0:
400,216,119523,6,0,L|288:216,1,79.9999952316285
240,216,120229,2,0,L|152:216,1,79.9999952316285,8|0,0:0|0:0,0:0:0:0:
140,140,120934,2,0,L|312:140,1,159.999990463257,0|8,0:0|0:0,0:0:0:0:
388,276,122346,6,0,L|216:276,3,159.999990463257,0|8|0|8,0:0|0:0|0:0|0:0,0:0:0:0:
256,192,125170,12,0,127993,0:0:0:0:
96,312,139287,6,0,L|268:312,1,159.999990463257,0|8,0:0|0:0,0:0:0:0:
416,312,140699,2,0,L|244:312,1,159.999990463257,0|8,0:0|0:0,0:0:0:0:
176,172,142111,6,0,L|348:172,1,159.999990463257,0|8,0:0|0:0,0:0:0:0:
424,36,143523,2,0,L|516:36,2,79.9999952316285,0|0|8,0:0|0:0|0:0,0:0:0:0:
276,92,144934,6,0,L|96:92,1,159.999990463257,0|8,0:0|0:0,0:0:0:0:
52,240,146346,2,0,L|224:240,1,159.999990463257,0|8,0:0|0:0,0:0:0:0:
328,352,147758,6,0,L|424:352,3,79.9999952316285,0|0|8|0,0:0|0:0|0:0|0:0,0:0:0:0:
396,272,149170,2,0,L|224:272,1,159.999990463257,0|8,0:0|0:0,0:0:0:0:
108,176,150582,6,0,L|216:176,1,79.9999952316285
156,104,151287,2,0,L|244:104,1,79.9999952316285,8|0,0:0|0:0,0:0:0:0:
204,32,151993,2,0,L|300:32,1,79.9999952316285
364,32,152699,2,0,L|424:32,2,39.9999976158142,8|0|0,0:0|0:0|0:0,0:0:0:0:
344,108,153405,6,0,L|240:108,1,79.9999952316285
292,184,154111,2,0,L|188:184,1,79.9999952316285,8|0,0:0|0:0,0:0:0:0:
240,260,154817,2,0,L|60:260,1,159.999990463257,0|8,0:0|0:0,0:0:0:0:
140,112,156229,6,0,L|320:112,3,159.999990463257,0|8|0|8,0:0|0:0|0:0|0:0,0:0:0:0:
256,192,159052,12,0,161876,0:0:0:0:
