osu file format v5

[General]
AudioFilename: In the hall of the Mountain King (te.mp3
AudioLeadIn: 1963
AudioHash: 0b046c497ff511f18f3391f120954f1f
PreviewTime: -1
Countdown: 1
SampleSet: Normal

[Metadata]
Title:In the hall of the Mountain King (techno remix)
Artist:
Creator:iSephi
Version:Easy

[Difficulty]
HPDrainRate:7
CircleSize:5
OverallDifficulty:2
SliderMultiplier:1.4
SliderTickRate:1

[Events]
//Background and Video events
1,0,"27_-_Space_Paranoids_Secot.wmv"
//Break Periods
//Storyboard Layer 0 (Background)
//Storyboard Layer 1 (Failing)
//Storyboard Layer 2 (Passing)
//Storyboard Layer 3 (Foreground)
//Storyboard Sound Samples
//Background Colour Transformations
3,100,163,162,255

[TimingPoints]
12022,360.35164056649,4,1,0,100

[Colours]
Combo1 : 255,0,230
Combo2 : 0,255,255
Combo3 : 0,255,0
Combo4 : 255,0,0

[HitObjects]
32,32,9139,1,0
128,96,9499,1,0
32,160,9859,1,0
128,224,10220,1,0
320,32,10580,1,0
416,96,10940,1,0
320,160,11301,5,0
416,224,11661,1,0
384,320,12022,1,0
288,320,12382,1,0
192,320,12742,1,0
96,320,13103,1,0
96,224,13463,5,0
192,224,13823,1,0
288,224,14184,1,0
384,224,14544,1,0
320,96,14904,1,0
256,32,15265,1,0
192,96,15625,5,0
32,32,15985,1,0
128,128,16346,1,0
256,192,16706,1,0
160,256,17066,1,0
256,288,17427,1,0
256,192,17787,1,0
256,288,18868,5,0
128,352,19229,2,0,B|128:352|416:352,1,280
32,32,20670,2,0,B|32:32|288:192,1,280
448,32,22111,2,0,B|448:32|192:192,1,280
128,224,23192,2,0,B|128:224|256:384|384:192,1,280
352,128,24273,5,0
256,32,24634,1,0
160,128,24994,1,0
32,192,25355,2,0,B|32:192|320:192|480:320|32:320,1,560
160,256,27156,1,0
256,192,27517,1,0
256,64,27877,6,0,B|256:64|384:64,1,140
256,192,28598,2,0,B|256:192|384:192,1,140
288,256,29318,2,0,B|288:256|288:384,1,140
384,352,30039,5,0
384,224,30399,1,0
384,128,30760,1,0
384,32,31120,1,0
288,64,31480,2,0,B|288:64|128:64,3,140
256,128,32922,5,0
384,128,33282,1,0
480,128,33643,1,0
480,32,34003,1,0
384,32,34363,2,0,B|384:32|224:32|256:32,1,140
160,32,35084,2,0,B|160:32|160:160,1,140
128,256,36165,5,0
192,192,36525,1,0
256,128,36886,1,0
288,224,37246,1,0
288,320,37606,1,0
384,320,37967,6,0,B|384:320|480:320|480:192,1,140
480,160,38688,2,0,B|480:160|480:32|352:32,1,140
320,32,39408,5,0
288,160,39769,1,0
160,64,40129,1,0
128,192,40489,1,0
96,320,40850,2,0,B|96:320|256:320,1,140
320,320,41210,2,0,B|320:320|320:192,1,140
320,96,41931,5,0
224,192,42291,1,0
320,256,42651,1,0
416,192,43012,1,0
480,256,43372,2,0,B|480:256|352:352|64:320|32:96,1,560
256,192,45174,12,0,46255
192,160,46976,2,0,B|192:160|256:64|256:384,1,280
448,192,48417,1,0
448,64,48777,1,0
320,160,49498,2,0,B|320:160|256:288|0:32|32:64,1,280
32,192,50579,2,0,B|32:192|192:352|416:288|448:160,1,420
352,64,52381,1,0
160,64,52741,1,0
32,32,57065,5,0
96,160,57426,1,0
160,32,57786,1,0
224,160,58147,1,0
288,224,58507,1,0
352,320,58867,1,0
448,320,59228,5,0
448,224,59588,1,0
352,128,59948,1,0
224,128,60309,1,0
160,160,60669,1,0
128,256,61029,1,0
256,256,61390,5,0
320,192,61750,1,0
416,192,62110,1,0
416,288,62471,1,0
320,288,62831,5,0
192,288,63191,2,0,B|192:288|64:256|32:32|320:64|384:64|352:64,1,420
448,64,64633,2,0,B|448:64|512:224|192:384|192:352,1,420
32,32,68597,5,0
128,128,68957,1,0
224,192,69317,1,0
320,256,69678,1,0
416,320,70038,1,0
416,192,70759,5,0
416,64,71119,1,0
288,64,71480,1,0
192,64,71840,1,0
64,64,72200,2,0,B|64:64|64:352|352:32,1,420
448,64,73642,5,0
384,160,74002,1,0
288,256,74362,1,0
224,96,75083,1,0
32,32,75443,2,0,B|32:32|256:192|0:384|0:416,1,420
17,388,76885,2,0,B|17:388|256:192|-32:-32,1,420
192,64,78687,5,0
288,64,79047,1,0
320,160,79407,1,0
224,192,79768,1,0
64,64,80849,5,0
192,160,81209,5,0
320,160,81569,5,0
448,64,81930,5,0
448,64,82290,5,0
320,160,82650,5,0
192,160,83011,5,0
64,64,83371,5,0
64,64,83732,5,0
192,160,84092,5,0
320,160,84452,5,0
448,64,84813,5,0
448,64,85173,5,0
320,160,85533,5,0
192,160,85894,5,0
64,64,86254,5,0
64,64,86975,6,0,B|64:64|96:64|160:64,1,140
448,64,87695,6,0,B|448:64|320:64,1,140
320,160,88416,6,0,B|320:160|448:160,1,140
192,160,89137,6,0,B|192:160|96:160|64:160,1,140
32,32,89857,6,0,B|32:32|32:160,1,140
192,320,90578,6,0,B|192:320|192:160,1,140
320,32,91299,6,0,B|320:32|320:192,1,140
448,320,92020,6,0,B|448:320|448:192,1,140
448,64,92740,6,0,B|448:64|320:64,1,140
64,64,93461,6,0,B|64:64|192:64,1,140
192,192,94182,6,0,B|192:192|64:192,1,140
320,192,94902,6,0,B|320:192|448:192,1,140
448,64,95623,6,0,B|448:64|448:224,1,140
320,320,96344,6,0,B|320:320|320:192,1,140
192,64,97064,6,0,B|192:64|192:192,1,140
64,320,97785,6,0,B|64:320|64:192,1,140
64,64,98866,5,0
96,160,99227,1,0
160,224,99587,1,0
224,160,99947,1,0
256,64,100308,1,0
320,128,100668,1,0
320,224,101028,5,0
320,320,101389,1,0
448,320,101749,2,0,B|448:320|448:32,1,280
320,32,102830,2,0,B|320:32|32:32,1,280
250,41,105353,5,0
135,192,105713,1,0
256,315,106073,1,0
360,185,106434,1,0
250,41,106794,1,0
135,192,107154,1,0
256,315,107515,5,0
360,185,107875,1,0
256,192,108235,2,0,B|256:192|576:192|256:0|0:192|288:384|352:384,4,560
327,377,110037,2,0,B|327:377,1,140
256,32,116884,5,0
160,32,117244,1,0
64,32,117605,1,0
64,128,117965,1,0
64,224,118325,1,0
64,320,118686,1,0
160,320,119046,5,0
224,320,119406,1,0
288,320,120127,1,0
384,320,120487,1,0
480,320,120848,1,0
480,224,121208,1,0
480,128,121568,5,0
480,32,121929,1,0
384,32,122289,1,0
288,32,122649,1,0
288,128,123010,1,0
384,128,123370,1,0
384,224,123731,5,0
288,224,124091,1,0
224,224,124451,1,0
128,224,124812,1,0
128,128,125172,1,0
224,128,125532,1,0
256,192,125893,12,0,128415
32,32,129136,6,0,B|32:32|192:32,1,140
448,128,129856,6,0,B|448:128|288:128,1,140
310,227,130577,6,0,B|310:227|310:356|310:355,1,140
201,374,131298,6,0,B|201:374|200:195,1,140
192,128,132019,6,0,B|192:128|64:128,1,140
320,128,132739,6,0,B|320:128|448:128,1,140
320,224,133460,6,0,B|320:224|320:352,1,140
192,352,134181,6,0,B|192:352|192:224,1,140
32,32,134901,6,0,B|32:32|192:32,1,140
448,128,135622,6,0,B|448:128|288:128,1,140
310,227,136343,6,0,B|310:227|310:356|310:355,1,140
201,374,137064,6,0,B|201:374|200:195,1,140
192,128,137784,6,0,B|192:128|64:128,1,140
320,128,138505,6,0,B|320:128|448:128,1,140
320,224,139226,6,0,B|320:224|320:352,1,140
192,352,139946,6,0,B|192:352|192:224,1,140
256,192,141027,5,0
256,192,141748,1,0
256,192,143910,1,0
256,192,144631,1,0
32,64,146793,2,0,B|32:64|480:64|512:64,1,420
448,160,148595,2,0,B|448:160|0:160,1,420
32,256,150397,2,0,B|32:256|480:256,1,420
256,192,151838,1,0
256,192,152559,1,0
256,192,154360,5,0
256,192,155081,1,0
32,64,156523,1,0
160,64,157243,1,0
320,64,157964,1,0
448,224,159405,2,0,B|448:224|192:352|32:192|0:192,1,420
64,96,161207,5,0
160,96,161567,1,0
256,96,162288,1,0
320,96,162648,1,0
416,96,163009,1,0
416,96,163730,1,0
448,160,164090,5,0
416,224,164450,1,0
352,288,165171,1,0
288,288,165531,1,0
224,288,165892,1,0
160,288,166252,1,0
96,288,166973,5,0
64,224,167333,1,0
64,160,167693,1,0
32,64,169135,2,0,B|32:64|224:64,1,140
448,64,170216,2,0,B|448:64|320:64,1,140
32,64,172378,6,0,B|32:64|288:256,1,280
480,64,173459,2,0,B|480:64|224:224|256:224,1,280
96,64,175261,5,0
192,64,175621,1,0
256,64,175981,1,0
320,64,176342,1,0
416,96,176702,1,0
384,192,177063,1,0
256,288,177423,1,0
96,288,178144,5,0
64,256,178504,1,0
64,160,178864,1,0
96,96,179225,1,0
192,96,179585,1,0
288,96,179945,5,0
352,96,180306,1,0
352,96,180666,1,0
352,160,181026,1,0
352,224,181387,1,0
288,256,181747,5,0
224,256,182107,1,0
160,256,182468,1,0
128,192,182828,1,0
128,128,183189,1,0
192,96,183549,5,0
352,160,183909,1,0
320,256,184270,1,0
256,256,184630,1,0
160,256,184990,1,0
64,160,185351,5,0
64,96,185711,1,0
128,32,186071,1,0
288,64,186432,1,0
384,64,186792,1,0
480,160,187152,5,0
480,256,187513,1,0
448,320,187873,1,0
320,288,188233,1,0
352,192,188594,1,0
352,128,188954,5,0
288,64,189315,1,0
128,128,189675,1,0
224,160,190035,1,0
288,256,190396,1,0
224,288,190756,5,0
128,256,191116,1,0
96,192,191477,1,0
96,128,191837,1,0
32,64,192197,1,0
96,32,192558,5,0
224,64,192918,1,0
288,128,193278,1,0
192,160,193639,1,0
128,192,193999,1,0
96,256,194359,5,0
256,224,194720,1,0
352,160,195080,1,0
416,64,195440,1,0
480,160,195801,1,0
352,320,196161,5,0
224,256,196522,1,0
160,160,196882,1,0
224,64,197242,1,0
320,64,197603,1,0
384,192,197963,5,0
288,192,198323,1,0
160,128,198684,1,0
64,192,199044,1,0
96,288,199404,1,0
224,288,199765,5,0
256,192,200125,1,0
352,96,200485,1,0
448,192,200846,1,0
384,288,201206,1,0
96,96,201566,5,0
96,256,201927,1,0
224,160,202287,1,0
320,64,202648,1,0
416,128,203008,1,0
384,320,203368,5,0
224,288,203729,1,0
224,160,204089,1,0
320,192,204449,1,0
224,224,204810,1,0
96,192,205170,5,0
64,96,205530,1,0
256,64,205891,1,0
352,160,206251,1,0
64,256,206611,1,0
128,352,207332,6,0,B|128:352|512:320|512:0|128:32|96:32,3,700
106,31,213098,6,0,B|106:31|480:32|512:352|96:352|64:352,2,700
192,192,217062,6,0,B|192:192|288:192,9,140
32,192,220665,5,0
192,32,221025,1,0
352,32,221386,1,0
480,192,221746,1,0
