osu file format v9

[General]
AudioFilename: intothelight.mp3
AudioLeadIn: 0
PreviewTime: 138175
Countdown: 0
SampleSet: Soft
StackLeniency: 0.7
Mode: 0
LetterboxInBreaks: 0

[Editor]
DistanceSpacing: 1
BeatDivisor: 4
GridSize: 8

[Metadata]
Title:Into the Light
Artist:In This Moment
Creator:rEdo
Version:Hard
Source:
Tags:the dream

[Difficulty]
HPDrainRate:7
CircleSize:6
OverallDifficulty:6
ApproachRate:6
SliderMultiplier:1.4
SliderTickRate:2

[Events]
//Background and Video events
0,0,"intothelight.jpg"
//Break Periods
2,85046,92684
2,209490,226018
//Storyboard Layer 0 (Background)
//Storyboard Layer 1 (Fail)
//Storyboard Layer 2 (Pass)
//Storyboard Layer 3 (Foreground)
//Storyboard Sound Samples
//Background Colour Transformations
3,100,163,162,255

[TimingPoints]
4846,555.555555555556,4,2,0,60,1,0
39984,-100,4,2,0,65,0,0
48179,-100,4,2,0,75,0,0
80262,-100,4,2,0,50,0,0
93457,-100,4,2,0,50,0,0
94012,-100,4,2,0,60,0,0
128873,-100,4,2,0,65,0,0
137068,-100,4,2,0,75,0,0
173734,-100,4,2,0,80,0,1
173873,-100,4,2,0,80,0,0
191512,-100,4,2,0,80,0,1
191651,-100,4,2,0,80,0,0
205401,-100,4,2,0,70,0,0
205957,-100,4,2,0,60,0,0
206512,-100,4,2,0,50,0,0
207068,-100,4,2,0,40,0,0
207623,-100,4,2,0,30,0,0
208179,-100,4,2,0,20,0,0
208734,-100,4,2,0,10,0,0
209290,-100,4,2,0,80,0,0
227068,-83.3333333333333,4,2,0,90,0,1
240262,-100,4,2,0,60,0,0
240401,-100,4,2,0,60,0,1
240540,-100,4,2,0,60,0,0
241885,681.818181818182,4,2,0,30,1,0
242737,-200,4,2,0,30,0,0
245755,1034.48275862069,4,2,0,30,1,0
247402,1111.11111111111,4,2,0,30,1,0

[Colours]
Combo1 : 0,200,50
Combo2 : 140,180,240
Combo3 : 80,140,160
Combo4 : 255,200,50

[HitObjects]
184,56,6790,1,0
120,88,7068,2,0,B|82:80|56:64,2,70,0|0|2
144,152,7901,1,0
104,208,8179,1,0
128,272,8457,1,2
264,248,9012,1,0
242,313,9290,2,0,B|292:336|346:292|334:246,1,140,2|0
194,249,10401,2,0,B|182:204|236:160|286:183,1,140,0|0
344,144,11234,5,2
413,154,11512,2,0,B|473:206|448:296,1,140,0|2
320,336,12623,2,0,B|256:280|168:320,1,140,0|2
189,311,13457,1,0
120,296,13734,1,0
184,176,14290,1,0
189,311,14845,1,0
117,195,15401,37,0
80,136,15679,1,2
104,72,15957,2,0,B|144:16|232:40,1,140,0|2
280,88,16790,2,0,B|232:152|264:232,1,140
309,269,17623,1,2
378,279,17901,1,0
441,248,18179,2,0,B|414:161|487:114,1,140,0|2
424,72,19012,2,0,B|331:88|279:14,1,140
295,34,19846,1,2
160,56,20401,6,0,B|88:88,1,70,2|0
224,144,21234,2,0,B|303:123|353:177,1,140
416,208,22068,1,2
441,273,22346,1,0
415,338,22623,1,0
296,272,23179,1,0
432,280,23734,1,0
304,344,24290,37,2
248,296,24568,2,0,B|211:295|166:309,2,70
288,240,25401,1,2
232,192,25679,1,0
272,136,25957,2,0,B|274:95|253:64,1,70,0|2
119,39,26790,5,2
176,80,27068,2,0,B|223:143|173:232,1,140
288,120,28179,2,0,B|343:67|418:82,1,140,0|2
448,144,29012,1,0
409,202,29290,1,0
440,264,29568,2,0,B|407:354|300:299,1,140,2|2
152,56,30957,37,2
103,106,31234,1,0
122,173,31512,2,0,B|56:224|104:320,1,140
224,344,32623,2,0,B|280:288|360:320,1,140,0|2
417,344,33457,1,0
472,301,33734,2,0,B|425:235|468:160,1,140,0|2
400,136,34568,2,0,B|330:176|257:144,1,140
200,175,35401,1,2
132,156,35679,1,0
89,100,35957,6,0,B|19:144|69:246,1,140,0|2
30,287,36790,2,0,B|91:234|181:272,1,140
224,304,37623,1,2
280,262,37901,2,0,B|278:216|248:190,1,70,0|0
256,56,38734,1,0
192,88,39012,2,0,B|188:160|280:184|312:148|328:112,1,175,2|0
432,296,40401,38,0,B|368:352|280:304,1,140,4|0
160,296,41512,1,2
104,168,42068,1,0
160,120,42346,2,0,B|189:150|173:191,1,70,2|2
304,120,43179,1,0
360,72,43457,2,0,B|389:102|373:143,1,70,0|2
416,192,44012,2,0,B|450:176|496:176,2,70,0|0|2
416,192,44846,1,2
256,192,45123,12,2,47068
424,80,49290,5,4
361,111,49568,2,0,B|373:150|401:191,2,70,2|0|0
296,84,50401,2,0,B|256:60|200:76,1,70,2|0
160,88,50957,1,0
104,128,51234,1,2
77,192,51512,2,0,B|110:265|45:330,1,140,0|2
112,360,52346,2,0,B|184:312|264:352,1,140
312,320,53179,1,2
376,352,53457,1,0
442,328,53734,38,0,B|464:296|448:240,1,70,0|2
400,208,54290,2,0,B|373:179|360:144,2,70,0|0|2
472,192,55123,1,0
440,128,55401,2,0,B|408:104|392:56,1,70,0|2
328,48,55957,2,0,B|240:32|180:110,1,140,0|2
136,56,56790,2,0,B|77:110|92:210,1,140
72,251,57623,1,2
122,299,57901,1,0
191,290,58179,2,0,B|226:300|272:296,1,70,0|2
392,248,59012,6,0,B|414:280|424:322,2,70,2|0|0
344,192,59846,1,2
392,136,60123,1,0
344,80,60401,2,0,B|280:40|192:64,1,140,0|2
182,124,61234,2,0,B|272:200|208:320,1,210,0|2
152,352,62346,1,0
84,332,62623,2,0,B|56:300|53:262|53:263,1,70,0|2
184,224,63457,38,0,B|151:195|114:181,2,70,2|0|0
232,272,64290,1,0
304,264,64568,1,2
347,318,64846,2,0,B|417:364|468:291|468:291|405:216|490:164,1,280
408,48,66512,1,2
368,105,66790,1,0
298,116,67068,2,0,B|258:116|216:96,1,70,4|2
88,120,67901,6,0,B|64:88|64:48,2,70,2|0|0
140,166,68734,1,0
104,226,69012,1,2
155,273,69290,2,0,B|234:253|298:317,1,140,0|2
347,272,70123,2,0,B|288:203|322:124,1,140
357,85,70957,1,2
425,74,71234,1,0
482,113,71512,2,0,B|474:152|507:188,1,70,0|2
400,280,72346,38,0,B|440:280|488:272,2,70,2|0|0
330,275,73179,1,0
282,223,73457,1,2
291,153,73734,2,0,B|376:139|400:56,1,140,0|2
341,24,74568,2,0,B|268:0|209:53,1,140
208,120,75401,2,0,B|160:120|144:72,1,70,2|0
88,64,75957,1,0
32,104,76234,1,2
128,208,76790,6,0,B|104:232|48:248,2,70,2|0|0
195,191,77623,1,0
262,208,77901,1,2
288,272,78179,2,0,B|320:352|416:312,1,140,0|2
376,248,79012,2,0,B|448:112|312:184|392:48,1,210,0|2
328,16,80123,1,0
256,24,80401,1,4
256,192,81790,12,4,84846
320,136,93734,37,4
456,96,94290,1,0
328,56,94846,1,0
408,168,95401,1,2
344,200,95679,2,0,B|305:190|270:199,2,70
400,240,96512,1,2
384,304,96790,1,0
328,344,97068,2,0,B|291:362|254:347,1,70,0|2
160,248,97901,5,2
104,208,98179,2,0,B|72:128|128:80,1,140
256,128,99290,2,0,B|312:64|408:104,1,140,0|2
440,136,100123,1,0
446,205,100401,2,0,B|422:245|430:285,1,70
382,325,100957,1,2
312,325,101234,2,0,B|274:318|232:325,2,70,0|0|2
200,240,102346,37,2
136,272,102623,2,0,B|56:224|112:127,1,140
126,14,103734,2,0,B|206:62|149:158,1,140,0|2
167,204,104568,1,0
212,256,104846,2,0,B|245:335|319:329,1,140,0|2
378,292,105679,2,0,B|349:210|420:163,1,140
463,119,106512,1,2
395,99,106790,1,0
363,36,107068,6,0,B|302:95|215:51,1,140,0|2
188,113,107901,2,0,B|246:178|204:262,1,140
232,310,108734,1,2
301,320,109012,1,0
356,276,109290,2,0,B|298:211|340:127,1,140
188,113,110401,2,0,B|246:178|204:262,1,140,2|0
179,305,111234,1,2
111,323,111512,1,0
110,182,112068,1,0
179,305,112623,1,0
59,231,113179,37,2
110,182,113457,2,0,B|101:145|76:109,2,70
179,188,114290,1,2
247,171,114568,1,0
305,132,114846,1,0
319,63,115123,1,2
433,144,115679,5,2
400,206,115957,2,0,B|344:262|384:350,1,140
248,280,117068,2,0,B|192:224|104:256,1,140,0|2
85,312,117901,1,0
50,250,118179,1,0
86,192,118457,2,0,B|52:117|112:64,1,140,2|2
384,72,119846,37,2
423,129,120123,1,0
416,197,120401,2,0,B|352:248|384:336,1,140
248,360,121512,2,0,B|197:296|109:328,1,140,0|2
72,272,122346,1,0
136,240,122623,2,0,B|160:160|80:112,1,140,0|2
136,64,123457,2,0,B|200:112|296:80,1,140
332,56,124290,1,2
402,56,124568,1,0
452,104,124846,6,0,B|395:164|430:240,1,140,0|2
470,287,125679,2,0,B|401:235|320:281,1,140
338,271,126512,1,2
208,328,127068,2,0,B|153:342|105:296,1,105,2|0
208,328,127901,2,0,B|314:308|286:183,1,175,2|0
118,159,129290,38,0,B|163:94|255:110,1,140,4|0
368,48,130401,1,2
312,176,130957,1,0
376,144,131234,2,0,B|399:184|366:223,1,70,0|2
256,280,132068,1,0
192,256,132346,2,0,B|128:192|166:121,1,140,2|0
202,71,133179,1,2
264,103,133457,1,0
256,34,133734,1,2
256,192,134012,12,2,135957
88,304,138179,5,4
151,273,138457,2,0,B|139:234|111:193,2,70,2|0|0
216,300,139290,2,0,B|256:324|312:308,1,70,2|0
352,296,139846,1,0
408,256,140123,1,2
435,192,140401,2,0,B|402:119|467:54,1,140,0|2
400,24,141234,2,0,B|328:72|248:32,1,140
200,64,142068,1,2
136,32,142346,1,0
70,56,142623,38,0,B|48:88|64:143,1,70,0|2
112,176,143179,2,0,B|139:205|152:239,2,70,0|0|2
40,192,144012,1,0
72,256,144290,2,0,B|104:280|120:328,1,70,0|2
184,336,144846,2,0,B|272:352|332:274,1,140,0|2
376,328,145679,2,0,B|435:274|420:174,1,140
440,133,146512,1,2
390,85,146790,1,0
321,94,147068,2,0,B|286:84|240:88,1,70,0|2
120,136,147901,6,0,B|98:104|88:62,2,70,2|0|0
168,192,148734,1,0
120,247,149012,1,2
168,304,149290,2,0,B|232:344|320:320,1,140,0|2
330,260,150123,2,0,B|240:184|304:64,1,210,0|2
360,32,151234,1,0
428,52,151512,2,0,B|456:84|459:122|459:121,1,70,0|2
328,160,152345,38,0,B|368:176|408:176,2,70,2|0|0
280,112,153179,1,0
208,120,153457,1,2
165,66,153734,2,0,B|95:20|44:93|44:93|106:168|22:220,1,280
104,336,155401,1,2
144,279,155679,1,0
214,268,155957,2,0,B|254:268|296:288,1,70,4|2
424,264,156790,6,0,B|448:296|448:336,2,70,2|0|0
372,218,157623,1,0
408,158,157901,1,2
357,111,158179,2,0,B|278:131|214:67,1,140,0|2
165,112,159012,2,0,B|224:181|190:260,1,140
155,299,159845,1,2
87,310,160123,1,0
30,271,160401,2,0,B|38:232|5:196,1,70,0|2
112,104,161234,38,0,B|72:104|24:112,2,70,2|0|0
182,109,162068,1,0
230,161,162345,1,2
221,231,162623,2,0,B|136:245|112:328,1,140,0|2
171,360,163457,2,0,B|244:384|303:331,1,140
304,264,164290,2,0,B|352:264|368:312,1,70,2|0
424,320,164845,1,0
480,280,165123,1,2
384,176,165679,6,0,B|408:152|464:136,2,70,2|0|0
317,193,166512,1,0
250,175,166790,1,2
223,112,167068,2,0,B|192:32|96:72,1,140,0|2
136,136,167901,2,0,B|64:272|200:200|120:336,1,210,0|2
184,368,169012,1,0
256,360,169290,1,0
310,315,169568,1,2
408,216,170123,38,0,B|372:234|332:227,1,70,2|0
270,220,170679,1,0
221,169,170957,1,0
205,100,171234,1,2
237,38,171512,2,0,B|312:2|391:38|432:132|364:205,1,280
355,253,172901,1,0
378,318,173179,1,2
144,296,173734,6,0,B|104:224|160:160,1,140,4|0
192,32,174845,2,0,B|240:96|336:56,1,140,2|0
240,176,175957,2,0,B|203:172|160:152,1,70,0|2
312,168,176790,2,0,B|392:200|448:116,2,140,0|2|2
240,176,178179,2,0,B|272:96|200:48,1,140,0|0
136,40,179012,1,0
80,80,179290,1,2
168,184,179845,1,0
304,168,180401,38,0,B|384:192,1,70,0|2
256,264,181234,2,0,B|164:231|123:321,2,140,0|2|2
312,304,182623,2,0,B|366:362|445:327,1,140,2|0
481,273,183457,1,0
470,203,183734,2,0,B|400:144|464:64,1,140,2|0
312,104,184845,6,0,B|256:40|160:72,1,140,2|2
120,40,185679,1,0
104,176,186234,1,2
185,65,186790,1,2
248,104,187068,2,0,B|328:120|376:48,1,140,0|0
416,109,187901,37,0
437,175,188179,1,0
442,244,188457,1,2
408,304,188734,2,0,B|384:336|344:344,1,70,0|2
144,304,189845,2,0,B|168:336|208:344,1,70,0|2
256,216,190679,2,0,B|238:184|270:175|253:144,1,70,2|0
256,148,191512,6,0,B|216:80|125:104,1,140,4|0
72,132,192345,1,0
57,200,192623,1,2
200,208,193179,1,0
248,256,193457,2,0,B|216:288|176:272,1,70,2|0
128,312,194012,1,2
106,173,194568,1,0
56,304,195123,1,2
162,213,195679,37,0
106,173,195957,2,0,B|72:96|144:48,1,140,2|0
210,48,196790,1,0
269,85,197068,1,2
136,120,197623,1,0
87,167,197901,2,0,B|63:135|72:101,2,70,2|0|2
73,307,199012,1,0
152,192,199568,1,2
26,254,200123,5,0
73,307,200401,2,0,B|136:360|224:320,1,140,2|0
253,277,201234,1,0
242,207,201512,1,2
360,136,202068,2,0,B|400:168|384:224,1,70,0|2
368,264,202623,2,0,B|304:192|224:240,1,140,0|2
256,160,203457,2,0,B|297:64|224:119|257:24,1,140,0|2
255,28,204568,1,4
256,192,204845,12,4,209290
72,304,227068,5,4
152,328,227345,2,0,B|208:336|248:296,2,84.0000020027161,2|0|0
132,246,228179,2,0,B|151:198|108:150,1,84.0000020027161,2|0
91,87,228734,1,0
168,120,229012,1,2
251,108,229290,2,0,B|336:152|312:256,1,168.000004005432,0|2
240,216,230123,2,0,B|296:128|403:163,1,168.000004005432
459,120,230957,1,2
398,61,231234,1,0
314,65,231512,6,0,B|274:101|209:77,1,84.0000020027161,4|2
176,144,232068,1,0
136,72,232345,2,0,B|88:96|96:160,1,84.0000020027161,0|2
176,144,232901,1,0
216,216,233179,2,0,B|264:192|256:128,1,84.0000020027161,0|2
296,72,233734,2,0,B|248:156|337:236,1,168.000004005432,0|2
360,152,234568,2,0,B|250:173|188:64,1,168.000004005432
141,49,235401,1,2
156,131,235679,1,0
158,215,235957,38,0,B|124:172|61:180,1,84.0000020027161,4|2
92,262,236512,2,0,B|121:301|103:350,1,84.0000020027161,0|0
185,307,237068,2,0,B|223:277|277:296,1,84.0000020027161,2|0
346,310,237623,1,0
426,286,237901,1,2
456,207,238179,2,0,B|357:233|306:129,1,168.000004005432,0|2
256,88,239012,2,0,B|142:90|93:229|166:294,1,252.000006008148,0|2
227,253,240123,1,0
256,331,240401,1,4
440,110,241885,5,0
388,65,242225,1,2
319,54,242566,1,0
252,76,242907,2,0,B|216:64|184:81|184:81|158:53|109:65,1,140,0|2
208,280,245755,22,0,B|236:248|292:255,1,70,2|0
270,253,247402,1,0
