osu file format v12

[General]
AudioFilename: In Fact (The Carousel Remix).mp3
AudioLeadIn: 0
PreviewTime: 31642
Countdown: 0
SampleSet: None
StackLeniency: 0.7
Mode: 0
LetterboxInBreaks: 0
WidescreenStoryboard: 0

[Editor]
DistanceSpacing: 1.2
BeatDivisor: 6
GridSize: 4

[Metadata]
Title:leon no
TitleUnicode:leon no
Artist:
ArtistUnicode:
Creator:Elly-chan
Version:carousel remix
Source:
Tags:
BeatmapID:355988
BeatmapSetID:142285

[Difficulty]
HPDrainRate:5
CircleSize:4
OverallDifficulty:6
ApproachRate:7
SliderMultiplier:1.2
SliderTickRate:1

[Events]
//Background and Video events
0,0,"Love The Way You Lie.png",0,0
//Break Periods
//Storyboard Layer 0 (Background)
//Storyboard Layer 1 (Fail)
//Storyboard Layer 2 (Pass)
//Storyboard Layer 3 (Foreground)
//Storyboard Sound Samples
//Background Colour Transformations
3,100,0,0,0

[TimingPoints]
337.69268292126,434.782608695652,3,2,1,40,1,0
20120,-100,3,2,2,40,0,0
21207,-100,3,2,1,40,0,0
31642,-100,3,2,1,40,0,1
52511,-100,3,2,1,40,0,0
78598,-100,3,2,1,40,0,1
99468,-100,3,2,1,40,0,0

[Colours]
Combo1 : 64,64,64
Combo2 : 170,170,170
Combo3 : 139,139,139
Combo4 : 87,87,87

[HitObjects]
64,168,337,2,0,L|40:48,2,120,2|4|4,0:0|0:0|0:0,0:0:0:0:
172,224,1642,2,0,L|196:344,2,120,2|4|4,0:0|0:0|0:0,0:0:0:0:
224,116,2946,2,0,P|272:84|348:84,1,120,2|4,0:0|0:0,0:0:0:0:
424,160,3815,2,0,P|376:192|300:192,1,120,4|2,0:0|0:0,0:0:0:0:
224,116,4685,1,4,0:0:0:0:
172,224,5120,1,4,0:0:0:0:
80,148,5555,6,0,P|52:204|60:272,2,120,2|4|4,0:0|0:0|0:0,0:0:0:0:
172,224,6859,2,0,P|200:168|192:100,2,120,2|4|4,0:0|0:0|0:0,0:0:0:0:
88,308,8163,1,2,0:0:0:0:
204,332,8598,1,4,0:0:0:0:
324,356,9033,1,4,0:0:0:0:
324,356,9468,1,2,0:0:0:0:
308,240,9902,1,4,0:0:0:0:
292,120,10337,1,4,0:0:0:0:
192,52,10772,6,0,P|144:92|76:92,1,120,2|4,0:0|0:0,0:0:0:0:
16,100,11424,2,0,L|36:224,1,120,4|0,0:0|0:0,0:0:0:0:
48,288,12076,1,8,0:0:0:0:
184,340,12511,1,4,0:0:0:0:
268,224,12946,1,4,0:0:0:0:
356,112,13381,6,0,L|484:124,2,120,2|4|4,0:0|0:0|0:0,0:0:0:0:
268,224,14685,2,0,L|140:212,2,120,8|4|2,0:0|0:0|2:0,0:0:0:0:
380,316,15989,6,0,P|328:340|248:344,1,120,2|4,0:0|0:0,0:0:0:0:
154,254,16642,2,0,P|206:230|267:223,1,120,4|0,0:0|0:0,0:0:0:0:
332,256,17294,2,0,P|292:212|280:136,2,120,8|4|4,0:0|0:0|0:0,0:0:0:0:
476,232,18598,1,2,0:0:0:0:
360,148,19033,1,4,0:0:0:0:
244,64,19468,1,4,0:0:0:0:
244,64,19902,5,8,0:0:0:0:
192,144,20192,2,0,L|164:188,1,40,8|2,0:0|0:0,0:0:0:0:
84,140,20627,1,8,0:0:0:0:
84,140,20772,2,0,P|80:204|120:268,1,120,2|6,0:0|0:0,0:0:0:0:
228,328,21642,5,4,0:0:0:0:
312,212,22076,1,4,0:0:0:0:
448,256,22511,2,0,P|460:312|504:368,2,120,8|4|4,0:0|0:0|0:0,0:0:0:0:
468,188,23598,5,0,0:0:0:0:
468,188,23815,2,0,P|456:132|412:76,2,120,2|4|4,0:0|0:0|0:0,0:0:0:0:
400,256,24975,1,2,0:0:0:0:
400,256,25120,2,0,P|344:268|288:312,1,120,8|2,0:0|0:0,0:0:0:0:
52,228,25989,2,0,P|84:224|132:192,1,80,2|4,0:0|0:0,0:0:0:0:
164,172,26424,6,0,P|168:240|208:316,2,120,2|4|4,0:0|0:0|0:0,0:0:0:0:
308,180,27728,2,0,P|304:112|264:36,2,120,8|4|4,0:0|0:0|0:0,0:0:0:0:
448,212,29033,5,2,0:0:0:0:
348,316,29468,1,4,0:0:0:0:
308,180,29902,1,6,0:0:0:0:
308,180,30337,1,2,0:0:0:0:
248,48,30772,2,0,P|216:68|168:72,1,60,2|4,0:0|0:0,0:0:0:0:
124,56,31207,1,2,0:0:0:0:
36,160,31497,5,2,0:0:0:0:
36,160,31642,2,0,P|44:204|64:256,1,80,2|0,0:0|0:0,0:0:0:0:
56,284,32076,2,0,P|112:319|164:327,1,120,2|4,0:0|0:0,0:0:0:0:
308,328,32946,2,0,L|284:364,1,30,8|0,0:0|0:0,0:0:0:0:
308,328,33236,2,0,P|384:324|432:256,1,150,4|0,0:0|0:0,0:0:0:0:
428,116,34250,1,0,0:0:0:0:
428,116,34540,2,0,L|332:168,2,100,0|4|0,0:0|0:0|0:0,0:0:0:0:
