osu file format v6

[General]
AudioFilename: Imogen Heap - Tidal.mp3
AudioLeadIn: 0
PreviewTime: 48525
Countdown: 1
SampleSet: Soft
StackLeniency: 0.7
Mode: 0
LetterboxInBreaks: 1

[Editor]
Bookmarks: 7733,20717,41940,43217,50172,61879,84745,95903,102854,114562,123891
DistanceSpacing: 0.800000011920929
BeatDivisor: 4
GridSize: 8

[Metadata]
Title:Tidal
Artist:Imogen Heap
Creator:Symbolic
Version:Normal
Source:
Tags:

[Difficulty]
HPDrainRate:3
CircleSize:4
OverallDifficulty:4
SliderMultiplier:1.2
SliderTickRate:2

[Events]
//Background and Video events
0,0,"background.jpg"
//Break Periods
2,69944,83425
//Storyboard Layer 0 (Background)
//Storyboard Layer 1 (Fail)
//Storyboard Layer 2 (Pass)
//Storyboard Layer 3 (Foreground)
Sprite,Foreground,Centre,"black.jpg",320,240 F,0,149684,154074,0,1 M,0,154074,,320,240 F,0,154074,158098,1 F,0,158098,,1 F,0,158098,,1 F,0,158098,160659,1 F,0,160659,161391,1,0.6 F,0,161391,161665,0.6,0
Sprite,Foreground,Centre,"bgoverlay.jpg",320,240 M,0,161391,,320,240 F,0,161391,161482,0,1 S,0,161391,161482,1,1.024 F,0,161482,162306,1,0 S,0,161482,162306,1.024,1
//Storyboard Sound Samples
//Background Colour Transformations
3,100,163,162,255

[TimingPoints]
7733,365.853658536585,4,1,0,40,1,0
13586,-100,4,1,0,0,0,0
15415,-100,4,1,0,40,0,0
15781,-100,4,1,2,40,0,0
16513,-100,4,1,0,0,0,0
18159,-100,4,1,0,40,0,0
19440,-100,4,1,0,30,0,0
23464,-100,4,1,0,20,0,0
23647,-100,4,1,0,10,0,0
23830,-100,4,2,0,30,0,0
25293,-100,4,1,0,30,0,0
30781,-100,4,1,0,10,0,0
30964,-100,4,1,0,20,0,0
31147,-100,4,1,0,30,0,0
34806,-100,4,1,0,20,0,0
34989,-100,4,1,0,10,0,0
35172,-100,4,2,0,30,0,0
36269,-100,4,1,0,30,0,0
38647,-100,4,1,2,30,0,0
38739,-100,4,1,0,30,0,0
41574,-100,4,1,0,20,0,0
41757,-100,4,1,0,10,0,0
41940,-100,4,2,0,30,0,0
43220,-100,4,2,0,50,0,0
43403,-100,4,2,1,50,0,0
48891,-100,4,1,0,20,0,0
49074,-100,4,1,0,30,0,0
49257,-100,4,1,0,40,0,0
49440,-100,4,1,0,50,0,0
49806,-100,4,1,0,60,0,0
50172,-100,4,1,0,70,0,1
52184,-100,4,1,0,30,0,1
52367,-100,4,1,0,20,0,1
52550,-100,4,2,0,40,0,1
52915,-100,4,1,0,70,0,1
60415,-100,4,1,1,50,0,1
60690,-100,4,1,2,50,0,1
60873,-100,4,1,0,50,0,1
61147,-100,4,1,1,50,0,1
61239,-100,4,1,0,50,0,1
61879,-100,4,1,0,70,0,1
63891,-100,4,1,0,30,0,1
64074,-100,4,1,0,20,0,1
64257,-100,4,2,0,40,0,1
64623,-100,4,1,0,70,0,1
70293,-100,4,1,0,30,0,0
88220,-100,4,2,0,30,0,0
88769,-100,4,1,0,30,0,0
92428,-100,4,1,0,40,0,0
92793,-100,4,1,0,50,0,0
93708,-100,4,1,0,40,0,0
93891,-100,4,1,0,30,0,0
94257,-100,4,1,0,20,0,0
94623,-100,4,1,0,10,0,0
94806,-100,4,2,0,30,0,0
95172,-100,4,1,0,30,0,0
95903,-100,4,2,1,70,0,0
101025,-100,4,2,0,40,0,0
102672,-100,4,2,0,70,0,0
102854,-100,4,1,0,70,0,1
104592,-100,4,1,2,70,0,1
104775,-100,4,1,0,70,0,1
105873,-100,4,1,2,70,0,1
106056,-100,4,1,0,70,0,1
106970,-100,4,1,2,50,0,1
107153,-100,4,1,0,70,0,1
110537,-100,4,1,0,50,0,1
110720,-100,4,1,0,20,0,1
110903,-100,4,2,0,30,0,1
111269,-100,4,1,0,70,0,1
111361,-100,4,1,2,50,0,1
111543,-100,4,1,0,70,0,1
113098,-100,4,1,1,50,0,1
113373,-100,4,1,2,50,0,1
113556,-100,4,1,0,50,0,1
113739,-100,4,1,1,50,0,1
113922,-100,4,1,0,50,0,1
114562,-100,4,1,0,70,0,1
117580,-100,4,1,2,70,0,1
117763,-100,4,1,0,70,0,1
118678,-100,4,1,2,50,0,1
118861,-100,4,1,0,70,0,1
122428,-100,4,1,0,50,0,0
123708,-100,4,2,0,100,0,0

[HitObjects]
256,192,5720,12,0,7732
256,152,8098,5,0
208,232,8464,1,0
304,232,8830,1,0
352,232,9013,2,0,B|432:232|432:160,2,120,8|8|0
304,232,9928,1,0
256,144,10293,6,0,B|256:0,2,120
256,240,11391,2,0,B|256:384,1,120
256,360,11940,2,0,B|184:360|144:304,2,120,8|8|0
256,360,12854,1,0
256,192,13220,5,2
256,192,13586,12,0,15415
208,184,15781,6,0,B|256:248|264:128|312:200|312:208,1,120
256,192,16513,12,0,17976
309,201,18342,6,0,B|312:200|264:128|256:248|208:184,2,120,8|8|8
208,240,19440,5,2
304,240,19806,1,2
304,144,20172,1,2
208,144,20537,1,2
192,192,20720,6,0,B|128:192,1,60
32,192,21269,1,0
32,192,21452,2,0,B|24:256|64:296|112:288,1,120
176,312,22184,2,0,B|264:336|408:320|440:232|424:144|416:80|384:56|336:16|256:16,1,540
256,256,25293,5,2
184,192,25659,1,2
256,128,26025,1,2
328,192,26391,1,2
400,256,26757,6,0,B|440:240|448:208,1,60
400,128,27306,1,0
328,192,27672,1,0
256,256,28037,2,0,B|112:256,3,120
40,256,29501,2,0,B|40:152|104:144,1,120
128,128,30050,2,0,B|176:112|208:120,2,60,0|0|0
152,216,30781,6,0,B|176:256,4,30,0|0|0|0|0
216,152,31513,6,0,B|320:248,1,120
384,280,32245,5,0
464,232,32611,1,0
464,232,32793,2,0,B|472:160|408:120,1,120
280,80,33708,2,0,B|232:64|200:64,1,60
176,64,34074,2,0,B|0:168|424:224|232:336,1,360
280,32,36269,6,0,B|304:96|280:160,1,120,0|0
232,32,37001,2,0,B|208:96|232:160,1,120,0|0
256,192,37550,2,0,B|208:224|296:240|200:256|264:304,1,120
296,320,38098,2,0,B|384:344|448:288|456:216|416:144|368:128|328:120|280:144,1,360
160,176,39745,1,0
72,288,40293,2,0,B|176:344|368:320|432:280|464:208|480:96|448:64,1,540
119,135,43220,6,0,B|79:199|135:263,1,120
167,247,43769,2,0,B|211:199|171:135,1,120,0|0
264,104,44501,2,0,B|264:304,1,180
393,249,46147,6,0,B|433:185|377:121,1,120
344,136,46696,2,0,B|301:185|341:249,1,120,0|0
248,280,47428,2,0,B|248:80,1,180
248,48,48160,1,0
112,104,48708,5,4
152,192,49074,6,0,B|248:352|248:352,1,180
384,344,50172,6,2,B|192:24,1,360
152,39,51452,2,0,B|338:348,1,360,0|0
240,344,52915,5,0
152,304,53281,1,0
168,208,53647,1,0
168,208,53830,1,0
168,208,54013,1,0
80,168,54379,1,0
160,48,54928,5,0
336,112,55659,6,0,B|376:136|400:96,2,60,0|0|2
336,208,56391,2,0,B|336:288|424:288,2,120,2|2|0
336,208,57306,2,2,B|200:120|120:272,1,240,2|0
80,112,58586,6,0,B|104:64|144:104,1,60
160,128,58952,2,0,B|224:208|328:144,2,180
176,80,60232,1,0
215,104,60415,6,0,B|277:-19|404:2|440:56|456:104|448:176,1,360,8|8
408,320,61879,6,2,B|88:128,1,360
103,88,63159,2,0,B|412:274,1,360,0|0
408,176,64622,5,0
368,88,64988,1,0
272,104,65354,1,0
272,104,65537,1,0
272,104,65720,1,0
232,16,66086,1,0
112,96,66635,5,0
176,272,67366,6,0,B|200:312|160:336,2,60,0|0|2
272,272,68098,2,0,B|352:272|352:360,2,120,2|2|0
272,272,69013,2,2,B|184:136|336:56,1,240,2|0
256,127,84745,5,0
191,192,85111,1,0
256,256,85476,1,0
320,192,85842,2,0,B|336:144|380:139|416:151|440:168,1,120
488,216,86574,2,0,B|504:232|512:248|512:272|496:288,1,60
496,320,86940,2,0,B|464:408|384:408|312:376|288:312|312:256|320:216|368:176|424:192|448:216,1,420
464,64,88769,5,0
464,64,88952,2,0,B|360:64,2,90
464,64,89684,1,0
424,200,90232,1,0
280,200,90781,5,2
208,72,91330,1,2
136,200,91879,1,2
64,264,92245,1,0
64,264,92428,1,0
136,327,92793,2,2,B|162:338|218:338|248:304|232:224|146:213|106:180|98:133|136:80|168:16|272:16|311:78|416:256,1,660,2|0
464,328,95172,5,0
368,328,95537,1,2
413,249,95903,6,0,B|341:249|285:217|261:161|261:97|288:40|325:25,1,300
376,104,97184,2,0,B|440:104,1,60
436,152,97550,2,0,B|376:152,1,60,0|0
99,135,98830,6,0,B|171:135|227:167|251:223|251:287|224:344|187:359,1,300
136,280,100111,2,0,B|72:280,1,60
76,232,100477,2,0,B|136:232,2,60
256,192,101025,12,0,102489
256,96,102854,6,2,B|88:96|88:296|264:296,1,360,2|0
304,296,104135,1,0
384,248,104501,6,0,B|504:248|512:128|368:128,1,240
312,192,105598,6,0,B|312:64|200:64|200:208,1,240
200,192,106513,1,0
200,191,106696,2,0,B|200:320|312:320|312:192,1,240
72,192,108342,5,8
72,192,108525,1,0
72,192,108708,1,2
72,288,109074,1,2
152,240,109440,1,2
152,144,109806,1,0
152,144,109989,2,0,B|200:88|328:88|408:104|440:160,1,300
472,232,111269,6,0,B|472:320|376:312,1,120
256,312,112184,1,0
112,312,112732,1,0
64,280,112915,1,0
40,232,113098,6,0,B|40:112|104:80|200:128|312:200,1,360,8|8
256,288,114562,6,2,B|424:288|424:88|248:88,1,360,2|0
208,88,115843,1,0
128,136,116209,6,0,B|8:136|0:256|144:256,1,240
200,192,117306,6,0,B|200:320|312:320|312:176,1,240
312,192,118221,1,0
311,192,118404,2,0,B|312:64|200:64|200:192,1,240
440,192,120050,5,8
440,192,120233,1,0
440,192,120416,1,2
440,96,120782,1,2
360,144,121148,1,2
360,240,121514,1,0
360,240,121696,2,0,B|296:264|216:232,1,120
256,192,122428,12,0,123708
