osu file format v5

[General]
AudioFilename: Imogen Heap - Tidal.mp3
AudioLeadIn: 0
PreviewTime: 48525
Countdown: 1
SampleSet: Normal
StackLeniency: 0.7
Mode: 0
LetterboxInBreaks: 1

[Editor]
Bookmarks: 7733,20717,43217,50172,61879,72123,84745,95903,102854,114562,123891,136513,148220,158098,171635,182062
DistanceSpacing: 0.800000011920929
BeatDivisor: 4
GridSize: 8

[Metadata]
Title:Tidal
Artist:Imogen Heap
Creator:Symbolic
Version:Hard
Source:
Tags:

[Difficulty]
HPDrainRate:7
CircleSize:4
OverallDifficulty:7
SliderMultiplier:1.6
SliderTickRate:2

[Events]
//Background and Video events
0,0,"background.jpg"
//Break Periods
2,72139,83845
2,123908,134881
2,154182,157198
//Storyboard Layer 0 (Background)
//Storyboard Layer 1 (Fail)
//Storyboard Layer 2 (Pass)
//Storyboard Layer 3 (Foreground)
Sprite,Foreground,Centre,"black.jpg",320,240 F,0,149684,154074,0,1 M,0,154074,,320,240 F,0,154074,158098,1 F,0,158098,,1 F,0,158098,,1 F,0,158098,160659,1 F,0,160659,161391,1,0.6 F,0,161391,161665,0.6,0
Sprite,Foreground,Centre,"bgoverlay.jpg",320,240 M,0,161391,,320,240 F,0,161391,161482,0,1 S,0,161391,161482,1,1.024 F,0,161482,162306,1,0 S,0,161482,162306,1.024,1
//Storyboard Sound Samples
//Background Colour Transformations
3,100,163,162,255

[TimingPoints]
7733,365.853658536585,4,1,0,40,1,0
13586,-100,4,1,0,0,0,0
15415,-100,4,1,0,40,0,0
16513,-100,4,1,0,0,0,0
18159,-100,4,1,0,40,0,0
19440,-100,4,1,0,30,0,0
30781,-100,4,1,0,10,0,0
30964,-100,4,1,0,20,0,0
31147,-100,4,1,0,30,0,0
42946,-100,4,2,0,30,0,0
43220,-100,4,2,0,50,0,0
48708,-100,4,1,0,10,0,0
48891,-100,4,1,0,20,0,0
49074,-100,4,1,0,30,0,0
49257,-100,4,1,0,40,0,0
49440,-100,4,1,0,50,0,0
49806,-100,4,1,0,60,0,0
50172,-100,4,1,0,70,0,1
60415,-100,4,1,0,50,0,1
61879,-100,4,1,0,70,0,1
70293,-100,4,1,0,50,0,1
72489,-100,4,1,0,30,0,0
88220,-100,4,2,0,30,0,0
88769,-100,4,1,0,30,0,0
92428,-100,4,1,0,40,0,0
92793,-100,4,1,0,50,0,0
93708,-100,4,1,0,40,0,0
93891,-100,4,1,0,30,0,0
95903,-100,4,2,0,70,0,0
98098,-100,4,1,0,40,0,0
98647,-100,4,1,0,30,0,0
98830,-100,4,2,0,70,0,0
101025,-100,4,2,0,40,0,0
102672,-100,4,2,0,70,0,0
102854,-100,4,1,0,70,0,1
113098,-100,4,1,0,50,0,1
114562,-100,4,1,0,70,0,1
122428,-100,4,1,0,50,0,0
123708,-100,4,1,0,70,0,0
124074,-100,4,1,0,30,0,0
136147,-100,4,1,0,40,0,0
136513,-100,4,1,0,50,0,0
138342,-100,4,1,0,40,0,0
138708,-100,4,1,0,30,0,0
139074,-100,4,1,0,25,0,0
139257,-100,4,1,0,20,0,0
139440,-100,4,1,0,50,0,0
144196,-100,4,1,0,40,0,0
144562,-100,4,1,0,30,0,0
144928,-100,4,1,0,25,0,0
145111,-100,4,1,0,0,0,0
148220,-100,4,1,0,30,0,0
148586,-100,4,2,0,50,0,0
150050,-100,4,2,0,30,0,0
150781,-100,4,1,0,10,0,0
151147,-100,4,2,0,20,0,0
152611,-100,4,2,0,15,0,0
153525,-100,4,2,0,10,0,0
158098,-100,4,1,0,0,0,0
160659,-100,4,1,0,30,0,0
161391,-100,4,1,0,70,0,1
162306,-100,4,2,0,100,0,1
162672,-100,4,1,0,70,0,1
164318,-100,4,1,0,50,0,1
165415,-100,4,1,0,70,0,1
168708,-100,4,2,0,100,0,1
169074,-100,4,1,0,70,0,1
171269,-100,4,2,0,100,0,1
171635,-100,4,1,0,70,0,1
176574,-100,4,2,0,100,0,1
176940,-100,4,1,0,70,0,1
179592,-100,4,1,0,0,0,1
181879,-100,4,1,0,70,0,1

[HitObjects]
256,192,5720,12,0,7732
432,296,8098,5,0
432,296,8281,1,0
400,240,8464,1,0
400,240,8647,1,0
352,200,8830,1,0
352,200,9013,2,0,B|272:152|160:192,2,160,8|8|0
400,160,9928,2,0,B|424:104|408:56,1,80,0|0
352,80,10293,5,0
312,32,10476,2,0,B|264:32,2,40
352,80,10842,2,0,B|328:136|264:112,2,80
352,80,11391,2,0,B|376:136|440:112,2,80
312,32,11940,2,0,B|144:32,2,160,8|8|0
272,80,12854,1,0
232,128,13037,1,0
256,184,13220,5,2
256,184,13403,1,2
256,192,13586,12,0,15233
80,192,15415,6,0,B|112:232|160:232,1,80
152,168,15781,2,0,B|184:128|232:128,1,80
224,192,16147,2,0,B|256:232|304:232,1,80,0|0
256,192,16513,12,0,17976
272,288,18159,5,0
216,256,18342,1,0
272,224,18525,1,0
216,192,18708,1,0
272,160,18891,1,0
216,128,19074,1,0
272,96,19257,1,0
256,32,19440,5,2
56,192,19806,1,2
256,352,20172,1,2
456,192,20537,1,2
392,192,20720,6,0,B|336:200|304:176,1,80
424,136,21269,1,0
360,136,21452,2,0,B|248:136|216:56,2,160
360,72,22367,5,4
240,32,22732,2,0,B|200:64|152:48,1,80,8|0
40,32,23281,2,0,B|80:64|128:48,1,80,0|8
40,152,23830,1,0
160,192,24195,2,0,B|200:160|248:176,1,80,8|0
360,192,24744,2,0,B|320:160|272:176,1,80,0|8
272,264,25111,1,8
256,352,25293,5,2
456,192,25659,1,2
256,32,26025,1,2
56,192,26390,1,2
120,192,26574,6,0,B|176:200|208:176,1,80
152,136,26940,2,0,B|264:136|296:56,2,160,0|0|0
152,248,28037,2,0,B|264:248|296:328,2,160,0|0|0
264,192,29135,1,0
328,192,29318,1,0
344,256,29501,2,0,B|448:184|312:120,1,160,0|0
280,112,30050,2,0,B|232:88|176:112,2,80
176,192,30781,6,2,B|136:192,6,20
208,192,31147,1,2
256,152,31330,6,0,B|304:120|360:168,1,80
296,192,31696,1,0
256,232,31879,2,0,B|304:264|360:216,1,80,0|0
376,192,32245,6,0,B|472:192,2,80
312,192,32793,2,0,B|128:192,2,160
344,248,33708,1,0
344,248,33891,1,0
344,248,34074,1,0
288,280,34257,6,0,B|312:320|288:368,2,80,0|2|0
224,280,34806,2,0,B|200:232|224:184,2,80,2|0|2
160,280,35354,2,0,B|184:320|160:368,2,80,0|2|0
96,280,35903,2,0,B|72:232|96:184,1,80,2|0
152,200,36269,5,0
176,144,36452,1,0
232,112,36635,1,0
360,112,37001,2,0,B|296:152|408:224|336:264,1,160
279,256,37550,2,0,B|219:224|331:152|267:112,1,160,0|0
312,64,38098,2,0,B|312:328,2,240
200,128,39562,1,0
144,160,39745,1,0
208,264,40111,1,0
264,232,40294,1,0
320,200,40476,6,0,B|400:136|488:216,1,160
464,264,41025,1,0
464,328,41208,1,0
400,328,41391,6,2,B|400:272|336:272,1,80
344,336,41757,2,2,B|288:328|288:264,1,80,2|2
320,160,42306,5,0
320,160,42397,1,0
320,160,42489,1,0
320,160,42580,1,0
320,160,42672,1,0
320,160,42763,1,0
368,112,42946,6,0,B|328:80,2,40
392,88,43220,5,0
440,128,43403,1,0
392,168,43586,2,0,B|392:256,1,80
440,288,43952,1,0
392,328,44135,1,0
320,216,44501,2,0,B|232:216,2,80,0|0|0
320,216,45050,1,0
320,216,45233,1,0
120,296,46147,5,0
72,256,46330,1,0
120,216,46513,2,0,B|120:128,1,80
72,96,46879,1,0
120,56,47062,1,0
192,168,47428,2,0,B|280:168,2,80,0|0|0
192,168,47977,1,0
192,168,48160,1,0
224,352,48708,5,2
224,352,48891,1,0
224,288,49074,1,2
224,288,49257,1,0
288,288,49440,1,2
288,288,49623,1,0
288,352,49806,1,2
288,352,49989,1,0
344,320,50172,6,2,B|424:352|512:296|544:240|544:112|432:56|328:88,1,480,2|0
336,152,51452,1,0
208,152,51818,5,0
176,208,52001,2,0,B|48:208|104:144|48:88|200:96,1,240,0|0
296,96,52915,6,0,B|408:88|384:216,2,160
296,160,53830,1,0
232,160,54013,2,0,B|224:272|352:248,1,160,0|0
176,368,54928,6,0,B|304:368|248:304|304:248|152:256,1,240,0|0
120,288,55659,5,0
64,256,55842,1,0
120,224,56025,2,0,B|120:128|208:88,1,160,2|2
120,224,56757,2,0,B|216:224|256:128,1,160,2|0
256,80,57306,2,2,B|328:40|424:40|504:80|528:168|512:288|440:328|376:328,1,480,2|0
360,360,58586,6,0,B|320:320|368:272,2,80
120,192,59501,1,0
360,24,60050,1,0
360,24,60232,1,0
296,24,60415,6,8,B|256:0|192:8,1,80
240,64,60781,1,0
232,128,60964,1,0
288,104,61147,1,8
280,167,61330,1,0
224,192,61513,2,8,B|176:184|160:120,1,80,8|8
168,64,61879,6,2,B|88:32|0:88|-32:144|-32:272|80:328|184:296,1,480,2|0
176,232,63159,1,0
304,232,63525,5,0
336,176,63708,2,0,B|464:176|408:240|464:296|312:288,1,240
216,288,64622,6,0,B|104:296|128:168,2,160
216,224,65537,1,0
280,224,65720,2,0,B|288:112|160:136,1,160,0|0
336,16,66635,6,0,B|208:16|264:80|208:136|360:128,1,240,0|0
392,96,67366,5,0
448,128,67549,1,0
392,160,67732,2,0,B|392:256|304:296,1,160,2|2
392,160,68464,2,0,B|296:160|256:256,1,160,2|0
256,304,69013,2,2,B|184:344|88:344|8:304|-16:216|0:96|72:56|136:56,1,480,2|0
128,120,70293,5,0
160,64,70476,1,0
192,120,70659,2,0,B|192:208|288:256|376:208,2,240
224,64,71939,1,0
256,192,84745,5,0
176,296,85111,2,0,B|256:336|336:296,1,160
336,88,85842,2,0,B|256:48|176:88,1,160
256,192,86574,1,0
256,192,86757,1,0
256,192,86940,2,0,B|296:208|336:208|336:96|256:96|168:96|160:192|176:272|256:272|272:256|296:248,1,320
264,256,87854,1,0
264,256,88037,1,0
328,256,88220,6,0,B|376:256|392:296,1,80
472,192,88769,5,0
416,160,88952,2,0,B|336:160|336:88,2,120
416,224,89684,2,0,B|168:224,1,240,2|2
80,56,90781,6,0,B|328:56,2,240,2|2|0
80,184,92245,1,0
144,192,92428,1,0
232,280,92793,2,2,B|328:312|408:272|440:216|440:136|416:88,1,320,2|0
392,56,93708,1,0
344,16,93891,1,0
296,56,94074,6,0,B|296:192|192:160,1,160
223,103,94623,2,0,B|136:88|144:216,1,160,0|0
192,248,95172,5,0
256,256,95354,1,0
256,320,95537,1,2
256,64,95903,6,0,B|312:64|312:112,1,80
256,64,96269,2,0,B|200:64|200:112,1,80,0|0
256,136,96635,2,0,B|256:232,1,80
294,335,97184,2,0,B|264:352|216:336,3,80
192,208,98098,5,2
320,208,98464,1,2
288,264,98647,1,2
256,320,98830,6,0,B|200:320|200:272,1,80
256,320,99196,2,0,B|312:320|312:272,1,80,0|0
256,248,99562,2,0,B|256:152,1,80
217,48,100111,2,0,B|248:32|296:48,3,80
256,96,100842,1,0
256,192,101025,12,0,102672
80,320,102854,6,2,B|176:256|80:104|288:32|392:112|400:208,1,480,2|0
408,256,104135,1,0
296,320,104501,5,0
232,320,104684,2,0,B|200:272|136:296|88:248|88:192|112:136,1,240
208,72,105598,6,0,B|288:24|376:40,2,160
240,128,106513,1,0
176,128,106696,2,0,B|152:168|208:208|248:240|208:296,2,160
144,72,107611,5,0
88,256,108159,5,0
128,304,108342,2,0,B|176:328|216:296,1,80,8|0
256,272,108708,2,0,B|304:248|280:200|376:192|416:232,1,160,2|2
391,88,109440,2,0,B|376:113|280:105|304:57|256:33,1,160,2|0
232,88,109989,1,0
224,152,110172,1,0
232,216,110354,2,0,B|176:224|136:192,2,80
416,152,111269,5,0
416,152,111452,1,0
416,152,111635,2,0,B|416:240|312:240|312:152|312:72|370:93|416:112,2,240
440,96,112915,1,0
400,48,113098,6,8,B|360:24|304:32,1,80
288,80,113464,1,0
248,32,113647,1,0
208,80,113830,2,8,B|208:128|272:184|360:136,1,160,8|8
368,104,114379,1,8
432,64,114562,6,2,B|336:128|432:280|224:352|120:272|112:176,1,480,2|0
104,128,115843,1,0
216,64,116209,5,0
280,64,116392,2,0,B|312:112|376:88|424:136|424:192|400:248,1,240
304,312,117306,6,0,B|224:360|136:344,2,160
272,256,118221,1,0
336,256,118404,2,0,B|360:216|304:176|264:144|304:88,2,160
368,312,119319,5,0
424,128,119867,5,0
384,80,120050,2,0,B|336:56|296:88,1,80,0|0
256,112,120416,2,0,B|208:136|232:184|136:192|96:152,1,160,2|2
120,295,121148,2,0,B|136:271|232:279|208:327|256:351,1,160,0|0
280,296,121696,1,0
280,168,122062,1,0
256,192,122428,12,0,123708
184,256,135781,5,8
224,304,135964,1,8
288,304,136147,1,0
328,256,136330,1,8
384,288,136513,6,8,B|440:288|432:216,1,80
432,176,136879,2,0,B|432:120|360:128,1,80
320,120,137245,2,8,B|320:176|256:184|184:176,1,160
160,120,137793,1,8
128,176,137976,1,0
96,120,138159,1,0
64,176,138342,2,0,B|40:224|72:272,1,80
112,216,138708,2,0,B|136:264|104:312,1,80,0|0
62,253,139074,2,0,B|38:301|70:349,1,80
112,360,139440,6,0,B|128:288|208:304|280:312|288:184,1,240,0|0
168,160,140354,1,0
280,96,140720,2,2,B|384:32|480:80|504:144|480:280|424:296|328:296|288:256|272:216,1,480,2|0
128,96,142367,6,8,B|72:96|80:168,1,80
80,208,142733,2,0,B|80:264|152:256,1,80
192,264,143099,2,8,B|192:208|256:200|328:208,1,160
352,264,143647,1,8
384,208,143830,1,0
416,264,144013,1,0
448,208,144196,2,0,B|472:160|440:112,1,80
400,168,144562,2,0,B|376:120|408:72,1,80,0|0
450,131,144928,2,0,B|474:83|442:35,1,80
256,192,145202,12,0,147854
256,192,148220,5,4
128,192,148586,6,0,B|128:96|248:88,1,160
282,89,149135,2,0,B|384:96|384:192,1,160
320,368,150050,5,0
192,368,150415,1,0
256,256,150781,5,0
256,192,150964,2,8,B|256:144,1,40
224,152,151147,6,0,B|144:152|136:56|248:56,1,160
280,58,151696,2,0,B|360:55|352:151|272:151,1,160,0|0
176,312,152611,6,0,B|264:344|352:304,1,160
256,136,153525,5,0
256,136,153617,1,0
256,136,153708,1,0
256,136,153800,1,0
256,136,153891,1,0
256,136,153982,1,0
256,192,158098,12,0,160293
64,256,160659,6,2,B|144:216|248:264,1,160,2|0
272,280,161208,2,2,B|328:336|416:328|480:296|496:224|504:184|488:128|464:88|432:64|400:56|336:64|328:64,1,480,2|0
232,88,162672,6,0,B|232:176|120:176,2,160
192,40,163586,1,0
152,88,163769,2,0,B|152:176|264:176,1,160,0|0
320,184,164318,5,8
384,192,164501,2,0,B|416:232|376:272,1,80
416,320,164867,1,8
384,376,165050,1,0
352,320,165232,1,8
328,264,165415,6,0,B|304:224|248:224,1,80
264,288,165781,2,0,B|208:352|144:224|104:320,3,160
72,256,167062,1,0
72,256,167245,1,0
24,216,167428,2,0,B|192:8|352:424|520:168,1,560
440,72,169074,5,0
440,72,169257,1,0
400,120,169440,2,0,B|368:144|320:120,1,80
360,72,169806,2,0,B|328:48|280:72,1,80
324,121,170172,2,2,B|220:97|132:137|108:249|244:337|364:297|376:208|344:168|256:192,1,480,2|0
224,64,171635,6,2,B|168:8|80:16|16:48|0:120|-8:160|8:216|32:256|64:280|96:288|160:280|168:280,1,480,2|0
200,272,172915,1,0
232,144,173281,2,2,B|336:120|400:200|400:264|368:320|328:352,1,320,2|0
333,347,174196,1,0
296,296,174379,6,0,B|192:296|192:168,2,160
328,240,175293,2,0,B|328:152,2,80
360,296,175842,2,0,B|464:296|464:168,2,160,0|0|0
352,160,176940,5,0
416,160,177123,1,0
416,96,177306,1,0
352,96,177489,1,2
160,96,177854,1,2
160,288,178220,1,0
352,288,178586,1,0
416,288,178769,2,0,B|480:264|496:232|480:184|448:152|456:144,2,160
256,192,179592,12,4,181879
